osu file format v14

[General]
AudioFilename: 01. (PICK ME).mp3
AudioLeadIn: 0
PreviewTime: 91151
Countdown: 1
SampleSet: Soft
StackLeniency: 0.7
Mode: 0
LetterboxInBreaks: 1
WidescreenStoryboard: 0

[Editor]
Bookmarks: 18085,33085,48085,63085,79960
DistanceSpacing: 1.8
BeatDivisor: 8
GridSize: 32
TimelineZoom: 1.6

[Metadata]
Title:PICK ME
TitleUnicode:나야 나 (PICK ME)
Artist:PRODUCE 101
ArtistUnicode:PRODUCE 101
Creator:Euny
Version:uhchapee centerneun JMB
Source:
Tags:
BeatmapID:1288053
BeatmapSetID:609995

[Difficulty]
HPDrainRate:6
CircleSize:4
OverallDifficulty:8
ApproachRate:8
SliderMultiplier:1.8
SliderTickRate:1

[Events]
//Background and Video events
0,0,"Produce_101_2pickme.jpg",0,0
//Break Periods
2,21683,92335
//Storyboard Layer 0 (Background)
//Storyboard Layer 1 (Fail)
//Storyboard Layer 2 (Pass)
//Storyboard Layer 3 (Foreground)
//Storyboard Sound Samples

[TimingPoints]
3085,468.75,4,2,5,30,1,0
3085,-200,4,2,5,30,0,0
10585,-142.857142857143,4,2,5,30,0,0
16210,-100,4,2,5,30,0,0
18085,-100,4,2,5,30,0,0
48085,-125,4,2,5,30,0,0
63085,-83.3333333333333,4,2,5,30,0,0
79960,-71.4285714285714,4,2,5,30,0,0
94491,-58.8235294117647,4,2,5,30,0,0
94960,-300,4,2,5,30,0,0
95897,-58.8235294117647,4,2,5,30,0,0
96600,-300,4,2,5,30,0,0
97069,-58.8235294117647,4,2,5,30,0,0

[HitObjects]
427,160,3085,5,4,0:0:0:0:
512,189,3319,1,0,0:0:0:0:
364,101,3553,1,0,0:0:0:0:
449,130,3787,1,0,0:0:0:0:
315,170,4022,6,0,P|295:148|286:120,1,45
295,50,4374,1,0,0:0:0:0:
295,50,4491,1,0,0:0:0:0:
396,178,4725,2,0,L|386:228,1,45
363,302,5077,1,0,0:0:0:0:
363,302,5194,1,0,0:0:0:0:
252,276,5428,5,0,0:0:0:0:
368,340,5663,1,0,0:0:0:0:
179,314,5897,2,0,P|174:284|177:255,1,45
213,198,6249,1,0,0:0:0:0:
213,198,6366,1,0,0:0:0:0:
80,229,6600,2,0,L|111:226,1,22.5
54,208,6835,6,0,L|25:235,2,22.5
151,99,7303,1,0,0:0:0:0:
61,90,7537,1,0,0:0:0:0:
232,70,7772,1,0,0:0:0:0:
232,70,7889,2,0,L|234:110,1,22.5
236,173,8124,1,0,0:0:0:0:
236,173,8241,1,0,0:0:0:0:
309,31,8475,1,0,0:0:0:0:
380,187,8710,6,0,L|415:180,2,22.5
442,7,9178,2,0,L|432:46,1,22.5
496,119,9413,2,0,L|490:83,1,22.5
323,119,9647,2,0,L|375:106,1,45
444,135,9999,1,0,0:0:0:0:
444,135,10116,1,0,0:0:0:0:
273,51,10350,1,0,0:0:0:0:
235,129,10585,5,4,0:0:0:0:
376,181,10819,1,0,0:0:0:0:
206,207,11053,1,0,0:0:0:0:
323,119,11288,1,0,0:0:0:0:
148,145,11522,5,0,0:0:0:0:
260,268,11756,1,0,0:0:0:0:
174,65,11991,1,0,0:0:0:0:
125,225,12225,1,0,0:0:0:0:
0,106,12460,5,0,0:0:0:0:
94,303,12694,1,0,0:0:0:0:
230,127,12928,1,0,0:0:0:0:
0,186,13163,1,0,0:0:0:0:
141,370,13397,5,0,0:0:0:0:
119,121,13631,1,0,0:0:0:0:
12,373,13866,1,0,0:0:0:0:
276,352,14100,1,0,0:0:0:0:
96,288,14335,5,0,0:0:0:0:
96,288,14452,1,0,0:0:0:0:
96,288,14569,2,0,L|148:280,1,31.4999990386963
160,192,14803,5,0,0:0:0:0:
160,192,14920,1,0,0:0:0:0:
160,192,15037,2,0,L|212:184,1,31.4999990386963
256,256,15272,5,0,0:0:0:0:
256,256,15389,1,0,0:0:0:0:
256,256,15506,2,0,L|308:248,1,31.4999990386963
320,160,15740,5,0,0:0:0:0:
320,160,15857,1,0,0:0:0:0:
320,160,15974,2,0,L|372:152,1,31.4999990386963
416,224,16210,6,0,L|448:220,6,22.5
448,128,16678,2,0,L|480:124,6,22.5
480,32,17147,1,0,0:0:0:0:
480,288,17616,5,2,0:1:0:0:
242,134,18085,6,0,P|292:109|318:66,1,90,4|0,0:0|0:0,0:0:0:0:
312,5,18436,1,0,0:0:0:0:
164,98,18553,2,0,P|158:142|168:185,1,90
241,221,18905,1,0,0:0:0:0:
231,48,19022,2,0,P|196:19|149:14,1,90
86,65,19374,1,0,0:0:0:0:
56,217,19491,2,0,P|100:182|103:238,1,135
47,304,19960,1,0,0:0:0:0:
65,320,20428,5,0,0:0:0:0:
174,301,20545,1,0,0:0:0:0:
195,293,20780,2,0,L|189:242,1,45
181,165,21014,1,0,0:0:0:0:
278,365,21249,2,0,L|272:314,1,45
264,237,21483,1,0,0:0:0:0:
308,361,93085,5,0,0:0:0:0:
299,344,93202,1,0,0:0:0:0:
291,327,93319,1,0,0:0:0:0:
282,310,93436,1,0,0:0:0:0:
226,222,93553,5,0,0:0:0:0:
218,239,93670,1,0,0:0:0:0:
210,256,93788,1,0,0:0:0:0:
202,273,93905,1,0,0:0:0:0:
140,369,94022,5,0,0:0:0:0:
132,352,94139,1,0,0:0:0:0:
124,335,94256,1,0,0:0:0:0:
116,318,94373,1,0,0:0:0:0:
40,212,94491,5,0,0:0:0:0:
233,205,94725,1,0,0:0:0:0:
19,69,94960,6,0,L|59:82,1,30
120,101,95311,1,0,0:0:0:0:
120,101,95428,1,0,0:0:0:0:
356,265,95663,1,0,0:0:0:0:
356,265,95897,6,0,P|304:299|362:319,1,153.000002918243
425,141,96249,2,0,L|432:298,1,153.000002918243
471,333,96600,6,0,L|475:283,1,45
482,202,97069,5,0,0:0:0:0:
482,202,97186,1,0,0:0:0:0:
482,202,97303,1,0,0:0:0:0:
203,223,97538,1,0,0:0:0:0:
