osu file format v14

[General]
AudioFilename: Vinylicious.mp3
AudioLeadIn: 0
PreviewTime: 56777
Countdown: 1
SampleSet: Normal
StackLeniency: 0.7
Mode: 0
LetterboxInBreaks: 1
WidescreenStoryboard: 0

[Editor]
DistanceSpacing: 0.6
BeatDivisor: 4
GridSize: 16
TimelineZoom: 1

[Metadata]
Title:Vinylicious
TitleUnicode:Vinylicious
Artist:PON3
ArtistUnicode:PON3
Creator:tjnesryan1
Version:Vinylicious
Source:
Tags:yum yum
BeatmapID:752324
BeatmapSetID:340119

[Difficulty]
HPDrainRate:7
CircleSize:4
OverallDifficulty:7
ApproachRate:9
SliderMultiplier:3
SliderTickRate:2

[Events]
//Background and Video events
//Break Periods
2,30795,35722
2,56977,64632
2,65432,82087
2,82887,99541
2,100341,116996
2,117796,186814
2,187614,204269
2,205069,221723
2,222523,239178
2,239978,248178
//Storyboard Layer 0 (Background)
//Storyboard Layer 1 (Fail)
//Storyboard Layer 2 (Pass)
//Storyboard Layer 3 (Foreground)
//Storyboard Sound Samples

[TimingPoints]
50,545.454545454546,4,1,0,100,1,0
10140,-100,4,3,0,100,0,0
11913,-100,4,1,0,100,0,0
18868,-100,4,3,0,100,0,0
20231,-100,4,1,0,100,0,0
27595,-100,4,3,0,100,0,0
29504,-100,4,1,0,100,0,0
36322,-100,4,3,0,100,0,0
38777,-100,4,1,0,100,0,0
39868,-100,4,2,0,100,0,0
51868,-100,4,3,0,100,0,0
52413,-100,4,1,0,100,0,0
56777,-100,4,1,0,100,0,1
65232,-100,4,1,1,100,0,0
65505,-100,4,1,0,100,0,1
73959,-100,4,1,0,100,0,0
74231,-100,4,1,0,100,0,1
82687,-100,4,1,1,100,0,0
82959,-100,4,1,0,100,0,1
100141,-100,4,1,1,100,0,0
100414,-100,4,1,0,100,0,1
108868,-100,4,1,0,100,0,0
109140,-100,4,1,0,100,0,1
117596,-100,4,1,1,100,0,0
117868,-100,4,1,0,100,0,1
117869,-100,4,1,0,100,0,1
126595,-100,4,1,0,100,0,0
178969,-100,4,1,0,100,0,1
187414,-100,4,1,1,100,0,0
187687,-100,4,1,0,100,0,1
196140,-100,4,1,0,100,0,0
196413,-100,4,1,0,100,0,1
204869,-100,4,2,1,100,0,0
205141,-100,4,1,0,100,0,1
222323,-100,4,1,1,100,0,0
222595,-100,4,1,0,100,0,1
231050,-100,4,1,0,100,0,0
231322,-100,4,1,0,100,0,1
239778,-100,4,2,1,100,0,0
240050,-100,4,1,0,100,0,0
240050,-100,4,1,0,100,0,1
248743,-100,4,1,0,100,0,0
248777,-100,4,1,0,100,0,1
248811,-100,4,1,0,100,0,0
249050,-100,4,1,0,5,0,0

[HitObjects]
256,192,50,12,2,4141,0:0:0:0:
192,192,4413,6,0,P|351:149|330:58,2,150,4|0|8,0:0|0:0|0:0,0:0:0:0:
192,192,5231,1,0,0:0:0:0:
256,144,5504,5,0,0:0:0:0:
320,192,5640,1,0,0:0:0:0:
320,192,5709,1,0,0:0:0:0:
320,192,5777,1,0,0:0:0:0:
256,144,5913,1,0,0:0:0:0:
256,144,6050,2,0,L|256:304,2,150,8|0|0,0:0|0:0|0:0,0:0:0:0:
192,208,6868,5,0,0:0:0:0:
256,48,7004,1,0,0:0:0:0:
320,208,7140,1,8,0:0:0:0:
168,112,7277,1,0,0:0:0:0:
344,112,7413,1,0,0:0:0:0:
256,144,7550,1,0,0:0:0:0:
208,240,7686,2,0,P|192:320|160:320,1,75
304,240,7959,2,0,P|320:320|352:320,1,75
112,336,8231,2,0,P|240:384|400:336,1,300,8|0,0:0|0:0,0:0:0:0:
400,208,9050,6,0,P|432:128|416:96,1,75
384,80,9322,2,0,P|352:160|368:192,1,75,8|0,0:0|0:0,0:0:0:0:
350,143,9595,1,0,0:0:0:0:
352,144,9731,1,0,0:0:0:0:
304,192,9868,2,0,P|224:176|224:144,1,75
304,112,10140,2,0,P|224:128|224:160,1,75,2|2,0:0|0:0,0:0:0:0:
236,109,10413,2,0,L|188:221,1,75,2|2,0:0|0:0,0:0:0:0:
288,160,10686,2,0,L|336:272,1,75,2|2,0:0|0:0,0:0:0:0:
317,228,10959,1,2,0:0:0:0:
224,112,11231,5,2,0:0:0:0:
288,112,11368,1,2,0:0:0:0:
184,160,11504,2,0,P|248:173|343:154,1,150,2|2,0:0|0:0,0:0:0:0:
256,192,12050,2,0,P|340:173|344:151,1,75
288,144,12322,2,0,P|203:162|199:184,1,75
120,200,12595,2,0,P|216:248|424:168,1,300,8|0,0:0|0:0,0:0:0:0:
400,112,13413,6,0,L|304:80,2,75,0|0|8,0:0|0:0|0:0,0:0:0:0:
352,160,13822,2,0,L|240:192,2,75
384,192,14231,2,0,P|432:256|416:272,1,75
384,256,14504,2,0,P|314:297|282:281,1,75
320,224,14777,2,0,P|160:224|208:112,1,300,8|0,0:0|0:0,0:0:0:0:
256,96,15595,5,0,0:0:0:0:
336,128,15868,2,0,P|416:160|416:224,1,150,8|0,0:0|0:0,0:0:0:0:
352,192,16413,2,2,P|256:240|48:160,1,300,2|10,0:0|0:0,0:0:0:0:
77,192,17504,5,0,0:0:0:0:
77,192,17777,2,0,P|32:128|48:96,1,75
96,128,18050,2,0,P|160:224|160:240,1,75,8|0,0:0|0:0,0:0:0:0:
148,180,18322,1,0,0:0:0:0:
148,180,18459,1,0,0:0:0:0:
192,208,18595,2,0,L|272:240,1,75
240,160,18868,2,0,L|320:144,1,75,2|2,0:0|0:0,0:0:0:0:
368,160,19140,1,2,0:0:0:0:
400,192,19277,1,2,0:0:0:0:
416,240,19413,1,2,0:0:0:0:
400,288,19550,1,2,0:0:0:0:
368,320,19686,5,2,0:0:0:0:
368,320,19959,1,2,0:0:0:0:
368,320,20095,1,2,0:0:0:0:
368,320,20231,2,0,P|194:292|180:274,1,150,2|2,0:0|0:0,0:0:0:0:
160,256,20777,6,0,P|82:230|84:214,1,75
128,208,21050,2,0,P|207:225|209:261,1,75
196,209,21322,1,0,0:0:0:0:
256,192,21595,5,2,0:0:0:0:
256,96,21868,5,0,0:0:0:0:
208,112,22140,2,0,L|176:208,1,75
320,192,22413,2,0,L|352:288,1,75,8|0,0:0|0:0,0:0:0:0:
208,272,22686,2,0,L|176:384,1,75
320,320,22959,2,0,P|400:320|400:304,3,75
368,288,23504,2,0,P|403:216|374:202,3,75,8|0|0|0,0:0|0:0|0:0|0:0,0:0:0:0:
416,240,24050,5,0,0:0:0:0:
416,144,24322,1,0,0:0:0:0:
416,144,24390,1,0,0:0:0:0:
416,144,24459,1,0,0:0:0:0:
368,144,24595,1,8,0:0:0:0:
272,144,24868,1,0,0:0:0:0:
336,208,25140,2,0,P|368:288|352:304,1,75
240,336,25413,2,0,P|218:248|248:228,1,75
336,208,25686,1,8,0:0:0:0:
208,272,25959,1,0,0:0:0:0:
256,192,26231,5,0,0:0:0:0:
352,112,26504,2,0,P|352:192|336:192,1,75
160,272,26777,2,0,P|160:192|176:192,1,75,8|0,0:0|0:0,0:0:0:0:
288,144,27050,2,0,P|288:224|272:224,3,75
224,240,27595,2,0,P|224:160|240:160,3,75,2|2|2|2,0:0|0:0|0:0|0:0,0:0:0:0:
256,64,28140,1,2,0:0:0:0:
256,192,28277,1,2,0:0:0:0:
256,320,28413,1,2,0:0:0:0:
256,128,28686,1,2,0:0:0:0:
256,192,28822,1,2,0:0:0:0:
256,256,28959,1,2,0:0:0:0:
256,192,29231,1,2,0:0:0:0:
160,192,29504,6,0,L|112:192,2,37.5
352,192,29777,2,0,L|400:192,2,37.5
256,304,30050,1,0,0:0:0:0:
176,80,30186,1,0,0:0:0:0:
336,80,30322,1,0,0:0:0:0:
128,208,30459,1,0,0:0:0:0:
256,192,30595,5,0,0:0:0:0:
112,48,36322,6,0,L|208:96,1,75,2|2,0:0|0:0,0:0:0:0:
400,112,36595,2,0,L|288:160,1,75,2|2,0:0|0:0,0:0:0:0:
112,192,36868,2,0,L|208:240,1,75,2|2,0:0|0:0,0:0:0:0:
320,272,37140,1,2,0:0:0:0:
320,272,37413,2,0,P|400:224|416:176,2,75,2|2|2,0:0|0:0|0:0,0:0:0:0:
192,272,37959,2,0,P|112:224|96:176,2,75,2|2|2,0:0|0:0|0:0,0:0:0:0:
256,272,38504,1,2,0:0:0:0:
256,192,38777,1,2,0:0:0:0:
256,192,39322,5,4,0:0:0:0:
432,192,39868,1,8,0:0:0:0:
368,128,40140,1,0,0:0:0:0:
368,176,40277,1,0,0:0:0:0:
320,176,40413,1,0,0:0:0:0:
320,128,40550,2,0,L|320:80,4,37.5
256,96,40959,5,8,0:0:0:0:
224,192,41231,1,0,0:0:0:0:
144,256,41504,1,0,0:0:0:0:
192,256,41777,1,0,0:0:0:0:
240,256,41913,2,0,L|304:256,2,37.5,0|0|8,0:0|0:0|0:0,0:0:0:0:
336,256,42322,5,0,0:0:0:0:
336,160,42595,1,0,0:0:0:0:
240,160,42868,2,0,L|176:160,4,37.5,0|0|0|0|8,0:0|0:0|0:0|0:0|0:0,0:0:0:0:
176,96,43413,1,0,0:0:0:0:
176,192,43686,5,0,0:0:0:0:
176,288,43959,1,0,0:0:0:0:
224,288,44095,1,0,0:0:0:0:
240,288,44163,1,0,0:0:0:0:
256,288,44231,1,8,0:0:0:0:
352,192,44368,1,8,0:0:0:0:
352,288,44504,1,8,0:0:0:0:
256,192,44640,1,8,0:0:0:0:
304,240,44777,5,0,0:0:0:0:
304,144,45050,2,0,L|304:80,4,37.5,0|0|0|0|8,0:0|0:0|0:0|0:0|0:0,0:0:0:0:
304,144,45595,1,0,0:0:0:0:
304,240,45868,2,0,P|192:288|0:224,3,300,0|0|0|8,0:0|0:0|0:0|0:0,0:0:0:0:
25,245,47777,1,8,0:0:0:0:
96,176,48050,5,0,0:0:0:0:
144,176,48186,1,0,0:0:0:0:
144,224,48322,1,0,0:0:0:0:
96,224,48459,1,0,0:0:0:0:
96,272,48595,2,0,L|96:320,2,37.5,8|0|0,0:0|0:0|0:0,0:0:0:0:
144,272,48868,2,0,L|144:320,2,37.5
256,192,49140,5,0,0:0:0:0:
320,256,49413,1,0,0:0:0:0:
368,256,49550,2,0,L|416:256,2,37.5,0|0|8,0:0|0:0|0:0,0:0:0:0:
320,256,49822,1,0,0:0:0:0:
256,192,49959,1,0,0:0:0:0:
320,256,50095,1,0,0:0:0:0:
320,304,50231,2,0,P|240:320|144:288,1,150
96,256,50777,2,0,P|176:240|256:256,1,150
320,160,51322,2,0,P|224:176|144:144,1,150
208,240,51868,5,2,0:0:0:0:
304,144,52004,1,2,0:0:0:0:
304,240,52140,1,2,0:0:0:0:
208,144,52277,1,2,0:0:0:0:
256,192,56777,5,4,0:0:0:0:
256,192,65232,5,0,0:0:0:0:
256,192,82687,5,0,0:0:0:0:
256,192,100141,5,0,0:0:0:0:
256,192,117596,5,0,0:0:0:0:
256,192,187414,5,0,0:0:0:0:
256,192,204869,5,0,0:0:0:0:
256,192,222323,5,0,0:0:0:0:
256,192,239778,5,0,0:0:0:0:
256,192,248778,5,4,0:0:0:0:
256,192,248778,12,0,257506,0:0:0:0:
