osu file format v5

[General]
AudioFilename: moyashimoned.mp3
AudioLeadIn: 0
PreviewTime: -1
Countdown: 1
SampleSet: Normal
StackLeniency: 0.7
Mode: 0

[Metadata]
Title:Rocket (Moyashimon ED)
Artist:POLYSICS
Creator:Skits
Version:Easy
Source:
Tags:

[Difficulty]
HPDrainRate:5
CircleSize:6
OverallDifficulty:3
SliderMultiplier:1.1
SliderTickRate:2

[Events]
//Background and Video events
1,49,"moyashimon ed.avi"
0,0,"rocket.jpg"
//Break Periods
2,4900,5614
//Storyboard Layer 0 (Background)
//Storyboard Layer 1 (Failing)
//Storyboard Layer 2 (Passing)
//Storyboard Layer 3 (Foreground)
//Storyboard Sound Samples
//Background Colour Transformations
3,100,163,162,255

[TimingPoints]
4700,588.718808005499,4,1,1,100

[Colours]
Combo1 : 255,150,0
Combo2 : 5,240,5
Combo3 : 5,5,240
Combo4 : 240,5,5

[HitObjects]
132,109,2345,1,0
216,128,3522,1,0
107,154,4700,1,0
219,163,7054,5,0
333,207,9409,1,0
120,204,10587,1,0
75,276,11175,1,0
200,277,11764,1,0
345,244,12353,1,0
31,195,12942,2,2,L|32:196|32:196|118:132|118:132|224:166|224:166|217:170,1,110
358,118,14708,5,0
358,118,15296,1,0
358,118,15885,1,0
358,118,16474,1,0
358,118,17063,1,0
96,224,17651,2,2,L|223:143|223:143|332:250|338:256,2,220
75,118,21772,5,0
165,115,22361,1,0
248,183,22950,1,0
464,96,24127,1,0
268,86,24716,1,0
113,203,25305,1,0
327,205,25893,1,0
420,203,26482,1,0
416,123,27071,1,2
332,125,27660,1,2
246,128,28248,1,2
196,268,29426,5,0
196,268,30014,1,0
196,268,30603,1,0
314,192,31192,1,2
33,117,31781,1,2
158,138,32369,2,2,L|311:33|359:30|289:222|288:192,1,440
215,208,35902,5,0
150,138,36490,1,0
137,97,37079,1,2
150,57,37668,1,0
191,48,38256,1,2
231,61,38845,1,0
266,82,39434,1,0
285,121,40023,1,0
285,164,40611,1,0
253,192,41200,1,0
210,195,41789,1,0
171,177,42378,1,0
137,148,42966,2,2,L|258:66|270:65|306:125,1,220
160,192,44732,5,0
256,192,45321,1,0
288,192,45910,1,0
384,192,46499,1,0
138,295,47676,2,2,L|201:201|201:201|284:164|340:171|311:167,1,220
288,256,49442,1,0
288,192,50031,1,0
288,128,50620,1,0
288,64,51208,1,0
116,137,52386,1,2
411,103,53563,5,2
269,278,54741,1,0
144,192,55329,1,0
136,175,55918,1,0
126,161,56507,1,0
118,149,57095,1,0
261,117,57684,1,0
293,122,58273,1,0
316,143,58862,1,0
337,199,59450,1,0
335,226,60039,1,0
333,251,60628,1,0
151,337,62394,6,2,L|66:267|30:182|69:78|165:28|351:29|440:88|477:182|430:287|371:345|180:341|186:354,1,1210
178,109,70047,5,2
290,109,70636,1,0
127,312,71225,1,0
85,286,71813,1,2
55,188,72402,1,0
119,119,72991,1,0
232,204,73580,1,2
200,241,74168,1,0
113,326,74757,1,0
53,205,75346,6,0,B|143:84|236:248|363:101|333:70,1,330
256,192,77701,12,0,79466
