osu file format v7

[General]
AudioFilename: Renai Jiyuu Shoujo (Short Ver.).mp3
AudioLeadIn: 0
PreviewTime: 57980
Countdown: 0
SampleSet: Normal
StackLeniency: 0.7
Mode: 0
LetterboxInBreaks: 1

[Editor]
DistanceSpacing: 0.899999976158142
BeatDivisor: 4
GridSize: 8

[Metadata]
Title:Renai Jiyuu Shoujo (Short Ver.)
Artist:PNGN6
Creator:Vicho-kun
Version:Normal
Source:Penguin Musume Heart
Tags:Kataoka Azusa Ise Mariya Nanjou Yoshino Nogawa Sakura Kadowaki Mai Hidaka Rina Nico Nico Douga Kytoxid Dangaard IOSYS

[Difficulty]
HPDrainRate:4
CircleSize:4
OverallDifficulty:4
SliderMultiplier:1
SliderTickRate:1

[Events]
//Background and Video events
0,0,"Penguin BG.jpg"
Video,0,"Penguin Musume OP.avi"
//Break Periods
//Storyboard Layer 0 (Background)
//Storyboard Layer 1 (Fail)
//Storyboard Layer 2 (Pass)
//Storyboard Layer 3 (Foreground)
//Storyboard Sound Samples
//Background Colour Transformations
3,100,163,162,255

[TimingPoints]
5980,361.44578313253,4,1,0,66,1,0
58042,-100,4,1,0,66,0,1
63820,-100,4,1,0,66,0,0
69600,-100,4,1,0,66,0,1
75380,-100,4,1,0,66,0,0
86881,-100,4,1,0,0,0,0

[Colours]
Combo1 : 255,107,36
Combo2 : 128,0,255
Combo3 : 255,47,151

[HitObjects]
80,88,5980,1,2
304,88,6883,1,0
304,88,7064,1,0
392,88,7425,5,2
240,312,8329,1,0
240,312,8510,1,0
176,240,8871,5,0
128,160,9233,1,8
80,88,9594,1,0
168,88,9955,1,8
256,88,10317,2,0,B|296:48|360:72,2,100,0|8|0
224,168,11401,1,4
136,192,11763,6,0,B|120:216|120:296,2,100,0|8|0
136,192,12847,1,8
224,192,13208,2,0,B|248:144|240:88,2,100,0|8|0
168,264,14293,1,8
224,336,14654,1,0
280,264,15016,1,8
336,336,15377,1,0
392,264,15739,1,8
456,200,16100,5,0
456,200,16461,1,8
456,112,16823,1,0
376,144,17184,1,8
288,144,17546,1,0
240,224,17907,6,0,B|184:200|176:144,2,100,8|0|8
328,224,18992,2,0,B|344:280|296:336,1,100,0|8
216,336,19714,1,0
128,336,20076,2,0,B|16:336,2,100,8|0|8
160,256,21160,1,0
160,256,21522,1,8
80,208,21883,5,0
160,176,22245,1,8
248,152,22606,1,0
160,176,22967,1,4
48,128,23690,6,0,B|56:80|112:56,2,100,8|0|8
144,128,24775,2,0,B|144:248,1,100,0|8
144,228,25317,1,0
192,304,25678,2,0,B|128:304,2,50,0|8|0
256,184,26582,5,8
328,232,26943,2,0,B|376:232|424:160,1,100,0|8
328,136,27666,2,0,B|328:32,1,100,0|8
240,40,28389,1,0
240,128,28751,1,8
240,128,29112,1,4
152,128,29473,6,0,B|152:248,2,100,8|0|8
64,128,30558,1,0
64,216,30919,1,8
64,304,31281,1,0
144,304,31642,1,8
144,304,32004,1,0
328,304,32726,6,0,B|328:200,1,100,0|8
328,120,33449,2,0,B|400:104|424:168,2,100,0|8|0
256,80,34534,1,0
96,112,35257,5,8
112,192,35618,1,0
128,272,35979,1,8
192,224,36341,1,0
256,272,36702,1,8
320,176,37245,2,0,B|320:136|360:128,2,50,0|8|0
384,280,38148,5,8
384,280,38510,1,0
424,208,38871,2,0,B|496:208,1,50,8|0
424,136,39413,2,0,B|480:128|488:120,1,50,0|8
336,136,40136,6,0,B|336:72,2,50,0|8|0
272,200,40859,2,0,B|216:200,2,50,0|8|0
336,256,41582,2,0,B|336:312,2,50,0|8|0
408,200,42305,2,0,B|472:200,2,50,0|8|0
272,224,43208,6,0,B|280:144|248:104,1,100,8|0
184,176,43931,2,0,B|120:176|88:112,1,100,8|0
40,248,44835,6,0,B|40:352,1,100,2|0
160,288,45739,2,0,B|224:280|272:328,1,100,2|0
256,224,46461,1,4
344,264,46823,6,0,B|344:160,1,100,2|0
432,192,47546,2,0,B|432:88,2,100,8|0|8
432,280,48630,1,0
352,328,48992,2,0,B|280:320|256:272,1,100,8|0
88,264,50076,6,0,B|24:264,3,50,0|0|8|0
176,264,50979,1,0
224,264,51160,1,12
352,224,51702,6,0,B|352:152,2,50,0|8|0
232,288,52606,1,12
144,304,52967,6,0,B|144:184,1,100,0|12
56,200,53690,2,0,B|56:112|96:88,1,100,0|12
168,88,54413,2,0,B|240:88,3,50,0|0|8|0
344,48,55498,2,0,B|352:128|352:240|232:320,1,300,8|0
64,312,57305,5,0
64,312,57666,1,8
64,224,58028,6,0,B|64:112,2,100,0|8|0
64,224,59112,1,8
152,248,59473,2,0,B|184:304|256:304,1,100,0|8
240,216,60196,2,0,B|280:184|360:192,1,100,0|8
416,232,60919,6,0,B|416:112,2,100,0|8|0
368,304,62004,2,0,B|312:304,1,50,8|0
232,304,62546,1,0
232,304,62726,1,8
112,272,63269,1,2
112,272,63449,1,10
112,192,63811,6,0,B|112:104|144:88,2,100,0|8|0
32,216,64895,1,8
104,256,65257,2,0,B|56:304,3,50,0|0|8|0
160,312,66160,2,0,B|216:312|264:272,1,100,0|2
256,192,66883,2,0,B|320:192|368:240,1,100,0|2
424,272,67606,2,0,B|424:344,4,50,0|8|0|0|0
416,184,68690,2,0,B|360:176|296:208,1,100,0|6
208,120,69594,6,0,B|208:240,2,100,4|8|0
200,32,70678,2,0,B|120:32|96:80,1,100,8|0
80,144,71401,2,0,B|80:248,2,100,8|0|8
80,56,72486,6,0,B|184:56,2,100,0|8|0
80,56,73570,1,8
80,144,73931,2,0,B|80:256,2,100,0|8|0
168,144,75016,1,8
256,144,75377,6,0,B|248:72|288:32,2,100,0|8|0
256,232,76461,2,0,B|320:240|376:216,2,100,8|0|8
256,320,77546,1,0
168,320,77907,1,8
88,280,78269,1,0
48,200,78630,1,8
72,112,78992,1,0
152,64,79353,1,8
240,64,79714,5,0
240,112,79895,1,0
240,200,80257,1,0
240,288,80618,1,0
240,336,80799,1,0
152,336,81160,6,0,B|152:32,1,300,6|2
240,40,82606,2,0,B|240:344,1,300,2|2
152,336,84052,6,0,B|80:336|48:296,2,100,2|8|2
240,336,85136,1,8
328,336,85498,2,0,B|328:232,2,100,2|8|2
240,336,86582,1,4
256,192,86943,12,4,89835
