osu file format v7

[General]
AudioFilename: Renai Jiyuu Shoujo (Short Ver.).mp3
AudioLeadIn: 0
PreviewTime: 57980
Countdown: 0
SampleSet: Normal
StackLeniency: 0.7
Mode: 0
LetterboxInBreaks: 1

[Editor]
DistanceSpacing: 1
BeatDivisor: 4
GridSize: 8

[Metadata]
Title:Renai Jiyuu Shoujo (Short Ver.)
Artist:PNGN6
Creator:Vicho-kun
Version:Hard
Source:Penguin Musume Heart
Tags:Kataoka Azusa Ise Mariya Nanjou Yoshino Nogawa Sakura Kadowaki Mai Hidaka Rina Nico Nico Douga Kytoxid Dangaard IOSYS

[Difficulty]
HPDrainRate:6
CircleSize:4
OverallDifficulty:6
SliderMultiplier:1.4
SliderTickRate:1

[Events]
//Background and Video events
0,0,"Penguin BG.jpg"
Video,0,"Penguin Musume OP.avi"
//Break Periods
//Storyboard Layer 0 (Background)
//Storyboard Layer 1 (Fail)
//Storyboard Layer 2 (Pass)
//Storyboard Layer 3 (Foreground)
//Storyboard Sound Samples
//Background Colour Transformations
3,100,163,162,255

[TimingPoints]
5980,361.44578313253,4,1,0,65,1,0
58042,-100,4,1,0,65,0,1
63820,-100,4,1,0,65,0,0
68651,-50,4,1,0,65,0,0
69165,-100,4,1,0,65,0,0
69600,-100,4,1,0,65,0,1
75380,-100,4,1,0,65,0,0
86834,-100,4,1,0,0,0,0

[Colours]
Combo1 : 255,139,23
Combo2 : 135,15,255
Combo3 : 255,32,143

[HitObjects]
104,56,5980,2,2,B|16:168|80:336,1,280,2|2
144,320,6883,1,0
144,320,7064,1,0
280,320,7425,6,2,B|432:312|504:136,1,280,2|2
448,104,8329,1,0
448,104,8510,1,0
352,56,8871,5,0
288,32,9052,1,0
224,56,9233,1,8
96,112,9594,1,0
56,168,9775,1,0
88,232,9955,1,8
208,304,10317,6,0,B|304:304,2,70,0|0|8
136,288,10859,1,0
72,256,11040,2,0,B|64:224|96:192,1,70
168,184,11401,1,4
288,248,11763,6,0,B|280:88,2,140,0|8|0
208,256,12666,1,0
208,328,12847,1,8
72,328,13208,2,0,B|64:184|64:168,2,140,0|8|0
144,312,14112,1,0
136,240,14293,1,8
128,168,14473,2,0,B|120:120|152:88,1,70,0|0
232,208,15016,1,8
232,208,15196,5,0
232,280,15377,2,0,B|248:320|320:320,1,70
304,248,15739,2,0,B|320:208|368:200,1,70,8|0
456,296,16281,5,0
448,224,16461,1,8
416,160,16642,1,0
360,120,16823,1,0
288,104,17004,1,0
216,112,17184,1,8
160,152,17365,1,0
112,200,17546,6,0,B|88:272|156:336,2,140,0|8|0
112,128,18449,1,0
184,136,18630,2,0,B|232:80|208:-8,2,140,8|0|8
136,264,19714,1,0
136,264,19895,1,0
136,264,20076,1,8
152,328,20257,2,0,B|192:344|248:312,1,70
216,192,20799,6,0,B|248:128|360:112,2,140,8|0|8
160,248,21702,2,0,B|104:184|152:112,1,140
216,120,22245,1,8
216,120,22425,1,0
216,120,22606,1,0
216,120,22787,1,0
216,192,22967,2,0,B|232:232|304:224,1,70,8|4
376,312,23510,5,0
376,312,23690,1,8
408,176,24052,2,0,B|472:232|464:312,1,140,0|8
336,240,24775,2,0,B|272:192|272:88,1,140,0|8
272,48,25317,1,0
400,104,25678,2,0,B|440:88|440:32,2,70,0|8|0
448,248,26401,6,0,B|416:272|352:240,1,70,0|8
256,320,26943,2,0,B|256:160,1,140,0|8
320,208,27486,2,0,B|240:216|200:288,1,140
144,240,28028,1,8
80,120,28389,2,0,B|32:104|8:160,2,70,0|0|8
200,184,29112,1,4
312,104,29473,6,0,B|312:272,1,140,8|0
312,104,30196,1,8
312,176,30377,2,0,B|408:192,1,70,0|0
360,256,30739,2,0,B|400:272|448:232,1,70,0|8
456,184,31100,1,0
408,56,31461,2,0,B|448:32|496:64,1,70,0|8
464,120,31823,1,0
400,152,32004,2,0,B|376:224|440:312|448:312,1,140,0|8
288,288,32726,6,0,B|192:272,2,70,0|0|8
288,216,33269,2,0,B|304:128|392:120,1,140,0|0
352,56,33811,2,0,B|272:72|264:96,1,70,8|0
160,136,34353,2,0,B|136:176|72:168,2,70,0|8|4
256,240,35076,6,0,B|256:136,1,70,0|8
256,168,35618,1,0
128,120,35979,2,0,B|160:48|256:64,1,140,8|0
200,192,36702,2,0,B|208:240|272:240,1,70,8|0
320,120,37245,2,0,B|368:112|392:168,1,70,0|8
384,216,37606,1,0
280,312,37967,5,0
208,312,38148,1,8
72,312,38510,1,0
40,176,38871,2,0,B|32:120|80:96,1,70,8|0
136,224,39413,2,0,B|121:179|165:132,1,70,0|12
328,264,40136,5,0
328,192,40317,1,8
328,120,40498,1,0
472,120,40859,1,0
472,192,41040,1,8
472,264,41220,1,0
328,264,41582,6,0,B|328:328|280:344,2,70,0|8|0
192,224,42305,2,0,B|184:168|216:136,2,70,0|8|0
88,320,43028,6,0,B|136:328|160:264,1,70,0|8
56,184,43570,2,0,B|56:112|144:80,1,140,0|8
168,144,44112,1,0
376,152,44654,5,0
440,184,44835,2,0,B|464:104|368:48,1,140,2|0
296,168,45558,1,0
344,224,45739,2,0,B|312:296|208:280,1,140,2|0
184,152,46461,1,4
72,72,46823,6,0,B|72:232,1,140,2|0
208,240,47546,1,8
144,264,47726,2,0,B|184:328|272:320,1,140,0|0
280,248,48269,2,0,B|336:240|376:272,2,70,8|0|0
144,264,48992,2,0,B|136:168|200:136,1,140,8|0
191,140,49714,1,8
56,96,50076,6,0,B|48:48|112:24,2,70,0|0|8
56,96,50618,1,0
112,224,50980,2,0,B|112:320,1,70,0|8
232,224,51522,5,0
232,296,51702,1,0
232,224,51883,1,8
160,224,52064,1,0
128,208,52154,1,0
112,176,52245,1,0
168,48,52606,5,12
224,96,52787,1,0
280,144,52967,1,0
416,136,53329,2,0,B|480:144|496:184,2,70,12|0|0
368,80,53871,2,0,B|344:40|280:64,1,70,0|12
192,136,54413,6,0,B|192:232,2,70
144,80,54955,1,0
48,176,55317,1,0
48,248,55498,2,0,B|160:384|312:240,1,280,8|8
256,120,56582,5,2
256,120,56763,1,2
256,120,56943,1,6
160,64,57305,2,0,B|72:72|72:96,2,70,0|0|8
64,168,58028,6,0,B|24:232|32:312,1,140,4|8
168,272,58751,1,0
168,272,59112,1,8
168,200,59293,2,0,B|208:136|304:144,1,140
296,216,59835,1,8
424,168,60196,2,0,B|464:152|504:192,1,70,2|0
464,248,60558,1,8
328,248,60919,6,0,B|328:104,2,140,0|8|0
456,320,62004,1,8
384,320,62184,2,0,B|336:328|312:272,2,70,0|0|0
384,320,62726,1,8
384,176,63088,1,0
320,208,63269,1,2
248,208,63449,1,10
112,192,63811,6,0,B|120:104|224:80,2,140,0|8|0
40,72,64895,1,8
40,216,65257,2,0,B|40:296,2,70,0|0|8
40,216,65799,1,0
176,208,66160,6,0,B|176:112,2,70,0|8|0
288,288,66883,1,0
288,288,67064,1,8
288,288,67245,1,0
280,144,67606,6,0,B|376:144,2,70,0|8|0
232,192,68148,1,0
232,192,68329,1,0
232,192,68510,1,8
184,248,68690,5,2
456,320,69052,1,2
472,248,69233,1,8
440,184,69413,2,0,B|376:176|344:208,1,70,0|4
256,272,69955,6,0,B|288:336|392:336,2,140,8|0|8
240,200,70859,2,0,B|304:152|408:192,1,140,0|0
376,112,71401,1,8
240,128,71763,2,0,B|192:184|208:288,1,140,2|8
336,296,72486,6,0,B|384:304|432:264,2,70,0|0|8
336,296,73028,1,0
336,296,73208,1,0
200,288,73570,2,0,B|200:208,1,70,8|0
200,144,73931,1,0
200,144,74112,1,0
272,144,74293,1,8
136,144,74654,5,0
136,144,74745,1,0
136,144,74835,1,2
136,216,75016,1,10
96,80,75377,6,0,B|32:136|32:216,2,140,0|8|0
168,80,76281,1,0
240,80,76461,1,8
344,176,76823,2,0,B|384:192|384:264,2,70,0|0|8
288,128,77365,2,0,B|312:88|368:96,1,70
416,96,77726,6,0,B|416:168,2,70,0|8|0
296,168,78449,2,0,B|296:264,2,70,0|8|0
232,288,79172,1,0
168,312,79353,1,8
112,264,79534,1,0
144,200,79714,1,2
216,200,79895,1,2
232,64,80257,2,0,B|328:64|368:152,1,140,0|0
416,88,80799,1,0
160,176,81160,6,0,B|160:240|320:304|416:248,1,280,6|0
464,240,82064,1,2
464,168,82245,1,2
320,176,82606,6,0,B|320:112|160:48|64:104,1,280,2|0
80,168,83510,1,2
80,240,83690,1,2
192,328,84052,6,0,B|248:320|296:328,2,70,0|0|8
128,304,84594,1,0
80,248,84775,1,0
48,184,84955,2,0,B|48:88,2,70,0|8|0
120,176,85498,2,0,B|176:160|224:176,2,70,0|0|8
144,240,86040,2,0,B|144:280|184:312,1,70
240,280,86401,1,0
264,216,86582,1,4
256,192,86943,12,4,89835
