osu file format v7

[General]
AudioFilename: Renai Jiyuu Shoujo (Short Ver.).mp3
AudioLeadIn: 0
PreviewTime: 57980
Countdown: 0
SampleSet: Normal
StackLeniency: 0.7
Mode: 0
LetterboxInBreaks: 1

[Editor]
DistanceSpacing: 1
BeatDivisor: 2
GridSize: 8

[Metadata]
Title:Renai Jiyuu Shoujo (Short Ver.)
Artist:PNGN6
Creator:Vicho-kun
Version:Easy Dan
Source:Penguin Musume Heart
Tags:Kataoka Azusa Ise Mariya Nanjou Yoshino Nogawa Sakura Kadowaki Mai Hidaka Rina Nico Nico Douga Kytoxid Dangaard IOSYS

[Difficulty]
HPDrainRate:1
CircleSize:3
OverallDifficulty:1
SliderMultiplier:0.6
SliderTickRate:0.5

[Events]
//Background and Video events
0,0,"Penguin BG.jpg"
Video,0,"Penguin Musume OP.avi"
//Break Periods
//Storyboard Layer 0 (Background)
//Storyboard Layer 1 (Fail)
//Storyboard Layer 2 (Pass)
//Storyboard Layer 3 (Foreground)
//Storyboard Sound Samples
//Background Colour Transformations
3,100,163,162,255

[TimingPoints]
5980,361.44578313253,4,1,0,66,1,0
58035,-100,4,1,0,66,0,1
63818,-100,4,1,0,66,0,0
69601,-100,4,1,0,66,0,1
75384,-100,4,1,0,66,0,0
86860,-100,4,1,0,0,0,0

[Colours]
Combo1 : 255,112,43
Combo2 : 120,0,240
Combo3 : 255,60,157

[HitObjects]
48,280,5980,2,2,B|130:354|211:277,1,180,4|2
264,280,7425,2,2,B|346:354|427:277,1,180,0|2
464,232,8871,6,0,B|456:160|376:152,1,120,0|2
264,152,10317,1,0
208,152,10678,2,0,B|72:152,1,120,2|2
72,208,11763,6,0,B|135:300|278:316|390:290|447:197,1,420,4|8
400,168,14654,6,0,C|376:136|376:72,2,90,0|0|8
456,160,16100,2,0,B|472:120|464:64,2,90,0|0|8
440,208,17546,6,0,B|377:300|234:316|122:290|65:197,1,420,0|8
112,168,20437,6,0,C|136:136|136:72,2,90,0|0|8
56,160,21883,2,0,B|40:120|48:64,2,90,0|0|8
72,208,23329,6,0,B|80:248|80:296,1,60,4|0
192,304,24413,1,8
208,184,25136,1,0
320,136,25859,6,0,B|328:200|304:272,1,120,0|8
288,312,26943,1,0
376,312,27486,2,0,B|399:266|402:204,1,90,0|8
408,168,28389,1,0
320,88,29112,6,0,C|208:96|152:152,1,180,0|8
136,200,30558,2,0,C|176:232|264:240|312:272,1,180,0|8
328,312,32004,1,0
118,308,33269,6,0,B|183:322|265:316,2,120,0|0|0
56,240,35257,6,0,C|64:208|80:168,1,60,0|0
96,128,35979,1,8
208,88,36702,2,0,C|180:151|158:214,2,120,0|8|0
264,72,38510,2,0,C|368:80,1,90
408,152,39594,1,8
464,288,40498,6,0,C|344:280,1,120,2|0
232,320,41943,2,0,C|112:312,1,120,2|0
80,224,43208,5,8
136,208,43570,2,0,C|223:213,1,60
296,272,44654,1,8
368,176,45377,2,0,B|360:104|336:48,1,120,0|8
280,56,46461,6,0,C|160:48,1,120,4|2
96,96,47726,2,0,B|88:128|104:168|168:168,1,90
168,208,48630,2,0,C|173:295,1,60,0|0
136,312,49353,5,2
32,256,50076,2,0,C|24:152,2,90,0|0|2
128,184,51883,2,0,B|161:179|215:179,1,60,0|0
248,176,52606,5,4
424,208,53329,1,4
280,312,54052,1,4
104,280,54775,1,0
256,192,54955,12,4,56582
296,152,58028,5,4
384,64,58751,2,0,B|432:64|496:72,2,90,0|0|8
456,232,60919,5,0
368,320,61642,2,0,B|320:320|256:312,2,90,0|0|8
224,216,63811,5,0
344,192,64534,1,0
248,120,65257,1,0
112,280,66522,6,0,C|88:232|88:144,1,120,2|0
200,64,68148,2,0,B|208:144|192:216,1,150,2|0
224,296,69594,5,4
288,192,70317,2,0,B|296:143|292:99,2,90,0|0|8
144,88,72486,5,0
80,192,73208,2,0,B|72:241|76:285,2,90,0|0|8
256,192,75377,5,0
280,312,76100,1,0
352,216,76823,1,0
472,40,78088,6,0,B|464:104|472:176,1,120,2|0
344,240,79714,2,0,B|356:194|340:127,2,90,2|0|0
304,288,81160,6,2,B|222:362|141:285,1,180,4|2
144,224,82606,2,2,B|226:298|307:221,1,180,0|2
336,176,84052,6,0,B|360:120|352:48,1,120,0|2
456,112,85498,2,0,B|451:191|417:252,1,120
368,232,86582,1,2
256,192,86943,12,4,89835
