osu file format v12

[General]
AudioFilename: Baby (Breakbot Remix).mp3
AudioLeadIn: 0
PreviewTime: -1
Countdown: 1
SampleSet: None
StackLeniency: 0.7
Mode: 0
LetterboxInBreaks: 1
WidescreenStoryboard: 1

[Editor]
DistanceSpacing: 0.8
BeatDivisor: 4
GridSize: 16

[Metadata]
Title:Baby (Breakbot Remix)
TitleUnicode:Baby (Breakbot Remix)
Artist:PNAU
ArtistUnicode:PNAU
Creator:Mifune24
Version:Normal
Source:
Tags:
BeatmapID:367398
BeatmapSetID:148608

[Difficulty]
HPDrainRate:5
CircleSize:4
OverallDifficulty:6
ApproachRate:6
SliderMultiplier:1.4
SliderTickRate:1

[Events]
//Background and Video events
0,0,"pnau.jpg",0,0
//Break Periods
2,131825,142189
//Storyboard Layer 0 (Background)
//Storyboard Layer 1 (Fail)
//Storyboard Layer 2 (Pass)
//Storyboard Layer 3 (Foreground)
//Storyboard Sound Samples
//Background Colour Transformations
3,100,163,162,255

[TimingPoints]
46465.2580645161,483.870967741935,4,1,0,100,1,0

[HitObjects]
16,304,46465,2,0,P|80:336|144:288,1,140
176,256,47191,1,0,0:0:0:0:
176,256,47433,1,0,0:0:0:0:
256,176,47916,1,0,0:0:0:0:
336,96,48400,2,0,P|384:64|464:112,1,140
496,144,49126,1,0,0:0:0:0:
496,144,49368,1,0,0:0:0:0:
416,224,49852,1,0,0:0:0:0:
336,304,50336,6,0,P|272:368|304:256,2,280
400,208,52755,1,0,0:0:0:0:
400,208,52997,1,0,0:0:0:0:
400,208,53239,1,0,0:0:0:0:
496,304,54207,6,0,P|432:336|368:288,1,140
336,256,54933,1,0,0:0:0:0:
336,256,55175,1,2,0:0:0:0:
256,176,55658,1,0,0:0:0:0:
176,96,56142,2,0,P|128:64|48:112,1,140
16,144,56868,1,0,0:0:0:0:
16,144,57110,1,2,0:0:0:0:
96,224,57594,1,0,0:0:0:0:
176,304,58078,6,0,P|240:368|208:256,2,280
144,192,60497,1,2,0:0:0:0:
144,192,60739,1,2,0:0:0:0:
144,192,60981,1,2,0:0:0:0:
32,64,61949,5,0,0:0:0:0:
144,80,62433,1,0,0:0:0:0:
256,64,62916,1,0,0:0:0:0:
368,96,63400,2,0,L|448:96,2,70
448,176,64368,2,2,B|384:208|336:176|304:192,1,140
32,320,65820,5,0,0:0:0:0:
144,304,66304,1,0,0:0:0:0:
256,320,66787,1,0,0:0:0:0:
368,288,67271,2,0,L|448:288,2,70
448,208,68239,2,2,B|384:176|336:208|304:192,1,140
144,48,69691,5,0,0:0:0:0:
48,112,70174,1,0,0:0:0:0:
144,176,70658,1,2,0:0:0:0:
144,176,70900,1,2,0:0:0:0:
48,240,71384,1,2,0:0:0:0:
176,336,72110,2,0,P|256:336|304:304,1,140
368,48,73562,5,0,0:0:0:0:
464,112,74045,1,0,0:0:0:0:
368,176,74529,1,2,0:0:0:0:
368,176,74771,1,2,0:0:0:0:
464,240,75255,1,2,0:0:0:0:
336,336,75981,2,0,P|256:336|208:304,1,140
96,112,77433,5,0,0:0:0:0:
208,128,77916,1,0,0:0:0:0:
320,112,78400,1,0,0:0:0:0:
320,112,78642,1,0,0:0:0:0:
432,128,79126,1,0,0:0:0:0:
448,256,79852,2,2,P|384:288|320:240,1,140
96,272,81303,5,0,0:0:0:0:
208,256,81786,1,0,0:0:0:0:
320,272,82270,1,0,0:0:0:0:
320,272,82512,1,0,0:0:0:0:
432,256,82996,1,0,0:0:0:0:
416,112,83722,2,2,P|352:80|288:128,1,140
272,176,84449,5,0,0:0:0:0:
272,176,84691,1,0,0:0:0:0:
192,112,85174,2,0,P|144:64|80:96,1,140
48,144,85900,1,0,0:0:0:0:
48,144,86142,1,2,0:0:0:0:
96,240,86626,1,0,0:0:0:0:
176,320,87110,2,0,P|208:272|288:288,1,140
336,320,87836,1,0,0:0:0:0:
336,320,88078,1,2,0:0:0:0:
432,272,88562,1,0,0:0:0:0:
384,176,89045,2,0,P|336:224|352:112,2,280
448,80,91465,1,2,0:0:0:0:
448,80,91707,1,2,0:0:0:0:
448,80,91949,1,2,0:0:0:0:
464,224,92916,5,0,0:0:0:0:
368,272,93400,1,0,0:0:0:0:
272,224,93884,1,0,0:0:0:0:
176,272,94368,1,0,0:0:0:0:
80,224,94852,2,0,L|80:80,2,140
80,288,96062,1,2,0:0:0:0:
80,352,96303,1,2,0:0:0:0:
32,224,96787,5,0,0:0:0:0:
144,192,97271,1,0,0:0:0:0:
256,224,97755,1,0,0:0:0:0:
368,192,98239,1,0,0:0:0:0:
480,224,98723,2,0,L|480:80,2,140
480,288,99932,1,2,0:0:0:0:
480,352,100174,1,2,0:0:0:0:
384,272,100658,5,0,0:0:0:0:
304,208,101142,1,0,0:0:0:0:
384,144,101626,1,0,0:0:0:0:
384,144,101868,1,0,0:0:0:0:
304,80,102352,1,0,0:0:0:0:
160,80,103078,2,0,P|112:144|160:192,1,140
128,272,104529,5,2,0:0:0:0:
208,208,105013,1,2,0:0:0:0:
128,144,105497,1,2,0:0:0:0:
128,144,105739,1,2,0:0:0:0:
208,80,106223,1,2,0:0:0:0:
352,80,106949,2,4,P|400:144|352:192,1,140
64,288,108400,6,0,P|144:336|208:336,3,140
288,304,110336,1,0,0:0:0:0:
384,256,110820,1,0,0:0:0:0:
288,192,111303,1,0,0:0:0:0:
384,144,111787,1,0,0:0:0:0:
288,80,112271,2,0,P|224:48|160:64,3,140
48,192,115174,5,2,0:0:0:0:
48,192,115416,1,2,0:0:0:0:
48,240,115658,2,2,P|96:304|176:288,1,140
256,304,116626,1,0,0:0:0:0:
368,304,117110,1,2,0:0:0:0:
368,304,117352,1,2,0:0:0:0:
416,304,117594,2,2,P|464:304|496:224,1,140
368,144,118562,6,0,P|272:80|128:160,1,280
64,288,120013,6,0,P|144:336|208:336,3,140
288,304,121949,1,0,0:0:0:0:
384,256,122433,1,0,0:0:0:0:
288,192,122916,1,0,0:0:0:0:
384,144,123400,1,0,0:0:0:0:
288,80,123884,2,0,P|224:48|160:64,3,140
48,192,126787,5,2,0:0:0:0:
48,192,127029,1,2,0:0:0:0:
48,240,127271,2,2,P|96:304|176:288,1,140
256,304,128239,1,0,0:0:0:0:
368,304,128723,1,2,0:0:0:0:
368,304,128965,1,2,0:0:0:0:
416,304,129207,2,2,P|464:304|496:224,1,140
320,128,130174,6,4,P|240:96|192:144,3,140
32,64,143239,5,0,0:0:0:0:
32,176,143723,1,0,0:0:0:0:
32,288,144207,1,0,0:0:0:0:
32,288,144449,1,0,0:0:0:0:
144,256,144932,1,0,0:0:0:0:
256,224,145416,1,0,0:0:0:0:
256,224,145658,1,0,0:0:0:0:
256,224,145900,2,0,L|400:160,1,140
480,112,146868,5,0,0:0:0:0:
480,112,147110,1,0,0:0:0:0:
480,224,147594,1,0,0:0:0:0:
480,336,148078,2,0,B|400:352|352:304|272:336,1,210
160,336,149287,1,0,0:0:0:0:
160,336,149529,1,0,0:0:0:0:
48,336,150013,1,0,0:0:0:0:
48,336,150255,2,0,L|80:192,1,140
96,144,150981,5,2,0:0:0:0:
208,112,151465,1,2,0:0:0:0:
320,80,151949,1,2,0:0:0:0:
320,80,152191,1,2,0:0:0:0:
432,48,152674,1,2,0:0:0:0:
432,48,152916,2,0,L|496:208,3,140
496,240,154610,5,2,0:0:0:0:
496,240,154852,1,2,0:0:0:0:
384,208,155336,1,2,0:0:0:0:
272,176,155820,1,2,0:0:0:0:
272,176,156062,1,2,0:0:0:0:
160,144,156545,1,2,0:0:0:0:
160,144,156787,2,0,L|80:272,3,140
32,160,158723,5,0,0:0:0:0:
128,112,159207,1,0,0:0:0:0:
288,112,159932,1,0,0:0:0:0:
384,160,160416,1,0,0:0:0:0:
480,208,160900,1,0,0:0:0:0:
480,208,161142,1,0,0:0:0:0:
480,208,161384,1,0,0:0:0:0:
176,320,162594,5,0,0:0:0:0:
80,272,163078,1,0,0:0:0:0:
80,112,163803,1,0,0:0:0:0:
176,64,164287,1,0,0:0:0:0:
272,16,164771,1,0,0:0:0:0:
272,16,165013,1,0,0:0:0:0:
368,64,165497,1,0,0:0:0:0:
368,64,165739,1,0,0:0:0:0:
448,208,166465,5,2,0:0:0:0:
336,176,166949,1,2,0:0:0:0:
224,144,167432,1,2,0:0:0:0:
224,144,167674,1,2,0:0:0:0:
112,112,168158,1,2,0:0:0:0:
64,208,168642,1,2,0:0:0:0:
64,208,168884,1,2,0:0:0:0:
112,304,169368,1,2,0:0:0:0:
112,304,169610,1,2,0:0:0:0:
288,304,170336,5,0,0:0:0:0:
400,272,170820,1,0,0:0:0:0:
496,224,171303,2,0,B|448:160|368:224|304:144,1,210
224,80,172513,1,2,0:0:0:0:
224,80,172755,2,2,L|80:16,2,140
224,144,173965,5,0,0:0:0:0:
224,144,174207,1,0,0:0:0:0:
160,240,174691,1,0,0:0:0:0:
96,336,175174,1,0,0:0:0:0:
96,336,175416,1,0,0:0:0:0:
32,240,175900,1,0,0:0:0:0:
96,144,176384,1,0,0:0:0:0:
96,144,176626,2,0,L|240:144,2,140
32,144,177836,5,2,0:0:0:0:
32,144,178078,1,2,0:0:0:0:
128,80,178562,1,2,0:0:0:0:
224,16,179045,2,4,B|304:48|336:128|464:192,1,280
256,192,180497,12,0,181949,0:0:0:0:
