osu file format v14

[General]
AudioFilename: HD D&B P-Light ft. Yukacco - Stargazer (Dj Shimamura Remix).mp3
AudioLeadIn: 925
PreviewTime: 132051
Countdown: 0
SampleSet: Soft
StackLeniency: 0.6
Mode: 0
LetterboxInBreaks: 0
WidescreenStoryboard: 0

[Editor]
Bookmarks: 21651,43594,61422,66908,77537,99822,106680,110794,193080,198565,209537,220508,231480,241080,286337,308537,312051
DistanceSpacing: 1.2
BeatDivisor: 4
GridSize: 4
TimelineZoom: 1.6

[Metadata]
Title:Stargazer (DJ Shimamura Remix)
TitleUnicode:Stargazer (DJ Shimamura Remix)
Artist:P*Light feat. yukacco
ArtistUnicode:P*Light feat. yukacco
Creator:Spaghetti
Version:Chasing
Source:
Tags:dnb p light drum and & bass edm dubstep j core techno Sketch Up! Remixies
BeatmapID:705018
BeatmapSetID:316392

[Difficulty]
HPDrainRate:7
CircleSize:4
OverallDifficulty:9
ApproachRate:9
SliderMultiplier:1.3
SliderTickRate:1

[Events]
//Background and Video events
0,0,"bg.jpg",0,0
//Break Periods
//Storyboard Layer 0 (Background)
//Storyboard Layer 1 (Fail)
//Storyboard Layer 2 (Pass)
//Storyboard Layer 3 (Foreground)
//Storyboard Sound Samples

[TimingPoints]
1080,342.857142857143,4,2,0,70,1,0
19937,-100,4,2,1,70,0,0
20451,-100,4,2,0,70,0,0
22337,-80,4,1,1,70,0,0
23365,-100,4,2,0,70,0,0
39137,-100,4,2,1,70,0,0
39651,-100,4,2,0,70,0,0
45137,-100,4,1,1,30,0,0
45308,-100,4,1,1,70,0,0
46508,-100,4,2,0,70,0,0
50622,-100,4,1,1,30,0,0
50794,-100,4,1,1,70,0,0
51994,-100,4,2,0,70,0,0
55937,-100,4,1,1,70,0,0
57308,-100,4,2,0,70,0,0
66137,-100,4,1,1,70,0,0
66908,-111.111111111111,4,2,0,45,0,0
77537,-100,4,2,0,45,0,0
127594,-111.111111111111,4,2,0,45,0,0
127937,-125,4,2,0,45,0,0
128280,-142.857142857143,4,2,0,45,0,0
128622,-166.666666666667,4,2,0,45,0,0
131365,-166.666666666667,4,2,1,45,0,0
132051,-100,4,1,1,70,0,0
132737,-100,4,1,1,70,0,1
153994,-100,4,2,0,70,0,0
154680,-100,4,1,1,70,0,1
175080,-100,4,1,1,70,0,0
177994,-100,4,2,0,70,0,0
198565,-200,4,2,0,30,0,0
214165,-133.333333333333,4,2,0,50,0,0
220508,-133.333333333333,4,1,3,60,0,0
220937,-133.333333333333,4,2,0,20,0,0
221022,-133.333333333333,4,1,3,60,0,0
221451,-133.333333333333,4,2,0,20,0,0
221537,-133.333333333333,4,1,3,60,0,0
221965,-100,4,2,0,20,0,0
222051,-133.333333333333,4,1,3,60,0,0
222480,-133.333333333333,4,2,0,20,0,0
222565,-133.333333333333,4,1,3,60,0,0
223680,-133.333333333333,4,2,0,20,0,0
223765,-133.333333333333,4,1,3,60,0,0
224194,-133.333333333333,4,2,0,20,0,0
224280,-133.333333333333,4,1,3,60,0,0
224708,-133.333333333333,4,2,0,20,0,0
224794,-133.333333333333,4,1,3,60,0,0
225222,-133.333333333333,4,2,0,20,0,0
225308,-133.333333333333,4,1,3,60,0,0
225994,-100,4,1,1,70,0,0
232037,-100,4,1,1,5,0,0
232337,-100,4,1,1,70,0,0
232380,-100,4,1,1,5,0,0
232508,-100,4,1,1,70,0,0
232551,-100,4,1,1,5,0,0
232680,-100,4,1,1,70,0,0
232722,-100,4,1,1,5,0,0
233022,-100,4,1,1,70,0,0
241080,-100,4,2,1,70,0,0
242451,-80,4,1,1,70,0,1
263022,-80,4,2,0,70,0,1
264394,-100,4,2,0,70,0,0
308537,-100,4,2,0,5,0,0

[Colours]
Combo1 : 255,255,128
Combo2 : 128,255,255
Combo3 : 17,111,128
Combo4 : 128,0,128

[HitObjects]
104,128,1080,6,0,L|120:264,1,130,0|8,0:0|0:0,0:0:0:0:
180,308,1594,1,0,0:0:0:0:
180,308,1937,2,0,P|236:296|264:304,1,65,0|8,0:0|0:0,0:0:0:0:
300,152,2451,2,0,P|324:208|324:284,1,130,0|8,0:0|0:0,0:0:0:0:
388,132,3137,2,0,P|365:85|329:73,2,65,0|0|8,0:0|0:0|0:0,0:0:0:0:
116,124,3822,6,0,L|128:208,2,65,0|0|8,0:0|0:0|0:0,0:0:0:0:
180,56,4337,1,0,0:0:0:0:
180,56,4680,2,0,P|224:60|272:48,1,65,0|8,0:0|0:0,0:0:0:0:
400,68,5194,2,0,L|368:216,1,130,0|8,0:0|0:0,0:0:0:0:
216,208,5880,2,0,L|201:272,2,65,0|0|8,0:0|0:0|0:0,0:0:0:0:
335,276,6565,6,0,P|291:268|255:280,2,65,0|0|8,0:0|0:0|0:0,0:0:0:0:
196,284,7080,2,0,P|148:248|152:164,1,130
236,104,7594,1,8,0:0:0:0:
236,104,7937,2,0,P|280:116|380:84,1,130,0|8,0:0|0:0,0:0:0:0:
432,236,8622,2,0,L|440:328,2,65,0|0|8,0:0|0:0|0:0,0:0:0:0:
288,300,9308,6,0,L|296:392,1,65
312,197,9651,1,0,0:0:0:0:
183,172,9822,2,0,P|170:233|224:280,1,130
273,165,10337,1,8,0:0:0:0:
120,64,10680,2,0,L|96:196,1,130,0|8,0:0|0:0,0:0:0:0:
160,316,11365,2,0,P|208:308|236:320,2,65,0|0|8,0:0|0:0|0:0,0:0:0:0:
380,332,12051,6,0,P|436:293|433:213,1,130,4|8,0:0|0:0,0:0:0:0:
384,180,12565,2,0,P|395:117|446:79,1,130
368,256,13080,1,8,0:0:0:0:
256,148,13422,1,0,0:0:0:0:
212,296,13765,1,8,0:0:0:0:
212,296,14108,2,0,L|188:208,2,65,0|0|8,0:0|0:0|0:0,0:0:0:0:
185,135,14794,6,0,L|161:47,1,65
72,68,15137,1,8,0:0:0:0:
72,68,15308,2,0,L|110:207,1,130
106,193,15822,1,8,0:0:0:0:
264,244,16165,2,0,P|304:200|380:224,1,130,0|8,0:0|0:0,0:0:0:0:
284,340,16851,2,0,L|200:316,2,65,0|0|8,0:0|0:0|0:0,0:0:0:0:
240,168,17537,5,0,0:0:0:0:
112,80,17880,1,8,0:0:0:0:
112,80,18051,2,0,L|260:89,1,130
396,96,18565,1,8,0:0:0:0:
396,96,18908,2,0,P|372:152|424:216,1,130,0|8,0:0|0:0,0:0:0:0:
344,324,19422,1,0,0:0:0:0:
265,235,19594,1,0,0:0:0:0:
234,351,19765,1,0,0:0:0:0:
152,260,19937,2,8,L|135:197,1,65,8|0,0:0|0:0,0:0:0:0:
140,116,20280,6,0,P|104:120|72:144,1,65
219,140,20622,2,0,P|255:142|287:132,1,65,8|0,0:0|0:0,0:0:0:0:
448,88,21137,2,0,L|440:164,1,65,0|8,0:0|0:0,0:0:0:0:
368,40,21651,1,12,0:0:0:0:
368,40,22337,6,0,L|352:140,1,81.25,2|8,0:0|0:0,0:0:0:0:
184,196,22680,2,4,P|198:138|286:165,1,162.5,2|4,0:0|0:0,0:0:0:0:
300,316,23365,5,8,0:0:0:0:
320,176,23537,1,0,0:0:0:0:
187,158,23708,2,0,L|103:146,1,65
220,248,24051,1,8,0:0:0:0:
328,92,24222,1,4,0:0:0:0:
328,92,24565,5,0,0:0:0:0:
320,176,24737,1,8,0:0:0:0:
255,46,24908,1,0,0:0:0:0:
395,143,25080,1,0,0:0:0:0:
246,211,25251,1,0,0:0:0:0:
406,64,25422,1,8,0:0:0:0:
313,261,25594,1,0,0:0:0:0:
255,46,25765,6,0,L|185:60,1,65
81,233,26108,1,8,0:0:0:0:
81,233,26280,2,0,P|68:176|104:90,1,130
214,81,26794,1,8,0:0:0:0:
149,181,26965,1,0,0:0:0:0:
113,312,27137,6,0,P|169:296|190:273,1,65
296,208,27480,1,0,0:0:0:0:
305,336,27651,1,0,0:0:0:0:
402,178,27822,2,0,L|384:116,1,65
261,137,28165,1,8,0:0:0:0:
232,256,28337,1,0,0:0:0:0:
146,86,28508,6,0,P|162:120|161:164,1,65
20,76,28851,1,8,0:0:0:0:
91,195,29022,1,0,0:0:0:0:
91,195,29365,1,0,0:0:0:0:
105,28,29537,2,0,L|188:40,2,65,8|0|0,0:0|0:0|0:0,0:0:0:0:
266,47,30051,5,0,0:0:0:0:
168,185,30222,1,8,0:0:0:0:
207,76,30394,1,0,0:0:0:0:
313,121,30565,1,0,0:0:0:0:
268,228,30737,1,0,0:0:0:0:
136,104,30908,1,8,0:0:0:0:
324,44,31080,1,0,0:0:0:0:
439,215,31251,6,0,L|479:141,1,65
507,258,31594,1,8,0:0:0:0:
507,258,31765,2,0,P|454:298|375:263,1,130
469,157,32280,1,8,0:0:0:0:
469,157,32622,2,0,L|326:147,1,130,0|8,0:0|0:0,0:0:0:0:
136,56,33308,2,0,L|156:131,2,65,0|0|8,0:0|0:0|0:0,0:0:0:0:
352,108,33994,5,0,0:0:0:0:
352,108,34337,2,0,L|368:180,1,65,8|0,0:0|0:0,0:0:0:0:
330,311,34680,2,0,L|316:248,1,65
279,58,35022,1,8,0:0:0:0:
459,199,35194,1,0,0:0:0:0:
459,199,35537,5,0,0:0:0:0:
341,97,35708,1,8,0:0:0:0:
413,133,35880,5,0,0:0:0:0:
262,93,36051,1,0,0:0:0:0:
341,97,36222,5,0,0:0:0:0:
187,132,36394,1,8,0:0:0:0:
341,97,36565,1,0,0:0:0:0:
83,102,36737,6,0,L|114:186,1,65
180,306,37080,1,8,0:0:0:0:
180,306,37251,2,0,P|236:306|283:234,1,130
281,252,37765,1,8,0:0:0:0:
358,172,38108,6,0,L|352:108,2,65,0|0|8,0:0|0:0|0:0,0:0:0:0:
438,317,38622,1,0,0:0:0:0:
364,257,38794,1,0,0:0:0:0:
300,332,38965,1,0,0:0:0:0:
226,202,39137,2,0,L|161:206,1,65,8|0,0:0|0:0,0:0:0:0:
283,145,39480,6,0,L|348:141,1,65
434,133,39822,1,8,0:0:0:0:
202,122,39994,2,0,P|163:144|147:228,1,130,4|0,0:0|0:0,0:0:0:0:
145,222,40508,1,8,0:0:0:0:
272,319,40680,2,0,L|197:266,1,65
68,168,41022,5,0,0:0:0:0:
202,123,41194,1,8,0:0:0:0:
99,60,41365,1,0,0:0:0:0:
248,8,41537,1,0,0:0:0:0:
202,123,41708,1,0,0:0:0:0:
164,241,41880,1,8,0:0:0:0:
213,356,42051,1,0,0:0:0:0:
292,250,42222,6,0,L|296:322,1,65
370,200,42565,1,8,0:0:0:0:
374,46,42737,2,0,P|425:93|430:169,1,130
216,301,43251,1,12,0:0:0:0:
216,301,43594,5,0,0:0:0:0:
126,216,43765,1,0,0:0:0:0:
246,176,43937,1,0,0:0:0:0:
54,330,44108,1,8,0:0:0:0:
27,297,44194,1,0,3:2:0:0:
12,254,44280,1,8,0:0:0:0:
12,205,44365,1,0,3:2:0:0:
30,159,44451,1,0,3:2:0:0:
114,119,44622,1,8,0:0:0:0:
216,148,44794,1,0,0:0:0:0:
248,296,44965,5,4,0:0:0:0:
266,90,45137,2,0,L|211:32,1,65,0|8,0:0|0:0,0:0:0:0:
340,171,45480,1,0,0:0:0:0:
221,42,45651,1,4,0:0:0:0:
221,42,45994,1,8,0:0:0:0:
407,107,46165,1,4,0:0:0:0:
407,107,46508,5,0,0:0:0:0:
340,171,46680,1,8,0:0:0:0:
215,10,46851,1,0,0:0:0:0:
221,42,46937,1,0,0:0:0:0:
227,73,47022,1,0,0:0:0:0:
233,104,47108,1,0,0:0:0:0:
239,135,47194,1,0,0:0:0:0:
110,115,47365,1,8,0:0:0:0:
340,171,47537,1,0,0:0:0:0:
93,110,47708,6,0,L|105:188,1,65
124,288,48051,1,8,0:0:0:0:
209,319,48222,1,0,0:0:0:0:
253,329,48308,1,0,3:2:0:0:
298,330,48394,1,0,0:0:0:0:
342,321,48480,1,0,3:2:0:0:
382,300,48565,1,0,3:2:0:0:
421,153,48737,2,0,P|425:185|422:218,1,65,8|0,0:0|0:0,0:0:0:0:
371,78,49080,5,0,0:0:0:0:
371,78,49251,2,0,L|299:86,1,65,0|8,0:0|0:0,0:0:0:0:
459,68,49594,1,0,0:0:0:0:
421,153,49765,1,0,0:0:0:0:
293,86,49937,1,0,0:0:0:0:
507,144,50108,1,8,0:0:0:0:
279,88,50280,1,0,0:0:0:0:
268,303,50451,5,0,0:0:0:0:
268,303,50622,2,0,L|184:270,1,65,0|8,0:0|0:0,0:0:0:0:
368,339,50965,1,0,0:0:0:0:
368,339,51308,1,0,0:0:0:0:
244,213,51480,2,0,P|218:193|187:188,1,65,8|0,0:0|0:0,0:0:0:0:
185,269,51822,5,0,0:0:0:0:
326,239,51994,1,0,0:0:0:0:
106,178,52165,1,8,0:0:0:0:
188,106,52337,1,0,0:0:0:0:
232,100,52422,1,0,0:0:0:0:
277,94,52508,1,0,0:0:0:0:
322,88,52594,1,0,0:0:0:0:
367,82,52680,1,0,0:0:0:0:
201,28,52851,2,0,L|120:39,1,65,8|0,0:0|0:0,0:0:0:0:
355,160,53194,6,0,L|436:149,1,65
274,171,53537,1,8,0:0:0:0:
367,282,53708,1,0,0:0:0:0:
326,302,53794,1,0,0:0:0:0:
280,308,53880,1,0,0:0:0:0:
236,295,53965,1,0,0:0:0:0:
196,271,54051,1,0,0:0:0:0:
150,52,54222,2,0,L|143:117,1,65,8|0,0:0|0:0,0:0:0:0:
130,208,54565,5,0,0:0:0:0:
59,150,54737,1,0,0:0:0:0:
216,169,54908,1,8,0:0:0:0:
127,227,55080,1,0,0:0:0:0:
148,67,55251,1,0,0:0:0:0:
303,116,55422,1,0,0:0:0:0:
215,185,55594,1,8,0:0:0:0:
388,62,55765,1,0,0:0:0:0:
441,264,55937,5,4,0:0:0:0:
177,297,56280,1,8,0:0:0:0:
301,225,56451,1,0,0:0:0:0:
176,155,56622,1,0,0:0:0:0:
176,155,56965,2,0,L|264:118,1,65,8|0,0:0|0:0,0:0:0:0:
318,91,57308,5,0,0:0:0:0:
184,56,57480,1,0,0:0:0:0:
100,160,57651,1,8,0:0:0:0:
184,265,57822,1,0,0:0:0:0:
319,218,57994,1,0,0:0:0:0:
212,132,58165,1,0,0:0:0:0:
184,265,58337,1,8,0:0:0:0:
309,341,58508,1,0,0:0:0:0:
428,213,58680,6,0,P|429:180|443:151,1,65
468,312,59022,1,0,0:0:0:0:
353,353,59194,1,0,0:0:0:0:
309,341,59280,1,0,0:0:0:0:
264,329,59365,1,0,0:0:0:0:
219,318,59451,1,0,0:0:0:0:
176,304,59537,1,0,0:0:0:0:
228,140,59708,2,0,P|244:183|234:217,1,65,8|0,0:0|0:0,0:0:0:0:
130,291,60051,5,0,0:0:0:0:
60,188,60222,2,0,P|83:133|106:118,1,65,0|8,0:0|0:0,0:0:0:0:
188,76,60565,1,0,0:0:0:0:
304,104,60737,1,0,0:0:0:0:
412,56,60908,1,0,0:0:0:0:
246,19,61080,2,0,P|196:25|162:44,1,65
11,146,61422,5,0,0:0:0:0:
38,182,61508,1,0,0:0:0:0:
56,223,61594,1,0,0:0:0:0:
65,267,61680,1,0,0:0:0:0:
58,311,61765,1,8,0:0:0:0:
102,300,61851,1,0,0:0:0:0:
147,293,61937,1,0,0:0:0:0:
191,299,62022,1,0,0:0:0:0:
235,308,62108,5,0,0:0:0:0:
280,315,62194,1,0,0:0:0:0:
325,313,62280,1,0,0:0:0:0:
368,301,62365,1,0,0:0:0:0:
407,278,62451,1,8,0:0:0:0:
427,237,62537,1,0,0:0:0:0:
432,192,62622,1,0,0:0:0:0:
421,147,62708,1,0,0:0:0:0:
394,110,62794,6,0,L|311:100,1,65
475,65,63137,1,8,0:0:0:0:
241,91,63308,1,0,0:0:0:0:
273,166,63480,1,0,0:0:0:0:
329,102,63651,1,0,0:0:0:0:
218,234,63822,1,8,0:0:0:0:
295,28,63994,1,0,0:0:0:0:
186,156,64165,5,8,0:0:0:0:
151,185,64251,1,0,0:0:0:0:
133,226,64337,1,0,0:0:0:0:
139,270,64422,1,0,0:0:0:0:
168,304,64508,1,8,0:0:0:0:
210,320,64594,1,0,0:0:0:0:
254,311,64680,1,0,0:0:0:0:
289,282,64765,1,0,0:0:0:0:
302,238,64851,5,8,0:0:0:0:
298,192,64937,1,0,0:0:0:0:
328,160,65022,1,0,0:0:0:0:
368,152,65108,1,0,0:0:0:0:
408,172,65194,1,0,0:0:0:0:
441,264,65365,1,0,0:0:0:0:
417,105,65537,6,0,L|395:23,3,65,12|0|8|0,0:0|0:0|0:0|0:0,0:0:0:0:
256,192,66137,12,4,66908,0:0:0:0:
168,288,67422,5,0,0:0:0:0:
128,164,67937,1,2,0:0:0:0:
128,164,68451,1,0,0:0:0:0:
192,120,68622,2,0,L|241:155,1,58.4999982147217
239,154,69651,5,0,0:0:0:0:
320,148,69822,2,0,L|349:92,1,58.4999982147217
388,20,70165,1,0,0:0:0:0:
476,148,70680,1,2,0:0:0:0:
476,148,71194,2,0,P|472:192|460:213,2,58.4999982147217
466,203,72394,5,0,0:0:0:0:
472,288,72565,2,0,L|408:320,1,58.4999982147217
344,345,72908,1,0,0:0:0:0:
354,198,73422,1,2,0:0:0:0:
354,198,73937,2,0,P|318:213|286:212,2,58.4999982147217
298,213,75137,5,0,0:0:0:0:
215,199,75308,2,0,L|180:144,1,58.4999982147217
135,80,75651,1,0,0:0:0:0:
70,213,76165,1,2,0:0:0:0:
219,105,76680,2,0,P|244:81|261:55,2,58.4999982147217
257,61,77537,5,0,0:0:0:0:
80,82,77880,2,0,P|65:123|172:130,1,195
235,198,78565,2,0,B|210:238|162:261|162:261|156:293,1,130
216,336,79080,1,0,0:0:0:0:
446,149,80280,5,0,0:0:0:0:
391,322,80622,2,0,B|324:248|416:216|320:128,1,195
274,212,81308,2,0,P|249:174|266:85,1,130
308,36,81822,1,0,0:0:0:0:
308,36,83022,5,0,0:0:0:0:
308,36,83365,2,0,P|246:81|171:57,1,130
32,154,84051,2,0,L|51:298,1,130
136,256,84565,1,0,0:0:0:0:
136,256,85765,5,0,0:0:0:0:
379,228,86108,2,0,L|249:215,1,130
139,69,86794,2,0,L|144:143,2,65
273,85,88337,6,0,P|318:104|354:97,1,65
423,89,88680,1,0,0:0:0:0:
322,193,88851,1,0,0:0:0:0:
322,193,89194,2,0,L|300:283,1,65
381,299,89537,1,0,0:0:0:0:
219,267,89708,2,0,P|182:258|134:266,1,65
263,87,90051,6,0,L|241:177,1,65
322,193,90394,1,0,0:0:0:0:
160,161,90565,2,0,P|123:152|75:160,1,65
56,304,91080,2,0,L|68:374,2,65
40,220,91594,5,0,0:0:0:0:
96,153,91765,1,0,0:0:0:0:
96,153,92108,2,0,P|161:155|179:136,1,65
243,106,92451,1,0,0:0:0:0:
223,18,92622,1,0,0:0:0:0:
135,62,92794,1,0,0:0:0:0:
258,188,92965,2,0,L|286:326,2,130
342,178,93994,6,0,P|402:182|431:169,2,65
342,178,95022,2,0,B|285:205|339:301|236:333,1,195
215,243,95708,2,0,P|223:198|247:154,1,65
229,179,96908,6,0,P|199:168|167:168,1,65
317,207,97251,2,0,P|347:218|379:218,1,65
301,111,97937,2,0,P|331:122|363:122,2,65
256,192,98365,12,4,99822,0:0:0:0:
192,140,100165,6,0,L|200:212,1,65
356,108,100680,2,0,L|364:180,1,65
212,276,101194,2,0,L|220:348,1,65
128,320,101537,1,0,0:0:0:0:
48,288,101708,1,0,0:0:0:0:
116,232,101880,1,0,0:0:0:0:
180,168,102051,1,0,0:0:0:0:
96,144,102222,1,0,0:0:0:0:
200,256,102394,1,0,0:0:0:0:
248,112,102565,5,4,0:0:0:0:
380,192,102908,2,0,L|356:112,1,65
280,292,103422,2,0,L|256:212,1,65
400,348,103937,2,0,L|376:268,1,65
337,126,104280,1,0,0:0:0:0:
380,192,104451,1,0,0:0:0:0:
301,195,104622,1,0,0:0:0:0:
264,128,104794,1,0,0:0:0:0:
412,120,104965,1,0,0:0:0:0:
340,268,105137,1,0,0:0:0:0:
228,356,105308,5,4,0:0:0:0:
164,252,105651,2,0,L|216:208,1,65
32,192,106165,2,0,L|84:148,1,65
36,328,106680,2,0,L|88:284,1,65
151,197,107022,1,0,0:0:0:0:
124,113,107194,1,0,0:0:0:0:
41,143,107365,1,0,0:0:0:0:
61,63,107537,1,0,0:0:0:0:
136,41,107708,1,0,0:0:0:0:
200,91,107880,1,0,0:0:0:0:
55,48,108051,5,4,0:0:0:0:
208,108,108394,2,0,L|184:36,1,65
344,140,108908,2,0,L|320:68,1,65
248,244,109422,2,0,L|224:172,1,65
281,327,109765,1,0,0:0:0:0:
248,244,109937,1,0,0:0:0:0:
217,159,110108,2,0,L|193:87,1,65
155,236,110451,2,0,L|179:308,1,65
311,342,110794,5,4,0:0:0:0:
399,309,110965,2,0,P|420:260|419:231,1,65,0|8,0:0|0:0,0:0:0:0:
421,167,111308,1,0,0:0:0:0:
368,94,111480,2,0,P|316:85|288:94,1,65
224,109,111822,1,8,0:0:0:0:
227,262,111994,6,0,P|187:294|155:298,1,65
91,250,112337,2,0,P|114:226|144:215,1,65,0|8,0:0|0:0,0:0:0:0:
215,164,112680,1,0,0:0:0:0:
144,216,112851,2,0,L|164:280,1,65
192,364,113194,1,8,0:0:0:0:
272,224,113365,6,0,L|292:288,1,65
316,152,113708,2,0,P|323:113|300:64,1,65,0|8,0:0|0:0,0:0:0:0:
228,124,114051,1,0,0:0:0:0:
408,124,114222,2,0,P|416:164|436:200,1,65
472,248,114565,1,8,0:0:0:0:
480,80,114737,6,0,P|448:52|400:44,1,65
340,72,115080,2,0,P|310:59|287:36,1,65,0|8,0:0|0:0,0:0:0:0:
427,44,115422,1,0,0:0:0:0:
256,116,115594,2,0,L|268:188,1,65
200,240,115937,1,8,0:0:0:0:
180,152,116108,6,0,P|176:88|192:68,1,65
84,104,116451,2,0,P|88:168|72:188,1,65,0|8,0:0|0:0,0:0:0:0:
40,244,116794,1,0,0:0:0:0:
148,40,116965,2,0,L|240:56,1,65
292,68,117308,1,8,0:0:0:0:
180,152,117480,6,0,P|184:192|176:224,1,65
112,344,117822,2,0,P|107:312|112:280,1,65,0|8,0:0|0:0,0:0:0:0:
264,256,118165,1,0,0:0:0:0:
112,280,118337,2,0,L|21:302,1,65
12,372,118680,1,8,0:0:0:0:
56,204,118851,6,0,P|96:184|132:188,1,65
124,35,119194,2,0,P|124:71|144:111,1,65,0|8,0:0|0:0,0:0:0:0:
200,156,119537,1,0,0:0:0:0:
288,184,119708,2,0,L|368:152,1,65
432,124,120051,1,8,0:0:0:0:
384,244,120222,6,0,L|308:276,1,65
328,361,120565,2,0,L|388:336,1,65,0|8,0:0|0:0,0:0:0:0:
464,300,120908,1,0,0:0:0:0:
252,304,121080,2,0,P|248:268|260:232,1,65
304,176,121422,1,8,0:0:0:0:
160,264,121594,1,0,0:0:0:0:
160,100,121765,5,12,0:0:0:0:
48,244,122108,1,8,0:0:0:0:
224,196,122451,1,12,0:0:0:0:
112,340,122794,1,8,0:0:0:0:
292,352,123137,2,8,P|352:348|412:304,1,130,12|8,0:0|0:0,0:0:0:0:
468,136,123822,2,8,P|396:136|332:176,1,130,12|8,0:0|0:0,0:0:0:0:
464,300,124508,5,12,0:0:0:0:
345,162,124851,1,8,0:0:0:0:
176,96,125194,1,12,0:0:0:0:
284,244,125537,1,8,0:0:0:0:
364,80,125880,1,12,0:0:0:0:
216,184,126222,1,8,0:0:0:0:
132,20,126565,1,12,0:0:0:0:
284,120,126908,1,8,0:0:0:0:
128,212,127251,6,0,L|128:324,1,97.5,4|8,0:0|0:0,0:0:0:0:
172,300,127594,6,0,P|224:288|270:307,1,87.7499973220826,4|8,0:0|0:0,0:0:0:0:
308,288,127937,6,0,P|348:280|383:243,1,78,4|8,0:0|0:0,0:0:0:0:
368,200,128280,6,0,P|361:152|371:119,1,68.2499979171754,4|8,0:0|0:0,0:0:0:0:
332,84,128622,6,4,L|277:79,1,38.9999988098145,4|12,0:0|0:0,0:0:0:0:
116,164,128965,2,4,L|171:169,1,38.9999988098145,4|12,0:0|0:0,0:0:0:0:
276,240,129308,2,4,P|300:208|301:193,1,38.9999988098145,4|12,0:0|0:0,0:0:0:0:
176,24,129651,2,4,P|152:56|151:71,1,38.9999988098145,4|12,0:0|0:0,0:0:0:0:
172,296,129994,5,8,0:0:0:0:
116,164,130165,1,12,0:0:0:0:
276,240,130337,1,8,0:0:0:0:
88,268,130508,1,12,0:0:0:0:
208,172,130680,1,8,0:0:0:0:
256,328,130851,1,8,0:0:0:0:
172,80,131022,1,12,0:0:0:0:
348,284,131194,1,8,0:0:0:0:
352,104,131365,5,8,0:0:0:0:
324,76,131451,1,0,0:0:0:0:
288,60,131537,1,4,0:0:0:0:
248,56,131622,1,0,0:0:0:0:
208,64,131708,1,8,0:0:0:0:
380,184,131880,1,0,0:0:0:0:
179,264,132051,1,4,0:0:0:0:
453,337,132394,1,8,0:0:0:0:
0,90,132737,5,14,0:0:0:0:
128,26,132908,1,0,0:0:0:0:
200,172,133080,1,8,0:0:0:0:
40,160,133251,1,0,0:0:0:0:
236,100,133422,1,0,0:0:0:0:
244,240,133594,1,0,0:0:0:0:
275,247,133680,1,0,0:0:0:0:
307,244,133765,2,0,P|347:236|375:216,1,65,8|0,0:0|0:0,0:0:0:0:
452,127,134108,6,0,P|420:132|392:148,1,65
356,252,134451,1,8,0:0:0:0:
496,311,134622,1,8,0:0:0:0:
496,311,134708,1,0,0:0:0:0:
496,311,134794,2,0,L|436:336,1,65
314,251,135137,2,0,L|374:226,1,65
244,136,135480,6,0,L|183:160,1,65
252,320,135822,1,8,0:0:0:0:
164,236,135994,2,0,L|96:264,1,65,8|0,0:0|0:0,0:0:0:0:
73,271,136251,1,0,0:0:0:0:
42,283,136337,1,0,0:0:0:0:
4,160,136508,2,8,L|76:128,1,65,8|0,0:0|0:0,0:0:0:0:
212,288,136851,5,0,0:0:0:0:
172,136,137022,2,0,L|244:104,1,65,0|8,0:0|0:0,0:0:0:0:
336,208,137365,1,8,0:0:0:0:
212,288,137537,1,0,0:0:0:0:
172,136,137708,1,0,0:0:0:0:
312,296,137880,1,8,0:0:0:0:
384,112,138051,1,0,0:0:0:0:
172,136,138222,5,4,0:0:0:0:
164,50,138394,2,0,P|130:58|108:79,1,65,0|8,0:0|0:0,0:0:0:0:
84,176,138737,1,8,0:0:0:0:
72,212,138822,1,0,0:0:0:0:
72,252,138908,1,0,0:0:0:0:
84,288,138994,1,0,0:0:0:0:
112,316,139080,1,0,0:0:0:0:
228,296,139251,1,8,0:0:0:0:
52,372,139422,1,0,0:0:0:0:
260,348,139594,5,0,0:0:0:0:
248,216,139765,2,0,L|316:232,1,65,0|8,0:0|0:0,0:0:0:0:
400,352,140108,1,8,0:0:0:0:
400,236,140280,2,0,L|468:252,2,65,0|0|8,0:0|0:0|0:0,0:0:0:0:
328,56,140794,1,0,0:0:0:0:
356,152,140965,6,0,P|324:156|280:144,1,65,4|0,0:0|0:0,0:0:0:0:
220,12,141308,1,8,0:0:0:0:
216,112,141480,2,0,P|180:104|148:76,1,65,8|0,0:0|0:0,0:0:0:0:
50,17,141822,1,0,0:0:0:0:
52,53,141908,1,0,0:0:0:0:
53,86,141994,2,8,L|56:156,1,65,8|0,0:0|0:0,0:0:0:0:
68,324,142337,5,0,0:0:0:0:
168,228,142508,1,0,0:0:0:0:
168,228,142594,1,0,0:0:0:0:
168,228,142680,1,8,0:0:0:0:
188,344,142851,1,8,0:0:0:0:
280,208,143022,1,0,0:0:0:0:
296,364,143194,1,0,0:0:0:0:
387,211,143365,2,8,L|413:152,1,65,8|0,0:0|0:0,0:0:0:0:
432,60,143708,6,2,P|368:68|340:56,1,65,6|2,0:0|0:0,0:0:0:0:
274,46,144051,1,8,0:0:0:0:
200,236,144222,2,2,L|211:172,1,65,6|2,0:0|0:0,0:0:0:0:
229,68,144565,1,0,0:0:0:0:
330,277,144737,2,0,P|297:272|265:277,2,65,14|2|0,0:0|0:0|0:0,0:0:0:0:
461,316,145251,6,2,P|429:321|397:317,1,65,6|10,0:0|0:0,0:0:0:0:
265,277,145594,1,0,0:0:0:0:
265,277,145680,1,0,0:0:0:0:
265,277,145765,1,4,0:0:0:0:
348,196,145937,1,2,0:0:0:0:
246,168,146108,1,12,0:0:0:0:
370,309,146280,1,2,0:0:0:0:
322,85,146451,6,2,L|257:75,1,65,6|2,0:0|0:0,0:0:0:0:
419,96,146794,1,8,0:0:0:0:
169,157,146965,2,2,L|104:147,1,65,6|2,0:0|0:0,0:0:0:0:
271,175,147308,1,0,0:0:0:0:
0,132,147480,2,2,P|16:93|57:71,1,65,14|2,0:0|0:0,0:0:0:0:
140,55,147822,5,0,0:0:0:0:
69,211,147994,2,2,L|34:289,1,65,6|10,0:0|0:0,0:0:0:0:
157,260,148337,1,0,0:0:0:0:
11,344,148508,1,4,0:0:0:0:
69,211,148680,1,2,0:0:0:0:
127,334,148851,1,12,0:0:0:0:
54,216,149022,1,2,0:0:0:0:
144,328,149194,6,2,P|180:308|208:272,1,65,6|2,0:0|0:0,0:0:0:0:
242,194,149537,1,8,0:0:0:0:
276,340,149708,2,2,P|312:320|340:284,1,65,6|2,0:0|0:0,0:0:0:0:
367,209,150051,1,0,0:0:0:0:
464,84,150222,2,2,P|423:103|404:145,1,65,14|2,0:0|0:0,0:0:0:0:
488,204,150565,5,0,0:0:0:0:
289,81,150737,2,2,L|341:119,1,65,6|10,0:0|0:0,0:0:0:0:
426,179,151080,1,0,0:0:0:0:
422,43,151251,1,4,0:0:0:0:
289,81,151422,1,2,0:0:0:0:
426,179,151594,1,12,0:0:0:0:
422,43,151765,1,2,0:0:0:0:
216,106,151937,6,2,L|128:136,1,65,6|2,0:0|0:0,0:0:0:0:
66,156,152280,1,8,0:0:0:0:
59,6,152451,2,2,P|79:36|83:71,1,65,6|2,0:0|0:0,0:0:0:0:
43,240,152794,1,0,0:0:0:0:
164,331,152965,2,2,L|240:384,1,65,14|2,0:0|0:0,0:0:0:0:
329,248,153480,6,2,L|403:299,1,65,6|10,0:0|0:0,0:0:0:0:
448,325,153822,1,2,0:0:0:0:
248,288,153994,1,2,0:0:0:0:
380,136,154165,1,12,0:0:0:0:
410,111,154251,1,0,0:0:0:0:
434,80,154337,1,8,0:0:0:0:
442,42,154422,1,0,0:0:0:0:
403,49,154508,1,8,0:0:0:0:
363,49,154594,1,0,0:0:0:0:
324,44,154680,6,0,P|288:40|260:28,1,65,12|0,0:0|0:0,0:0:0:0:
167,0,155022,1,8,0:0:0:0:
116,120,155194,2,0,P|160:124|196:144,1,65,8|0,0:0|0:0,0:0:0:0:
216,148,155451,1,0,0:0:0:0:
252,168,155537,1,0,0:0:0:0:
336,324,155708,1,8,0:0:0:0:
172,252,155880,1,0,0:0:0:0:
396,224,156051,6,0,L|308:236,1,65
230,249,156394,1,8,0:0:0:0:
319,128,156565,1,8,0:0:0:0:
319,128,156651,1,0,0:0:0:0:
319,128,156737,2,0,P|299:80|275:60,1,65
216,148,157080,1,8,0:0:0:0:
400,56,157251,1,0,0:0:0:0:
128,51,157422,6,0,L|180:103,1,65
240,172,157765,1,8,0:0:0:0:
132,248,157937,2,0,L|86:202,1,65
24,124,158280,1,0,0:0:0:0:
148,332,158451,2,8,P|175:320|210:275,1,65,8|0,0:0|0:0,0:0:0:0:
212,188,158794,5,0,0:0:0:0:
184,80,158965,2,0,L|248:100,1,65,0|8,0:0|0:0,0:0:0:0:
352,133,159308,1,8,0:0:0:0:
212,188,159480,1,0,0:0:0:0:
438,131,159651,1,0,0:0:0:0:
184,80,159822,1,8,0:0:0:0:
244,272,159994,1,0,0:0:0:0:
320,217,160165,6,0,L|399:264,1,65
232,168,160508,1,8,0:0:0:0:
244,272,160680,1,0,0:0:0:0:
244,272,160765,1,0,0:0:0:0:
244,272,160851,1,0,0:0:0:0:
212,80,161022,1,0,0:0:0:0:
308,96,161194,2,8,L|388:108,1,65,8|0,0:0|0:0,0:0:0:0:
322,277,161537,5,0,0:0:0:0:
348,184,161708,2,0,L|428:196,1,65,0|8,0:0|0:0,0:0:0:0:
368,348,162051,1,8,0:0:0:0:
212,280,162222,2,0,P|164:284|140:276,1,65
20,84,162565,2,0,P|68:80|92:88,1,65,8|0,0:0|0:0,0:0:0:0:
64,278,162908,6,0,L|-20:294,1,65,4|0,0:0|0:0,0:0:0:0:
211,157,163251,1,8,0:0:0:0:
83,184,163422,2,0,L|-1:200,2,65,8|0|0,0:0|0:0|0:0,0:0:0:0:
232,60,163937,1,8,0:0:0:0:
256,256,164108,1,0,0:0:0:0:
404,156,164280,6,0,P|396:112|368:80,1,65,4|0,0:0|0:0,0:0:0:0:
292,40,164622,1,8,0:0:0:0:
376,252,164794,2,8,L|452:252,1,65
286,366,165137,1,8,0:0:0:0:
216,184,165308,1,8,0:0:0:0:
404,156,165480,1,8,0:0:0:0:
196,188,165651,6,2,L|108:204,1,65,6|2,0:0|0:0,0:0:0:0:
151,93,165994,1,8,0:0:0:0:
260,68,166165,2,2,L|348:52,1,65,6|2,0:0|0:0,0:0:0:0:
404,156,166508,1,0,0:0:0:0:
424,124,166594,1,0,0:0:0:0:
432,84,166680,2,2,P|436:48|424:12,1,65,14|2,0:0|0:0,0:0:0:0:
321,0,167022,5,0,0:0:0:0:
395,240,167194,2,0,P|427:236|456:220,2,65,6|10|0,0:0|0:0|0:0,0:0:0:0:
263,211,167708,2,0,L|320:244,1,65,4|2,0:0|0:0,0:0:0:0:
380,356,168051,2,0,L|324:324,1,65,12|2,0:0|0:0,0:0:0:0:
176,228,168394,6,2,P|180:184|200:152,1,65,6|2,0:0|0:0,0:0:0:0:
251,89,168737,1,8,0:0:0:0:
239,300,168908,2,2,L|167:316,1,65,6|2,0:0|0:0,0:0:0:0:
75,339,169251,1,0,0:0:0:0:
176,228,169422,1,14,0:0:0:0:
332,284,169594,1,2,0:0:0:0:
440,188,169765,5,0,0:0:0:0:
472,368,169937,2,2,L|456:280,1,65,6|10,0:0|0:0,0:0:0:0:
440,188,170280,1,0,0:0:0:0:
440,188,170365,1,0,0:0:0:0:
440,188,170451,1,4,0:0:0:0:
364,364,170622,1,2,0:0:0:0:
304,176,170794,2,0,P|260:180|232:172,1,65,12|2,0:0|0:0,0:0:0:0:
88,136,171137,6,2,P|132:132|160:140,1,65,6|2,0:0|0:0,0:0:0:0:
220,176,171480,1,8,0:0:0:0:
348,220,171651,2,2,P|304:224|276:216,1,65,6|2,0:0|0:0,0:0:0:0:
208,172,171994,1,0,0:0:0:0:
64,128,172165,2,2,P|108:124|136:132,1,65,14|2,0:0|0:0,0:0:0:0:
232,180,172508,5,0,0:0:0:0:
379,239,172680,2,2,P|335:243|307:235,1,65,6|10,0:0|0:0,0:0:0:0:
335,155,173022,1,0,0:0:0:0:
335,155,173108,1,0,0:0:0:0:
335,155,173194,1,4,0:0:0:0:
358,329,173365,1,2,0:0:0:0:
249,124,173537,1,12,0:0:0:0:
276,365,173708,1,2,0:0:0:0:
157,136,173880,6,2,L|139:73,1,65,6|2,0:0|0:0,0:0:0:0:
198,248,174222,1,8,0:0:0:0:
323,271,174394,2,2,P|367:276|396:267,1,65,6|2,0:0|0:0,0:0:0:0:
198,248,174737,1,0,0:0:0:0:
307,145,174908,1,14,0:0:0:0:
387,272,175080,1,2,0:0:0:0:
387,272,175422,5,4,0:0:0:0:
307,145,175594,1,8,0:0:0:0:
198,248,175765,1,0,0:0:0:0:
318,235,175937,1,4,0:0:0:0:
405,144,176108,1,0,0:0:0:0:
214,116,176280,1,8,0:0:0:0:
198,248,176451,1,4,0:0:0:0:
387,272,176622,1,4,0:0:0:0:
196,104,177994,6,0,L|120:116,2,65,4|0|0,0:0|0:0|0:0,0:0:0:0:
272,168,178508,2,0,L|336:157,1,65,4|0,0:0|0:0,0:0:0:0:
448,144,178851,1,0,0:0:0:0:
420,288,179022,1,14,0:0:0:0:
336,156,179194,1,10,0:0:0:0:
228,272,179365,6,0,L|152:278,1,65,4|0,0:0|0:0,0:0:0:0:
116,99,179708,1,8,0:0:0:0:
116,99,179880,2,0,P|94:160|104:224,1,130
183,51,180394,1,8,0:0:0:0:
277,175,180737,5,0,0:0:0:0:
371,50,181080,1,8,0:0:0:0:
465,173,181422,2,0,L|457:237,1,65
474,95,181765,1,8,0:0:0:0:
386,162,181937,1,0,0:0:0:0:
387,272,182108,5,4,0:0:0:0:
347,274,182194,1,0,0:0:0:0:
309,261,182280,1,0,0:0:0:0:
277,238,182365,1,0,0:0:0:0:
256,204,182451,2,0,P|238:168|231:135,1,65,12|0,0:0|0:0,0:0:0:0:
211,68,182794,1,0,0:0:0:0:
150,204,182965,2,0,L|151:269,1,65,0|8,0:0|0:0,0:0:0:0:
65,173,183308,2,0,L|68:324,1,130
163,345,183822,6,0,L|232:345,1,65,8|0,0:0|0:0,0:0:0:0:
384,284,184165,2,0,L|319:284,1,65
164,248,184508,1,8,0:0:0:0:
192,96,184680,1,0,0:0:0:0:
344,136,184851,2,0,P|388:138|421:125,1,65,4|0,0:0|0:0,0:0:0:0:
292,228,185194,2,0,P|290:272|303:305,1,65,8|0,0:0|0:0,0:0:0:0:
372,348,185537,1,0,0:0:0:0:
436,264,185708,2,0,L|423:189,1,65,0|8,0:0|0:0,0:0:0:0:
302,69,186222,5,0,0:0:0:0:
176,160,186565,1,12,0:0:0:0:
51,68,186908,2,0,P|42:102|46:153,1,65
73,259,187251,1,8,0:0:0:0:
176,160,187422,1,0,0:0:0:0:
310,46,187594,5,12,0:0:0:0:
310,46,187937,2,0,L|321:135,1,65,12|2,0:0|0:0,0:0:0:0:
334,213,188280,1,2,0:0:0:0:
406,156,188451,1,4,0:0:0:0:
248,180,188622,1,10,0:0:0:0:
161,156,188794,6,0,L|171:245,1,65,2|4,0:0|0:0,0:0:0:0:
184,323,189137,1,2,0:0:0:0:
257,266,189308,1,10,0:0:0:0:
99,290,189480,1,6,0:0:0:0:
293,184,189822,2,0,P|326:181|358:186,2,65,0|8|0,0:0|0:0|0:0,0:0:0:0:
184,143,190337,6,0,P|189:101|183:66,1,65,4|0,0:0|0:0,0:0:0:0:
161,3,190680,1,0,0:0:0:0:
184,143,190851,2,0,P|143:152|111:144,1,65
55,108,191194,1,0,0:0:0:0:
55,108,191365,1,8,0:0:0:0:
212,68,191537,1,0,0:0:0:0:
344,128,191708,6,0,P|388:152|467:141,1,130
314,314,192394,1,0,0:0:0:0:
314,314,192565,1,0,0:0:0:0:
251,267,192737,2,0,L|171:280,1,65,8|0,0:0|0:0,0:0:0:0:
114,247,193080,5,12,0:0:0:0:
118,91,193422,1,12,0:0:0:0:
254,166,193765,1,12,0:0:0:0:
97,167,194108,1,12,0:0:0:0:
228,83,194451,2,12,P|285:99|380:100,1,130,12|12,0:0|0:0,0:0:0:0:
367,258,195137,2,12,P|310:242|215:241,1,130
152,284,195651,1,8,0:0:0:0:
211,355,195822,5,12,0:0:0:0:
185,188,195994,2,8,L|172:107,1,65
158,17,196337,1,12,0:0:0:0:
86,77,196508,1,8,0:0:0:0:
248,54,196680,2,8,P|296:52|333:39,2,65,8|12|8,0:0|0:0|0:0,0:0:0:0:
256,192,197108,12,2,197880,0:0:0:0:
305,55,198565,6,0,P|330:94|340:106,1,48.75,12|0,0:0|0:0,0:0:0:0:
330,115,198908,2,0,P|310:138|264:146,1,65
212,104,199594,2,0,P|128:184|252:236,1,292.5
278,215,201308,6,0,P|299:204|350:218,1,65
359,242,201822,2,0,L|348:309,1,65
369,328,202337,2,0,P|421:330|480:272,1,130
468,249,203194,6,0,L|466:213,1,32.5
405,166,203537,2,0,L|403:130,1,32.5
378,61,203880,1,0,0:0:0:0:
378,61,204051,2,0,B|343:102|241:128|211:103|196:32|224:-12|288:-16|330:33|300:80|300:80|280:108|213:113|202:187|212:232,1,520
75,244,207308,1,0,0:0:0:0:
75,244,207822,2,0,P|100:262|198:249,1,130
261,203,208851,6,0,P|284:183|383:189,1,130
418,326,210051,1,2,2:2:0:0:
508,210,210565,1,2,2:2:0:0:
508,210,212280,5,2,2:2:0:0:
444,78,212794,1,2,2:2:0:0:
368,202,213308,1,2,2:2:0:0:
137,90,214165,2,0,L|126:146,2,48.750001859665
85,204,214680,2,0,P|112:215|138:214,1,48.750001859665
247,207,215022,6,0,P|225:197|201:196,1,48.750001859665,2|0,2:2|0:0,0:0:0:0:
157,331,215537,1,2,2:2:0:0:
301,352,216051,1,2,2:2:0:0:
301,352,217765,5,2,2:2:0:0:
422,269,218280,1,2,2:2:0:0:
291,203,218794,1,2,2:2:0:0:
256,192,218880,12,0,220165,0:0:0:0:
129,241,220508,6,0,L|164:124,1,121.875004649162,4|0,0:0|0:0,0:0:0:0:
200,116,221022,2,0,P|224:132|312:108,1,121.875004649162
344,104,221537,2,0,P|396:100|440:168,1,121.875004649162
428,184,222051,2,0,L|392:304,1,121.875004649162
392,300,222565,1,4,0:0:0:0:
264,236,222908,1,4,0:0:0:0:
384,152,223251,6,0,P|368:124|272:104,1,121.875004649162,4|0,0:0|0:0,0:0:0:0:
256,116,223765,2,0,P|224:128|136:100,1,121.875004649162
120,136,224280,2,0,L|140:260,1,121.875004649162
172,272,224794,2,0,P|224:248|304:256,1,121.875004649162
287,250,225308,1,4,0:0:0:0:
384,140,225651,1,4,0:0:0:0:
244,104,225994,6,0,L|172:96,1,65,4|0,0:0|0:0,0:0:0:0:
108,124,226337,1,8,0:0:0:0:
156,184,226508,2,0,L|228:192,1,65
96,228,226851,1,0,0:0:0:0:
152,336,227022,2,0,P|160:300|148:264,1,65,8|0,0:0|0:0,0:0:0:0:
84,304,227365,5,0,0:0:0:0:
228,332,227537,2,0,L|300:328,1,65,0|8,0:0|0:0,0:0:0:0:
372,324,227880,1,0,0:0:0:0:
380,248,228051,2,0,P|372:208|376:164,1,65
292,95,228394,2,0,P|299:127|300:160,1,65,8|0,0:0|0:0,0:0:0:0:
344,40,228737,6,0,L|424:56,1,65,4|0,0:0|0:0,0:0:0:0:
484,68,229080,1,8,0:0:0:0:
432,128,229251,2,0,P|419:165|429:207,1,65
500,172,229594,1,0,0:0:0:0:
344,164,229765,2,0,L|280:160,1,65,8|0,0:0|0:0,0:0:0:0:
200,156,230108,5,0,0:0:0:0:
312,236,230280,2,0,L|248:232,1,65,0|8,0:0|0:0,0:0:0:0:
168,228,230622,1,0,0:0:0:0:
104,184,230794,1,0,0:0:0:0:
200,156,230965,1,0,0:0:0:0:
312,236,231137,1,8,0:0:0:0:
196,296,231308,1,0,0:0:0:0:
284,156,231480,6,0,L|328:100,1,65,4|0,0:0|0:0,0:0:0:0:
384,56,231822,1,8,0:0:0:0:
432,152,231994,2,0,L|436:128,1,16.25,4|0,0:0|0:0,0:0:0:0:
256,276,232337,2,0,L|260:252,1,16.25,4|0,0:0|0:0,0:0:0:0:
192,192,232508,2,0,L|194:175,1,16.25,12|0,0:0|0:0,0:0:0:0:
172,304,232680,2,0,L|174:287,1,16.25,4|0,0:0|0:0,0:0:0:0:
92,120,233022,5,0,0:0:0:0:
192,192,233194,1,8,0:0:0:0:
172,304,233365,1,0,0:0:0:0:
66,230,233537,1,0,0:0:0:0:
166,115,233708,1,0,0:0:0:0:
274,220,233880,1,0,0:0:0:0:
370,111,234051,1,0,0:0:0:0:
458,264,234222,6,0,L|409:319,1,65,2|0,0:0|0:0,0:0:0:0:
359,368,234565,1,8,0:0:0:0:
381,222,234737,2,0,P|337:195|325:170,1,65,2|0,0:0|0:0,0:0:0:0:
284,120,235080,1,2,0:0:0:0:
396,150,235251,1,10,0:0:0:0:
301,262,235422,1,2,0:0:0:0:
312,45,235594,5,0,0:0:0:0:
160,76,235765,1,0,0:0:0:0:
264,200,235937,1,8,0:0:0:0:
104,228,236108,1,0,0:0:0:0:
193,339,236280,2,0,P|239:327|271:304,1,65
436,186,236622,2,0,P|390:198|358:221,1,65,8|0,0:0|0:0,0:0:0:0:
224,158,236965,6,0,L|244:226,1,65,4|0,0:0|0:0,0:0:0:0:
389,369,237308,2,0,L|370:306,1,65,8|4,0:0|0:0,0:0:0:0:
390,99,237651,2,0,P|346:104|307:92,1,65,0|4,0:0|0:0,0:0:0:0:
101,228,237994,2,4,P|145:223|184:235,1,65,12|4,0:0|0:0,0:0:0:0:
260,262,238337,5,0,0:0:0:0:
358,315,238508,1,0,0:0:0:0:
355,206,238680,1,0,0:0:0:0:
266,150,238851,1,0,0:0:0:0:
187,310,239022,5,0,0:0:0:0:
358,315,239194,1,0,0:0:0:0:
362,122,239365,1,0,0:0:0:0:
182,126,239537,1,0,0:0:0:0:
66,276,239708,5,6,0:0:0:0:
247,344,239880,1,0,0:0:0:0:
221,147,240051,1,0,0:0:0:0:
149,344,240222,5,6,0:0:0:0:
300,225,240394,1,0,0:0:0:0:
111,165,240565,1,6,0:0:0:0:
242,311,240737,5,6,0:0:0:0:
422,257,240908,1,6,0:0:0:0:
321,115,241080,5,8,0:0:0:0:
290,86,241165,1,0,0:0:0:0:
250,77,241251,1,0,0:0:0:0:
208,87,241337,1,0,0:0:0:0:
176,112,241422,1,0,0:0:0:0:
146,141,241508,1,0,0:0:0:0:
106,156,241594,1,8,0:0:0:0:
65,149,241680,1,0,0:0:0:0:
31,130,241765,5,0,0:0:0:0:
26,185,241851,1,0,0:0:0:0:
37,239,241937,1,8,0:0:0:0:
73,279,242022,1,0,0:0:0:0:
125,296,242108,1,8,0:0:0:0:
180,293,242194,1,0,0:0:0:0:
228,265,242280,1,8,0:0:0:0:
259,218,242365,1,0,0:0:0:0:
268,163,242451,6,0,P|259:108|224:55,1,81.25,4|0,0:0|0:0,0:0:0:0:
199,2,242794,1,8,0:0:0:0:
383,65,242965,2,0,L|393:150,1,81.25,8|0,0:0|0:0,0:0:0:0:
402,307,243308,1,0,0:0:0:0:
402,307,243394,1,0,0:0:0:0:
402,307,243480,2,8,P|342:276|326:246,1,81.25,8|0,0:0|0:0,0:0:0:0:
230,157,243822,5,8,0:0:0:0:
230,157,243994,2,0,P|268:170|294:202,1,81.25,0|8,0:0|0:0,0:0:0:0:
173,325,244337,1,8,0:0:0:0:
173,325,244422,1,0,0:0:0:0:
173,325,244508,1,0,0:0:0:0:
86,212,244680,1,0,0:0:0:0:
33,347,244851,1,8,0:0:0:0:
192,228,245022,1,0,0:0:0:0:
192,228,245194,6,0,P|238:235|280:221,1,81.25
295,54,245537,1,8,0:0:0:0:
52,55,245708,2,0,L|70:141,1,81.25,8|0,0:0|0:0,0:0:0:0:
77,174,245965,1,0,0:0:0:0:
86,212,246051,1,0,0:0:0:0:
199,312,246222,2,8,L|112:321,1,81.25,8|0,0:0|0:0,0:0:0:0:
13,329,246565,5,0,0:0:0:0:
319,229,246737,2,0,L|232:238,1,81.25,0|8,0:0|0:0,0:0:0:0:
126,250,247080,1,8,0:0:0:0:
212,124,247251,1,0,0:0:0:0:
319,229,247422,1,0,0:0:0:0:
374,78,247594,1,8,0:0:0:0:
232,182,247765,1,8,0:0:0:0:
265,358,247937,6,0,P|288:322|333:305,1,81.25,4|0,0:0|0:0,0:0:0:0:
431,359,248280,1,8,0:0:0:0:
443,242,248451,1,8,0:0:0:0:
455,203,248537,1,0,0:0:0:0:
455,162,248622,1,0,0:0:0:0:
445,122,248708,1,0,0:0:0:0:
422,87,248794,1,0,0:0:0:0:
326,69,248965,1,8,0:0:0:0:
482,34,249137,1,0,0:0:0:0:
326,69,249308,5,0,0:0:0:0:
213,36,249480,2,0,L|135:58,1,81.25,0|8,0:0|0:0,0:0:0:0:
378,184,249822,1,8,0:0:0:0:
278,142,249994,2,0,L|200:164,1,81.25
120,288,250337,2,8,L|198:266,1,81.25,8|0,0:0|0:0,0:0:0:0:
313,288,250680,5,4,0:0:0:0:
401,353,250851,2,0,P|452:338|481:304,1,81.25,0|8,0:0|0:0,0:0:0:0:
295,270,251194,1,8,0:0:0:0:
405,211,251365,2,0,P|405:157|382:119,1,81.25
370,99,251622,1,0,0:0:0:0:
338,74,251708,2,8,P|282:57|235:64,1,81.25,8|0,0:0|0:0,0:0:0:0:
291,192,252051,5,0,0:0:0:0:
150,123,252222,2,0,L|75:180,1,81.25,0|8,0:0|0:0,0:0:0:0:
140,309,252565,1,8,0:0:0:0:
140,309,252651,1,0,0:0:0:0:
140,309,252737,1,0,0:0:0:0:
53,233,252908,1,0,0:0:0:0:
37,340,253080,1,8,0:0:0:0:
216,340,253251,1,0,0:0:0:0:
315,208,253422,6,2,L|358:121,1,81.25,6|2,0:0|0:0,0:0:0:0:
397,41,253765,1,8,0:0:0:0:
366,274,253937,2,2,P|298:288|257:267,1,81.25,6|2,0:0|0:0,0:0:0:0:
213,201,254280,1,0,0:0:0:0:
442,247,254451,2,2,L|447:329,1,81.25,14|2,0:0|0:0,0:0:0:0:
433,131,254794,5,0,0:0:0:0:
366,274,254965,2,2,L|370:355,1,81.25,6|10,0:0|0:0,0:0:0:0:
357,164,255308,1,0,0:0:0:0:
357,164,255394,1,0,0:0:0:0:
357,164,255480,1,4,0:0:0:0:
510,139,255651,1,2,0:0:0:0:
264,47,255822,1,2,0:0:0:0:
397,41,255994,1,12,0:0:0:0:
160,120,256165,6,2,L|219:175,1,81.25,6|2,0:0|0:0,0:0:0:0:
292,248,256508,1,8,0:0:0:0:
156,28,256680,2,2,P|103:37|69:71,1,81.25,6|2,0:0|0:0,0:0:0:0:
184,106,257022,1,0,0:0:0:0:
323,66,257194,2,2,P|376:57|410:23,1,81.25,14|2,0:0|0:0,0:0:0:0:
324,192,257537,5,0,0:0:0:0:
410,133,257708,2,2,P|453:101|469:56,1,81.25,6|10,0:0|0:0,0:0:0:0:
323,66,258051,1,0,0:0:0:0:
511,170,258222,1,4,0:0:0:0:
317,203,258394,1,2,0:0:0:0:
489,42,258565,1,12,0:0:0:0:
308,60,258737,1,2,0:0:0:0:
462,246,258908,6,2,L|372:258,1,81.25,6|2,0:0|0:0,0:0:0:0:
273,268,259251,1,8,0:0:0:0:
512,327,259422,2,2,L|422:339,1,81.25,6|2,0:0|0:0,0:0:0:0:
323,352,259765,1,0,0:0:0:0:
414,172,259937,2,2,P|377:137|381:72,1,81.25,14|2,0:0|0:0,0:0:0:0:
476,92,260280,5,0,0:0:0:0:
297,144,260451,2,2,P|247:138|219:93,1,81.25,6|10,0:0|0:0,0:0:0:0:
293,46,260794,1,0,0:0:0:0:
227,220,260965,2,0,L|189:294,1,81.25,4|2,0:0|0:0,0:0:0:0:
64,378,261308,2,0,L|102:306,1,81.25,12|2,0:0|0:0,0:0:0:0:
151,205,261651,5,6,0:0:0:0:
284,73,261822,1,2,0:0:0:0:
99,50,261994,1,8,0:0:0:0:
252,188,262165,2,2,L|316:236,1,81.25,6|2,0:0|0:0,0:0:0:0:
422,323,262508,1,0,0:0:0:0:
436,109,262680,1,14,0:0:0:0:
300,296,262851,6,0,L|244:363,1,81.25,6|0,0:0|0:0,0:0:0:0:
252,188,263194,2,0,L|308:121,1,81.25,4|4,0:0|0:0,0:0:0:0:
369,50,263537,1,0,0:0:0:0:
174,158,263708,2,4,P|171:213|211:256,1,81.25
300,295,264051,1,0,0:0:0:0:
369,50,264222,1,4,0:0:0:0:
473,298,264394,6,0,L|388:288,1,65,6|0,0:0|0:0,0:0:0:0:
376,284,264651,1,0,0:0:0:0:
344,280,264737,1,0,0:0:0:0:
324,157,264908,2,2,L|239:147,1,65
221,217,265251,1,0,0:0:0:0:
204,69,265422,1,2,0:0:0:0:
82,160,265594,6,0,L|93:238,1,65,2|0,0:0|0:0,0:0:0:0:
168,216,265937,2,0,L|179:294,1,65,2|0,0:0|0:0,0:0:0:0:
255,276,266280,2,0,L|266:354,1,65,2|0,0:0|0:0,0:0:0:0:
340,323,266622,1,2,0:0:0:0:
410,288,266794,1,2,0:0:0:0:
440,215,266965,1,2,0:0:0:0:
420,139,267137,6,2,P|358:131|342:123,1,65
281,106,267480,1,0,0:0:0:0:
296,182,267651,2,2,P|257:180|225:158,1,65
163,136,267994,1,0,0:0:0:0:
7,127,268165,1,2,0:0:0:0:
78,265,268337,6,0,L|151:255,1,65,2|0,0:0|0:0,0:0:0:0:
163,180,268680,2,0,L|236:170,1,65,2|0,0:0|0:0,0:0:0:0:
245,95,269022,2,0,L|318:85,1,65,2|0,0:0|0:0,0:0:0:0:
387,82,269365,1,2,0:0:0:0:
440,138,269537,1,2,0:0:0:0:
440,215,269708,1,2,0:0:0:0:
400,282,269880,6,2,L|335:240,1,65
320,320,270222,1,0,0:0:0:0:
257,273,270394,2,2,L|192:231,1,65
177,311,270737,1,0,0:0:0:0:
156,160,270908,1,2,0:0:0:0:
291,209,271080,6,0,L|327:133,1,65,2|0,0:0|0:0,0:0:0:0:
241,140,271422,2,0,L|277:64,1,65,2|0,0:0|0:0,0:0:0:0:
190,77,271765,2,0,L|226:1,1,65,2|0,0:0|0:0,0:0:0:0:
140,19,272108,1,2,0:0:0:0:
69,42,272280,1,2,0:0:0:0:
39,114,272451,1,2,0:0:0:0:
64,187,272622,6,2,P|97:190|135:219,1,65
73,265,272965,1,0,0:0:0:0:
148,283,273137,2,2,P|181:286|219:315,1,65
157,361,273480,1,0,0:0:0:0:
199,211,273651,1,2,0:0:0:0:
308,322,273822,6,0,L|381:295,1,65,2|0,0:0|0:0,0:0:0:0:
338,227,274165,2,0,L|411:200,1,65,2|0,0:0|0:0,0:0:0:0:
370,131,274508,2,0,L|443:104,1,65,2|0,0:0|0:0,0:0:0:0:
288,160,274851,1,0,0:0:0:0:
191,46,275365,6,2,L|178:113,1,65
102,128,275708,1,0,0:0:0:0:
89,205,275880,2,2,L|76:272,1,65
0,287,276222,1,0,0:0:0:0:
153,309,276394,1,2,0:0:0:0:
99,162,276565,6,0,L|176:153,1,65,2|0,0:0|0:0,0:0:0:0:
205,220,276908,2,0,L|282:211,1,65,2|0,0:0|0:0,0:0:0:0:
308,280,277251,2,0,L|385:271,1,65,2|0,0:0|0:0,0:0:0:0:
449,258,277594,1,2,0:0:0:0:
476,185,277765,1,2,0:0:0:0:
447,112,277937,1,2,0:0:0:0:
373,87,278108,6,2,P|328:101|303:131,1,65
251,67,278451,1,0,0:0:0:0:
174,80,278622,2,2,P|129:94|104:124,1,65
52,60,278965,1,0,0:0:0:0:
54,216,279137,1,2,0:0:0:0:
196,152,279308,6,0,L|273:175,1,65,2|0,0:0|0:0,0:0:0:0:
244,247,279651,2,0,L|321:270,1,65,2|0,0:0|0:0,0:0:0:0:
290,342,279994,2,0,L|367:365,1,65,2|0,0:0|0:0,0:0:0:0:
415,314,280337,1,2,0:0:0:0:
454,246,280508,1,2,0:0:0:0:
443,168,280680,1,2,0:0:0:0:
389,111,280851,6,0,P|329:107|310:97,1,65,4|0,0:0|0:0,0:0:0:0:
123,273,281194,2,0,P|183:277|202:287,1,65,4|0,0:0|0:0,0:0:0:0:
349,331,281537,2,0,L|349:241,1,65,4|0,0:0|0:0,0:0:0:0:
163,53,281880,2,0,L|163:143,1,65,4|0,0:0|0:0,0:0:0:0:
223,243,282222,6,0,L|207:185,3,32.5,4|0|0|0,0:0|0:0|0:0|0:0,0:0:0:0:
293,207,282565,2,0,L|276:148,3,32.5,4|0|0|0,0:0|0:0|0:0|0:0,0:0:0:0:
361,169,282908,2,0,L|344:110,3,32.5,4|0|0|0,0:0|0:0|0:0|0:0,0:0:0:0:
428,129,283251,2,0,L|411:70,3,32.5,4|0|0|0,0:0|0:0|0:0|0:0,0:0:0:0:
458,200,283594,5,12,0:0:0:0:
459,245,283680,1,0,0:0:0:0:
435,283,283765,1,0,0:0:0:0:
395,305,283851,1,0,0:0:0:0:
366,273,283937,5,4,0:0:0:0:
324,245,284022,1,0,0:0:0:0:
274,246,284108,1,8,0:0:0:0:
230,271,284194,1,0,0:0:0:0:
198,304,284280,5,4,0:0:0:0:
151,279,284365,1,0,0:0:0:0:
126,231,284451,1,0,0:0:0:0:
127,176,284537,1,0,0:0:0:0:
148,136,284622,5,12,0:0:0:0:
198,165,284708,1,0,0:0:0:0:
256,165,284794,1,8,0:0:0:0:
307,136,284880,1,0,0:0:0:0:
339,88,284965,5,4,0:0:0:0:
256,192,285051,12,8,285994,0:0:0:0:
260,141,286337,6,2,L|344:158,1,65
411,177,286680,1,0,0:0:0:0:
342,236,286851,1,2,0:0:0:0:
426,268,287022,1,2,0:0:0:0:
496,210,287194,1,0,0:0:0:0:
345,321,287365,1,2,0:0:0:0:
323,153,287537,6,0,L|315:83,1,65,2|0,0:0|0:0,0:0:0:0:
232,125,287880,2,0,L|224:55,1,65,2|0,0:0|0:0,0:0:0:0:
139,92,288222,1,2,0:0:0:0:
149,183,288394,1,0,0:0:0:0:
52,144,288565,1,2,0:0:0:0:
232,125,288737,1,2,0:0:0:0:
55,49,288908,1,2,0:0:0:0:
58,242,289080,6,2,L|108:297,1,65
191,280,289422,1,0,0:0:0:0:
273,295,289594,1,2,0:0:0:0:
244,215,289765,1,2,0:0:0:0:
217,358,289937,1,0,0:0:0:0:
158,199,290108,1,2,0:0:0:0:
339,223,290280,6,0,L|346:150,1,65,2|0,0:0|0:0,0:0:0:0:
277,120,290622,2,0,L|286:36,1,65,2|0,0:0|0:0,0:0:0:0:
188,105,290965,1,2,0:0:0:0:
136,180,291137,1,0,0:0:0:0:
97,97,291308,1,2,0:0:0:0:
220,188,291480,1,2,0:0:0:0:
148,34,291651,1,2,0:0:0:0:
44,178,291822,6,6,L|-6:253,1,65,2|2,0:0|0:0,0:0:0:0:
65,292,292165,1,0,0:0:0:0:
134,341,292337,1,2,0:0:0:0:
210,303,292508,1,2,0:0:0:0:
142,257,292680,1,0,0:0:0:0:
206,384,292851,1,2,0:0:0:0:
219,218,293022,6,0,L|223:140,1,65,2|0,0:0|0:0,0:0:0:0:
307,185,293365,2,0,L|311:107,1,65,2|0,0:0|0:0,0:0:0:0:
408,107,293708,1,2,0:0:0:0:
482,159,293880,1,0,0:0:0:0:
400,199,294051,1,2,0:0:0:0:
490,69,294222,1,2,0:0:0:0:
328,151,294394,1,2,0:0:0:0:
481,254,294565,6,2,P|451:283|406:294,1,65
338,292,294908,1,0,0:0:0:0:
258,247,295080,1,2,0:0:0:0:
261,337,295251,1,2,0:0:0:0:
343,199,295422,1,0,0:0:0:0:
336,383,295594,1,2,0:0:0:0:
176,294,295765,6,0,L|100:255,1,65,2|0,0:0|0:0,0:0:0:0:
188,206,296108,2,0,L|112:167,1,65,2|0,0:0|0:0,0:0:0:0:
198,116,296451,2,0,L|140:86,1,65,2|0,0:0|0:0,0:0:0:0:
277,161,296794,1,4,0:0:0:0:
277,161,297308,6,2,L|334:190,1,65,6|2,0:0|0:0,0:0:0:0:
420,221,297651,1,0,0:0:0:0:
490,163,297822,1,2,0:0:0:0:
404,132,297994,1,2,0:0:0:0:
505,255,298165,1,0,0:0:0:0:
337,191,298337,1,2,0:0:0:0:
476,75,298508,6,0,L|402:30,1,65,2|0,0:0|0:0,0:0:0:0:
404,132,298851,2,0,L|330:87,1,65,2|0,0:0|0:0,0:0:0:0:
337,191,299194,1,2,0:0:0:0:
286,264,299365,1,0,0:0:0:0:
374,272,299537,1,2,0:0:0:0:
258,181,299708,1,2,0:0:0:0:
424,198,299880,1,2,0:0:0:0:
322,340,300051,6,2,P|284:350|240:330,1,65
184,313,300394,1,0,0:0:0:0:
146,230,300565,1,2,0:0:0:0:
93,304,300737,1,2,0:0:0:0:
65,217,300908,1,0,0:0:0:0:
132,378,301080,1,2,0:0:0:0:
236,240,301251,6,0,L|280:185,1,65,2|0,0:0|0:0,0:0:0:0:
192,152,301594,2,0,L|236:97,1,65,2|0,0:0|0:0,0:0:0:0:
141,96,301937,1,2,0:0:0:0:
51,113,302108,1,0,0:0:0:0:
80,26,302280,1,2,0:0:0:0:
111,183,302451,1,2,0:0:0:0:
1,42,302622,1,2,0:0:0:0:
171,14,302794,6,2,L|257:36,1,65
328,56,303137,1,0,0:0:0:0:
278,131,303308,1,2,0:0:0:0:
369,137,303480,1,2,0:0:0:0:
242,50,303651,1,0,0:0:0:0:
424,65,303822,1,2,0:0:0:0:
312,211,303994,6,0,L|262:272,1,65,2|0,0:0|0:0,0:0:0:0:
191,240,304337,2,0,L|146:305,1,65,2|0,0:0|0:0,0:0:0:0:
66,268,304680,1,2,0:0:0:0:
91,355,304851,1,0,0:0:0:0:
154,293,305022,1,2,0:0:0:0:
1,335,305194,1,2,0:0:0:0:
131,201,305365,1,2,0:0:0:0:
174,368,305537,6,2,L|251:348,1,65
329,315,305880,1,0,0:0:0:0:
401,263,306051,1,2,0:0:0:0:
320,224,306222,1,2,0:0:0:0:
411,349,306394,1,0,0:0:0:0:
394,178,306565,1,2,0:0:0:0:
253,280,306737,1,2,0:0:0:0:
406,99,306908,2,0,P|366:105|327:138,2,65,0|2|0,0:0|0:0|0:0,0:0:0:0:
170,186,307422,6,2,P|210:180|249:147,2,65,2|0|2,0:0|0:0|0:0,0:0:0:0:
82,185,307937,1,0,0:0:0:0:
310,221,308108,2,0,P|323:168|289:92,1,130
256,192,308537,12,0,312051,0:0:0:0:
