osu file format v14

[General]
AudioFilename: P Light feat. Yukacco - Stargazer (DJ Shimamura dnb Remix).mp3
AudioLeadIn: 1500
PreviewTime: 64581
Countdown: 0
SampleSet: Soft
StackLeniency: 0.8
Mode: 0
LetterboxInBreaks: 0
WidescreenStoryboard: 1

[Editor]
Bookmarks: 65952
DistanceSpacing: 1.2
BeatDivisor: 4
GridSize: 4
TimelineZoom: 1

[Metadata]
Title:Stargazer (DJ Shimamura Remix)
TitleUnicode:Stargazer (DJ Shimamura Remix)
Artist:P*Light feat. yukacco
ArtistUnicode:P*Light feat. yukacco
Creator:Mishima Yurara
Version:RLC's Constellation
Source:
Tags:edm SKETCH UP! Recordings dance music M_o_k_o_r_i mokori drum and bass asahina momoko dnb SkinnyJommy RLC ProfessionalBox VINXIS
BeatmapID:782287
BeatmapSetID:313831

[Difficulty]
HPDrainRate:7
CircleSize:4.3
OverallDifficulty:8
ApproachRate:9
SliderMultiplier:1.8
SliderTickRate:1

[Events]
//Background and Video events
0,0,"i am too cool for your bg.jpg",0,0
//Break Periods
2,30124,32352
//Storyboard Layer 0 (Background)
//Storyboard Layer 1 (Fail)
//Storyboard Layer 2 (Pass)
//Storyboard Layer 3 (Foreground)
//Storyboard Sound Samples

[TimingPoints]
124,342.857142857143,4,2,1,50,1,0
124,-200,4,2,0,50,0,0
22066,-133.333333333333,4,2,0,50,0,0
33038,-200,4,2,0,50,0,0
34409,-200,4,2,1,50,0,0
35781,-200,4,2,0,50,0,0
37666,-200,4,2,1,50,0,0
38524,-200,4,2,0,50,0,0
40066,-200,4,2,1,50,0,0
41266,-200,4,2,0,50,0,0
44009,-117.647058823529,4,2,2,50,0,0
54809,-117.647058823529,4,2,0,50,0,0
60466,-100,4,2,0,50,0,0
64581,-100,4,3,1,50,0,0
65181,-100,4,2,0,50,0,0
65952,-100,4,2,2,75,0,1
86695,-133.333333333333,4,3,2,75,0,0
87381,-133.333333333333,4,3,1,75,0,0
87895,-100,4,2,2,75,0,1
109838,-100,4,2,2,50,0,0
111209,-200,4,2,2,50,0,0
111552,-133.333333333333,4,2,2,50,0,0
111895,-100,4,2,2,50,0,0

[Colours]
Combo1 : 255,94,94
Combo2 : 23,180,255
Combo3 : 202,0,101
Combo4 : 196,255,255

[HitObjects]
41,263,124,5,0,0:0:0:0:
198,242,638,1,0,0:0:0:0:
130,369,1152,2,0,L|118:234,1,135,0|0,0:0|3:0,0:0:0:0:
171,121,1838,2,0,L|168:171,1,45,0|0,3:0|3:0,0:0:0:0:
460,178,2866,5,0,0:0:0:0:
294,182,3381,1,0,0:0:0:0:
443,178,3895,2,0,B|393:173|393:173|356:187|356:187|294:183,1,135,0|0,0:0|3:0,0:0:0:0:
291,109,4581,2,0,L|345:112,1,45,0|0,3:0|3:0,0:0:0:0:
375,340,5609,5,0,0:0:0:0:
137,340,6124,1,0,0:0:0:0:
253,364,6638,2,0,B|242:288|268:312|254:220,1,135,0|0,0:0|3:0,0:0:0:0:
256,153,7324,1,0,3:0:0:0:
256,153,7495,1,0,3:0:0:0:
85,75,8352,5,0,0:0:0:0:
76,67,8866,1,0,0:0:0:0:
65,59,9381,2,0,L|76:209,1,135,0|0,0:0|3:0,0:0:0:0:
47,287,10066,1,0,3:0:0:0:
47,287,10238,2,0,L|145:279,1,90,0|0,3:0|0:0,0:0:0:0:
208,302,10752,1,0,0:0:0:0:
279,164,11095,6,0,P|319:204|413:202,1,135,0|0,1:0|1:0,0:0:0:0:
471,179,11781,1,2,0:0:0:0:
484,171,12124,2,0,L|475:312,2,135,0|0|0,1:0|0:0|0:0,0:0:0:0:
483,320,13495,1,2,0:0:0:0:
354,249,13838,6,0,B|272:242|303:279|213:267,1,135,0|0,1:0|1:0,0:0:0:0:
150,239,14524,1,2,0:0:0:0:
135,234,14866,2,0,L|-4:249,2,135,0|0|0,1:0|0:0|0:0,0:0:0:0:
237,179,16238,1,2,0:0:0:0:
222,282,16581,5,0,1:0:0:0:
185,103,16924,2,0,P|152:100|137:95,1,45,2|0,0:0|1:0,0:0:0:0:
317,180,17266,2,0,P|355:179|407:169,1,90,2|0,0:0|1:0,0:0:0:0:
405,169,17781,2,0,L|421:307,1,135,2|0,0:0|0:0,0:0:0:0:
420,303,18981,1,2,0:0:0:0:
178,215,19324,5,0,1:0:0:0:
107,302,19666,2,0,L|104:359,2,45,2|0|2,0:0|1:0|0:0,0:0:0:0:
76,198,20352,2,0,P|74:152|72:57,2,135,2|0|0,1:2|0:0|0:0,0:0:0:0:
128,280,21552,5,2,0:0:0:0:
206,229,21724,1,2,0:0:0:0:
290,260,21895,1,2,0:0:0:0:
344,190,22066,6,0,L|273:178,1,67.5000025749208,0|0,1:0|0:0,0:0:0:0:
170,161,22409,5,2,0:0:0:0:
160,159,22581,1,0,1:0:0:0:
290,260,22752,5,2,0:0:0:0:
344,190,22924,1,0,0:0:0:0:
316,105,23095,1,0,1:0:0:0:
150,157,23266,5,2,0:0:0:0:
140,155,23438,1,0,0:0:0:0:
263,176,23609,5,0,0:0:0:0:
392,126,23781,1,2,0:2:0:0:
373,268,23952,1,2,0:2:0:0:
373,268,24295,5,2,0:2:0:0:
433,204,24466,1,2,0:2:0:0:
512,230,24638,1,2,0:2:0:0:
285,233,24809,5,0,1:0:0:0:
285,233,24981,2,0,P|288:295|293:373,1,135.000005149842,2|0,0:2|1:0,0:0:0:0:
345,164,25495,1,2,0:2:0:0:
198,263,25667,2,0,P|195:201|194:171,2,67.5000025749208,2|0|2,0:2|1:1|0:2,0:0:0:0:
260,100,26181,5,2,0:2:0:0:
260,100,26524,2,0,L|114:88,1,135.000005149842,2|0,0:2|0:0,0:0:0:0:
334,293,27209,5,0,0:0:0:0:
485,228,27381,1,2,0:2:0:0:
420,329,27552,2,0,B|423:282|423:282|411:241|411:241|415:178,1,135.000005149842,0|0,1:0|0:0,0:0:0:0:
485,139,28066,1,0,1:0:0:0:
334,293,28238,6,0,P|269:283|186:315,1,135.000005149842,2|0,0:2|1:0,0:0:0:0:
464,224,28752,2,0,P|420:233|385:228,1,67.5000025749208,0|2,0:0|0:2,0:0:0:0:
345,158,29095,2,0,L|333:304,1,135.000005149842,2|0,0:2|0:0,0:0:0:0:
62,274,33038,6,0,P|111:263|171:263,1,90,4|0,1:3|0:0,0:0:0:0:
229,292,33552,2,0,P|234:251|247:202,1,90,0|0,1:0|0:0,0:0:0:0:
303,150,34066,1,0,1:0:0:0:
469,329,34581,5,0,0:0:0:0:
469,329,34752,2,0,L|413:338,1,45
393,244,35095,2,0,L|341:241,1,45
303,150,35438,1,0,0:0:0:0:
54,233,35781,6,0,P|66:189|76:127,1,90,4|0,0:3|0:0,0:0:0:0:
77,60,36295,2,0,P|125:85|171:102,1,90,0|0,1:0|0:0,0:0:0:0:
239,75,36809,1,0,1:0:0:0:
332,62,37666,6,0,L|392:56,2,45
239,75,38181,1,0,0:0:0:0:
380,352,38524,6,0,P|391:313|400:250,1,90,4|0,0:3|0:0,0:0:0:0:
366,193,39038,1,0,1:0:0:0:
165,310,39381,1,0,0:0:0:0:
218,258,39553,2,0,P|252:250|316:254,1,90,0|0,1:0|0:0,0:0:0:0:
454,203,40066,2,0,P|419:204|359:190,1,90
314,134,40581,2,0,L|316:81,1,45
382,37,40924,1,0,0:0:0:0:
116,61,41266,6,0,L|24:72,1,90,4|0,0:3|0:0,0:0:0:0:
234,73,41781,2,0,L|326:62,1,90,0|0,1:0|0:0,0:0:0:0:
167,122,42295,5,0,1:0:0:0:
164,136,42809,1,0,1:0:0:0:
162,150,43324,2,0,L|150:285,1,135,0|0,1:0|0:0,0:0:0:0:
78,173,44009,5,0,0:0:0:0:
151,285,44181,1,0,0:0:0:0:
250,205,44352,1,0,0:0:0:0:
151,285,44524,6,0,L|48:303,1,76.5000014591217,2|0,0:1|0:0,0:0:0:0:
2,186,44866,1,0,0:0:0:0:
2,186,45038,2,0,L|105:168,1,76.5000014591217,2|0,0:1|0:0,0:0:0:0:
255,131,45381,1,0,0:0:0:0:
172,93,45552,2,0,P|165:137|175:182,1,76.5000014591217
246,344,45895,5,0,0:0:0:0:
246,344,45981,1,0,0:0:0:0:
246,344,46066,1,2,0:2:0:0:
335,233,46238,1,0,0:0:0:0:
462,300,46409,1,2,0:2:0:0:
344,66,46752,6,0,P|353:106|354:154,1,76.5000014591217
256,120,47095,1,0,0:0:0:0:
157,141,47266,2,0,P|159:103|168:66,1,76.5000014591217,2|0,0:1|0:0,0:0:0:0:
256,120,47609,1,0,0:0:0:0:
440,104,47781,2,0,P|441:161|424:268,1,153.000002918243,2|0,0:1|0:0,0:0:0:0:
384,336,48295,1,0,0:0:0:0:
132,273,48638,5,0,0:0:0:0:
132,273,48724,1,0,0:0:0:0:
132,273,48809,2,0,P|84:283|55:286,1,76.5000014591217,2|0,0:2|0:0,0:0:0:0:
210,217,49152,1,2,0:2:0:0:
294,254,49323,1,0,0:0:0:0:
225,312,49495,5,0,0:0:0:0:
124,181,49666,1,0,0:0:0:0:
147,362,49838,1,0,0:0:0:0:
294,254,50009,2,0,L|300:157,1,76.5000014591217,2|0,0:1|0:0,0:0:0:0:
41,226,50352,1,0,0:0:0:0:
41,226,50438,1,0,0:0:0:0:
41,226,50524,2,0,L|35:129,1,76.5000014591217,2|0,0:1|0:0,0:0:0:0:
110,66,50866,5,0,0:0:0:0:
174,131,51038,1,0,0:0:0:0:
256,91,51209,1,0,0:0:0:0:
345,113,51381,1,0,0:0:0:0:
345,113,51466,1,0,0:0:0:0:
345,113,51552,2,0,L|441:109,1,76.5000014591217,2|0,0:2|0:0,0:0:0:0:
461,193,51895,2,0,L|365:197,1,76.5000014591217,2|0,0:2|0:0,0:0:0:0:
173,253,52238,5,0,0:0:0:0:
173,253,52409,2,0,P|167:307|161:348,1,76.5000014591217
339,218,52752,1,0,0:0:0:0:
339,218,52923,2,0,P|345:272|351:313,1,76.5000014591217
133,165,53266,1,0,0:0:0:0:
224,181,53438,5,0,0:0:0:0:
40,321,53781,1,0,0:0:0:0:
224,181,54124,1,0,0:0:0:0:
133,165,54295,2,0,B|106:120|106:120|123:-4,1,153.000002918243
429,77,54809,5,0,0:0:0:0:
429,77,54895,1,0,0:0:0:0:
429,77,54981,1,0,1:0:0:0:
334,89,55324,1,2,0:0:0:0:
298,227,55666,5,0,1:0:0:0:
393,239,56009,1,2,0:0:0:0:
334,89,56352,5,0,1:0:0:0:
239,77,56695,1,2,0:0:0:0:
203,239,57038,5,0,1:0:0:0:
298,227,57381,1,2,0:0:0:0:
77,330,57724,5,0,1:0:0:0:
412,291,58066,5,2,0:0:0:0:
412,291,58238,1,2,0:0:0:0:
323,317,58409,1,0,1:0:0:0:
403,144,58752,5,2,0:0:0:0:
403,144,58924,1,2,0:0:0:0:
345,216,59095,1,0,1:0:0:0:
314,29,59438,5,2,0:0:0:0:
314,29,59610,1,2,0:0:0:0:
307,121,59781,1,0,1:0:0:0:
55,147,60124,5,2,0:0:0:0:
55,147,60466,6,0,B|106:142|106:142|138:153|138:153|205:148,1,135,0|2,1:0|0:2,0:0:0:0:
218,78,60809,6,0,B|269:83|269:83|301:72|301:72|368:77,1,135,0|2,1:0|0:2,0:0:0:0:
315,151,61152,6,0,B|248:166|248:166|303:217,1,135,0|2,1:0|0:2,0:0:0:0:
437,246,61495,6,0,B|504:231|504:231|449:180,1,135,0|2,1:0|0:2,0:0:0:0:
372,206,61838,6,0,L|353:312,1,90,0|2,1:0|0:2,0:0:0:0:
372,206,62181,6,0,L|391:100,1,90,0|2,1:0|0:2,0:0:0:0:
372,206,62524,6,0,L|266:187,1,90,0|2,1:0|0:2,0:0:0:0:
372,206,62867,6,0,L|478:225,1,90,0|2,1:0|1:2,0:0:0:0:
122,150,63209,5,0,1:0:0:0:
242,50,63381,1,2,1:0:0:0:
211,277,63552,1,0,1:0:0:0:
376,241,63724,1,2,1:0:0:0:
234,152,63895,5,0,1:0:0:0:
77,280,64066,1,2,1:2:0:0:
77,280,64152,1,2,1:2:0:0:
77,280,64238,1,0,1:0:0:0:
128,63,64409,1,2,1:2:0:0:
378,132,64581,5,0,0:0:0:0:
300,223,64752,5,0,0:0:0:0:
300,223,64838,1,0,0:0:0:0:
300,223,64924,2,0,L|291:157,1,45
215,81,65095,6,0,L|206:139,1,45
126,164,65266,5,2,0:0:0:0:
126,164,65952,6,0,P|124:212|122:267,1,90,4|0,1:2|0:1,0:0:0:0:
34,207,66295,1,8,0:0:0:0:
199,96,66466,1,4,1:2:0:0:
104,60,66638,5,0,0:1:0:0:
226,187,66809,1,0,1:0:0:0:
339,49,66981,1,12,0:2:0:0:
126,164,67152,6,0,P|73:158|26:149,1,90,0|0,0:1|3:0,0:0:0:0:
197,278,67495,1,4,0:2:0:0:
282,121,67666,1,10,0:0:0:0:
197,278,67838,1,2,0:2:0:0:
304,235,68009,5,4,0:2:0:0:
126,164,68181,1,2,3:2:0:0:
277,38,68352,1,12,0:2:0:0:
304,235,68524,1,2,0:2:0:0:
105,73,68695,6,0,L|199:87,1,90,4|0,2:2|1:0,1:0:0:0:
272,313,69038,1,8,0:0:0:0:
448,150,69209,2,0,L|354:164,1,90,4|0,1:2|1:1,1:0:0:0:
144,196,69552,1,0,1:0:0:0:
272,313,69724,1,12,0:2:0:0:
258,130,69895,6,0,L|265:230,1,90,0|0,0:0|3:0,0:0:0:0:
100,283,70238,1,4,0:2:0:0:
44,200,70409,1,10,0:2:0:0:
92,111,70581,1,2,0:2:0:0:
314,144,70752,5,4,3:2:0:0:
144,196,70924,1,2,3:2:0:0:
272,313,71095,1,12,0:2:0:0:
144,196,71266,1,2,0:2:0:0:
396,92,71438,6,0,P|408:137|399:191,1,90,4|0,1:2|0:0,0:0:0:0:
324,237,71781,1,8,0:0:0:0:
493,179,71952,1,4,1:2:0:0:
423,303,72124,5,0,0:0:0:0:
314,144,72295,1,0,1:0:0:0:
186,271,72466,1,12,0:2:0:0:
404,196,72638,6,0,L|501:177,1,90,0|0,0:0|3:0,0:0:0:0:
264,332,72981,1,4,0:2:0:0:
273,221,73152,1,10,0:2:0:0:
287,109,73324,1,2,0:2:0:0:
193,158,73495,5,4,0:2:0:0:
351,283,73666,1,2,3:2:0:0:
150,316,73838,1,12,0:2:0:0:
389,123,74009,1,2,0:2:0:0:
264,332,74181,5,4,0:2:0:0:
98,230,74352,2,0,L|201:240,1,90,0|8,1:0|0:0,0:0:0:0:
441,289,74695,2,0,P|372:294|286:213,1,180,4|0,1:2|1:0,0:0:0:0:
264,332,75209,2,0,L|282:141,1,180,12|0,0:2|3:0,0:0:0:0:
291,48,75724,5,4,0:2:0:0:
291,48,75809,1,0,0:0:0:0:
291,48,75895,1,8,0:0:0:0:
398,204,76066,1,2,0:2:0:0:
489,54,76238,2,2,L|388:73,1,90,4|2,3:2|3:1,1:0:0:0:
38,190,76581,2,0,P|91:210|139:195,1,90,10|0,0:1|0:0,0:0:0:0:
200,192,76838,5,0,0:0:0:0:
200,192,76924,2,0,L|211:77,1,90,0|0,1:0|0:0,0:0:0:0:
86,126,77266,1,8,0:0:0:0:
77,36,77438,6,0,L|88:151,1,90,2|0,1:1|0:0,0:0:0:0:
30,273,77781,1,0,1:0:0:0:
208,102,77952,1,10,0:1:0:0:
0,84,78124,1,0,0:0:0:0:
289,192,78295,5,0,3:0:0:0:
289,192,78466,2,0,P|239:196|195:190,1,90,2|10,0:1|0:2,0:0:0:0:
114,165,78809,1,2,0:2:0:0:
379,237,78981,5,2,0:1:0:0:
374,140,79152,1,2,3:2:0:0:
194,288,79324,5,10,0:1:0:0:
199,191,79495,1,2,0:2:0:0:
285,350,79666,5,0,0:0:0:0:
465,201,79838,2,0,P|473:258|459:298,1,90,2|8,1:1|0:0,0:0:0:0:
118,236,80181,2,0,P|110:179|124:139,1,90,0|2,1:0|0:1,0:0:0:0:
296,212,80524,1,0,1:0:0:0:
306,122,80695,6,0,L|294:223,1,90,8|2,0:0|0:1,0:0:0:0:
279,309,81038,1,0,3:0:0:0:
474,167,81209,5,2,0:2:0:0:
474,167,81295,1,2,0:2:0:0:
474,167,81381,1,10,0:1:0:0:
385,179,81552,1,2,0:2:0:0:
210,120,81724,5,2,3:1:0:0:
373,267,81895,1,2,3:2:0:0:
411,57,82066,1,10,0:1:0:0:
411,57,82238,1,2,0:2:0:0:
210,120,82409,6,0,L|108:110,1,90,2|0,1:1|0:0,0:0:0:0:
160,282,82752,1,8,0:0:0:0:
70,290,82924,6,0,L|159:281,1,90,2|0,1:1|0:0,0:0:0:0:
259,264,83266,1,0,1:0:0:0:
28,186,83438,1,10,0:1:0:0:
224,355,83609,1,0,0:0:0:0:
325,103,83781,5,0,3:0:0:0:
325,103,83952,2,0,B|315:147|315:147|324:209,1,90,2|10,0:1|0:2,0:0:0:0:
410,154,84295,1,2,0:2:0:0:
351,286,84466,5,2,0:1:0:0:
259,264,84638,1,2,3:2:0:0:
265,37,84809,5,10,0:1:0:0:
357,15,84981,1,2,0:2:0:0:
317,151,85152,6,0,L|208:145,1,90,0|2,1:0|0:1,0:0:0:0:
41,132,85495,1,0,1:0:0:0:
129,193,85666,6,0,P|134:146|134:93,1,90,0|2,0:0|1:1,0:0:0:0:
259,264,86009,1,0,0:0:0:0:
413,125,86181,2,0,P|408:172|408:225,1,90,0|2,1:0|0:1,0:0:0:0:
402,233,86695,6,0,L|252:247,1,135.000005149842
267,245,87209,1,0,0:0:0:0:
90,307,87381,5,0,0:0:0:0:
123,311,87466,5,0,0:0:0:0:
156,316,87552,5,2,0:0:0:0:
189,321,87638,5,0,0:0:0:0:
222,326,87724,5,0,0:0:0:0:
446,184,87895,6,0,B|343:163|370:229|256:199,1,180,4|8,1:2|0:0,0:0:0:0:
212,88,88409,1,4,1:2:0:0:
400,355,88581,2,0,P|402:312|407:254,1,90,0|0,0:0|1:0,0:0:0:0:
152,200,88924,1,12,0:2:0:0:
304,30,89095,6,0,P|307:74|309:119,1,90,0|0,0:0|3:0,0:0:0:0:
212,88,89438,1,4,0:2:0:0:
403,69,89609,1,10,0:2:0:0:
212,88,89781,1,2,0:2:0:0:
425,168,89952,5,2,0:1:0:0:
304,30,90124,1,2,3:2:0:0:
256,218,90295,1,10,0:1:0:0:
437,171,90466,1,2,0:2:0:0:
195,85,90638,6,0,L|94:73,1,90,4|0,0:2|1:0,0:0:0:0:
327,137,90981,1,8,0:0:0:0:
152,258,91152,2,0,B|140:216|140:216|150:165,1,90,4|0,1:2|0:0,0:0:0:0:
292,247,91495,1,0,1:0:0:0:
411,99,91666,2,0,B|423:141|423:141|413:192,1,90,12|0,0:2|0:0,0:0:0:0:
381,261,91924,5,0,0:0:0:0:
381,261,92009,2,0,L|288:247,1,90,0|4,3:0|0:2,0:0:0:0:
143,150,92352,5,10,0:2:0:0:
161,366,92524,1,2,0:2:0:0:
152,258,92695,5,2,3:1:0:0:
152,258,92866,1,2,3:2:0:0:
38,326,93038,5,10,0:1:0:0:
267,191,93209,1,2,0:2:0:0:
77,85,93381,5,4,1:2:0:0:
266,99,93552,2,0,L|177:94,1,90,0|8,0:0|0:0,0:0:0:0:
265,317,93895,5,4,1:2:0:0:
75,331,94066,2,0,L|164:325,1,90,0|0,0:0|1:0,0:0:0:0:
388,350,94409,5,12,0:2:0:0:
386,64,94581,1,0,0:0:0:0:
448,208,94752,5,0,3:0:0:0:
448,208,94924,2,0,L|346:212,1,90,4|8,0:2|0:0,0:0:0:0:
126,152,95266,1,2,0:2:0:0:
126,152,95352,1,2,0:2:0:0:
126,152,95438,1,2,0:1:0:0:
108,277,95609,1,2,3:2:0:0:
252,134,95781,1,10,0:1:0:0:
280,300,95952,1,2,0:2:0:0:
20,291,96124,5,4,0:2:0:0:
188,226,96295,2,0,B|200:269|200:269|193:313,1,90,0|8,1:0|0:0,0:0:0:0:
366,166,96638,2,0,B|505:155|505:155|464:187,1,180,4|0,1:2|1:0,0:0:0:0:
274,221,97152,2,0,B|262:178|262:178|268:133,1,90,12|0,0:2|0:0,0:0:0:0:
386,77,97495,5,0,3:0:0:0:
349,267,97666,1,4,3:2:0:0:
320,34,97838,5,2,3:2:0:0:
412,323,98009,1,2,3:2:0:0:
66,235,98181,5,2,1:1:0:0:
214,26,98352,5,2,1:2:0:0:
216,282,98524,5,2,1:1:0:0:
64,77,98695,5,2,1:2:0:0:
308,153,98866,6,0,L|411:141,1,90,4|0,1:2|0:0,0:0:0:0:
215,103,99209,1,8,0:0:0:0:
348,331,99381,2,0,L|245:343,1,90,4|0,1:2|0:0,0:0:0:0:
222,224,99724,1,0,1:0:0:0:
44,202,99895,6,0,L|240:227,1,180,12|0,0:2|3:0,0:0:0:0:
425,107,100409,1,2,0:2:0:0:
425,107,100495,1,2,0:2:0:0:
425,107,100581,1,12,0:2:0:0:
348,331,100752,1,2,0:2:0:0:
341,48,100924,5,2,0:1:0:0:
500,163,101095,1,2,3:2:0:0:
368,186,101266,1,10,0:1:0:0:
484,26,101438,1,2,0:2:0:0:
269,170,101609,6,0,L|170:155,1,90,4|0,0:2|1:0,0:0:0:0:
368,186,101952,1,8,0:0:0:0:
121,63,102124,2,0,B|94:101|78:142|78:142|82:183|95:233,1,180,4|0,1:2|1:0,0:0:0:0:
250,237,102638,5,8,0:0:0:0:
25,340,102809,2,0,P|18:291|9:242,1,90,4|0,0:2|3:0,0:0:0:0:
142,151,103152,5,2,0:2:0:0:
353,274,103323,2,0,P|360:225|369:176,1,90,12|2,0:2|0:2,0:0:0:0:
415,366,103666,5,2,3:1:0:0:
250,237,103838,1,2,3:2:0:0:
454,176,104009,2,0,P|404:189|354:181,1,90,10|2,0:1|0:2,0:0:0:0:
308,139,104266,5,0,0:0:0:0:
308,139,104352,2,0,P|261:125|209:132,1,90,4|0,1:2|0:0,0:0:0:0:
250,237,104695,1,8,0:0:0:0:
192,335,104866,2,0,P|239:349|291:342,1,90,4|0,1:2|0:0,0:0:0:0:
250,237,105209,1,0,1:0:0:0:
376,209,105381,5,12,0:2:0:0:
117,269,105552,1,2,0:2:0:0:
79,108,105724,5,0,3:0:0:0:
174,135,105895,1,4,0:2:0:0:
275,164,106066,1,10,0:2:0:0:
69,190,106238,5,2,0:2:0:0:
69,190,106324,1,2,0:2:0:0:
69,190,106409,1,2,0:1:0:0:
278,77,106581,1,2,3:2:0:0:
188,268,106752,1,10,0:1:0:0:
161,11,106924,1,2,0:2:0:0:
383,55,107095,6,0,L|383:108|383:154,1,90,4|0,1:2|0:0,0:0:0:0:
467,226,107438,1,8,0:0:0:0:
275,164,107609,1,4,1:2:0:0:
342,343,107781,2,0,L|342:306|342:253,1,90,0|8,0:0|0:0,0:0:0:0:
476,104,108124,1,4,1:2:0:0:
250,294,108295,1,2,0:0:0:0:
256,192,108466,12,2,109838,3:2:0:0:
364,280,111209,6,0,L|295:274,1,45
110,298,111552,6,0,P|144:300|189:289,1,67.5000025749208
360,144,111895,5,0,0:0:0:0:
157,138,112066,1,0,3:0:0:0:
256,361,112238,2,0,L|256:262,1,90,8|0,0:0|0:0,0:0:0:0:
280,113,112581,5,4,1:0:0:0:
380,225,112752,1,0,1:0:0:0:
449,132,112924,2,0,L|346:145,1,90,8|0,0:0|1:0,0:0:0:0:
207,74,113266,2,0,B|195:120|195:120|216:167,1,90,0|0,0:0|1:0,0:0:0:0:
347,63,113609,1,8,0:0:0:0:
138,201,113781,6,0,P|93:200|46:195,1,90,0|0,0:0|3:0,0:0:0:0:
276,278,114124,2,0,P|323:271|367:266,1,90,0|8,0:0|0:0,0:0:0:0:
161,315,114466,1,0,0:0:0:0:
410,177,114638,5,0,3:0:0:0:
474,250,114810,1,0,3:0:0:0:
432,340,114981,1,12,0:2:0:0:
430,78,115324,6,0,L|479:68,2,45,2|2|2,1:2|0:2|0:2,0:0:0:0:
410,177,115666,2,0,L|306:167,1,90,8|0,0:0|1:0,0:0:0:0:
81,100,116009,2,0,P|120:80|169:80,1,90,0|0,0:0|1:0,0:0:0:0:
231,164,116352,1,8,0:0:0:0:
147,256,116524,6,0,P|143:210|139:146,1,90,0|0,0:0|3:0,0:0:0:0:
313,78,116866,2,0,P|317:124|321:188,1,90,0|8,0:0|0:0,0:0:0:0:
252,283,117209,1,0,0:0:0:0:
435,179,117381,5,0,0:0:0:0:
435,179,117552,1,0,3:0:0:0:
467,275,117724,2,0,L|374:264,1,90,8|0,0:0|0:0,0:0:0:0:
113,196,118066,5,0,0:0:0:0:
199,312,118238,1,0,1:0:0:0:
291,221,118409,2,0,L|186:234,1,90,8|0,0:0|1:0,0:0:0:0:
379,186,118752,2,0,B|390:229|390:229|378:281,1,90,0|0,0:0|1:0,0:0:0:0:
287,102,119095,5,8,0:0:0:0:
202,143,119266,2,0,B|191:100|191:100|203:48,1,90,0|0,0:0|3:0,0:0:0:0:
148,213,119609,2,0,L|49:206,1,90,2|8,0:2|0:0,0:0:0:0:
221,300,119952,2,0,L|121:322,1,90,2|0,0:2|3:0,0:0:0:0:
291,221,120295,1,2,3:2:0:0:
291,221,120381,1,2,0:2:0:0:
291,221,120466,1,8,0:0:0:0:
397,344,120638,1,2,0:2:0:0:
462,180,120809,6,0,B|395:185|395:185|355:212|355:212|291:221,1,180,4|8,1:2|0:0,0:0:0:0:
193,221,121324,1,2,1:2:0:0:
287,38,121495,5,0,0:0:0:0:
306,134,121666,1,2,1:2:0:0:
375,68,121838,1,10,0:2:0:0:
344,218,122009,5,0,0:0:0:0:
161,143,122181,1,2,3:2:0:0:
124,287,122352,5,0,0:0:0:0:
193,221,122523,1,10,0:2:0:0:
212,317,122695,1,2,0:2:0:0:
212,317,123038,1,0,3:0:0:0:
23,215,123209,2,0,L|128:204,1,90,8|0,0:0|0:0,0:0:0:0:
273,192,123552,5,0,0:0:0:0:
140,250,123724,2,0,P|135:203|133:152,1,90,0|8,1:0|0:0,0:0:0:0:
273,192,124066,1,0,1:0:0:0:
412,133,124238,1,0,0:0:0:0:
412,133,124409,2,0,P|417:180|419:231,1,90,0|8,1:0|0:0,0:0:0:0:
273,192,124752,1,0,0:0:0:0:
372,309,124924,6,0,P|429:320|511:225,1,180,0|8,3:0|0:0,0:0:0:0:
415,43,125438,2,0,L|411:142,1,90,0|0,0:0|3:0,0:0:0:0:
225,204,125781,1,2,3:2:0:0:
225,204,125866,1,2,0:2:0:0:
225,204,125952,1,8,0:0:0:0:
146,62,126124,1,2,0:2:0:0:
49,196,126295,6,0,B|115:189|115:189|161:208|161:208|229:203,1,180,4|0,1:2|1:0,0:0:0:0:
94,282,126809,1,0,0:0:0:0:
284,112,126981,2,0,L|189:122,1,90,2|0,1:2|0:0,0:0:0:0:
158,352,127324,2,0,L|253:342,1,90,0|2,1:0|0:2,0:0:0:0:
491,198,127666,5,0,1:0:0:0:
287,234,127838,1,2,0:2:0:0:
369,187,128009,2,0,B|382:146|382:146|368:102,1,90,2|0,1:2|0:0,0:0:0:0:
411,274,128352,2,0,B|397:316|397:316|411:360,1,90,0|0,1:0|0:0,0:0:0:0:
411,360,128609,1,0,0:0:0:0:
411,360,128695,1,0,1:0:0:0:
454,162,128866,1,2,1:2:0:0:
250,307,129038,5,4,3:2:0:0:
369,187,129209,1,2,3:2:0:0:
492,317,129381,1,2,3:2:0:0:
374,101,129552,5,0,3:0:0:0:
314,254,129724,1,0,1:0:0:0:
287,156,129895,5,2,1:2:0:0:
421,254,130066,1,2,1:2:0:0:
480,41,130238,5,4,1:2:0:0:
28,145,131781,1,4,1:2:0:0:
