osu file format v14

[General]
AudioFilename: P Light feat. Yukacco - Stargazer (DJ Shimamura dnb Remix).mp3
AudioLeadIn: 1500
PreviewTime: 64581
Countdown: 0
SampleSet: Soft
StackLeniency: 0.7
Mode: 0
LetterboxInBreaks: 0
WidescreenStoryboard: 1

[Editor]
Bookmarks: 65952
DistanceSpacing: 1.2
BeatDivisor: 4
GridSize: 4
TimelineZoom: 1.5

[Metadata]
Title:Stargazer (DJ Shimamura Remix)
TitleUnicode:Stargazer (DJ Shimamura Remix)
Artist:P*Light feat. yukacco
ArtistUnicode:P*Light feat. yukacco
Creator:Mishima Yurara
Version:Momoko's Hard
Source:
Tags:edm SKETCH UP! Recordings dance music M_o_k_o_r_i mokori drum and bass asahina momoko dnb SkinnyJommy RLC ProfessionalBox VINXIS
BeatmapID:703011
BeatmapSetID:313831

[Difficulty]
HPDrainRate:6
CircleSize:4
OverallDifficulty:6
ApproachRate:7.5
SliderMultiplier:1.5
SliderTickRate:1

[Events]
//Background and Video events
0,0,"weiner.jpg",0,0
//Break Periods
//Storyboard Layer 0 (Background)
//Storyboard Layer 1 (Fail)
//Storyboard Layer 2 (Pass)
//Storyboard Layer 3 (Foreground)
//Storyboard Sound Samples

[TimingPoints]
124,342.857142857143,4,2,0,50,1,0
11095,-125,4,2,0,50,0,0
33038,-100,4,2,0,50,0,0
65952,-100,4,2,1,60,0,1
86524,-100,4,2,1,50,0,0
87895,-100,4,2,1,60,0,1
109838,-100,4,2,1,50,0,0

[Colours]
Combo1 : 255,94,94
Combo2 : 23,180,255
Combo3 : 202,0,101
Combo4 : 196,255,255

[HitObjects]
152,87,10752,5,0,0:0:0:0:
152,87,11095,2,0,P|220:128|276:108,1,120,2|0,0:0|0:0,0:0:0:0:
380,44,11781,1,0,0:0:0:0:
380,44,12295,2,0,L|368:249,1,180,2|0,0:0|0:0,0:0:0:0:
369,223,13495,1,2,0:0:0:0:
238,193,13838,6,0,B|200:160|156:166|156:166|121:193,1,120,2|0,0:0|0:0,0:0:0:0:
232,289,14524,2,0,P|318:248|323:154,1,180,0|2,0:0|0:0,0:0:0:0:
272,100,16238,1,0,0:0:0:0:
212,227,16581,6,0,L|354:244,2,120,2|0|2,0:0|0:0|0:0,0:0:0:0:
41,285,17781,2,0,B|15:221|15:221|41:89,1,180
36,112,18981,1,0,0:0:0:0:
160,184,19324,6,0,P|181:128|174:69,2,120,2|0|0,0:0|0:0|0:0,0:0:0:0:
95,312,20352,2,0,B|147:347|213:315|213:315|274:287|333:327,1,240
385,104,21552,2,0,L|450:97,2,60
307,145,22066,5,2,0:0:0:0:
157,161,22409,2,0,P|87:152|46:92,2,120
220,200,23266,2,0,P|247:265|218:330,2,120,2|0|2,0:0|0:0|0:0,0:0:0:0:
311,56,24295,2,0,P|255:74|223:124,1,120
220,200,24809,6,0,P|177:209|134:203,1,60,2|0,0:0|0:0,0:0:0:0:
86,69,25324,1,0,0:0:0:0:
86,69,25495,2,0,L|80:154,1,60,2|0,0:0|0:0,0:0:0:0:
220,200,26009,1,0,0:0:0:0:
220,200,26181,2,0,L|214:285,2,60,2|0|0,0:0|0:0|0:0,0:0:0:0:
220,200,27209,2,0,L|301:184,1,60
351,187,27552,6,0,P|322:128|254:122,1,120,2|0,0:0|0:0,0:0:0:0:
141,166,28238,2,0,P|146:262|219:198,1,240,2|0,0:0|0:0,0:0:0:0:
208,125,29095,2,0,P|268:191|367:179,1,180
353,187,30124,6,0,L|430:200,2,60,0|2|0,0:0|0:0|0:0,0:0:0:0:
306,93,30638,2,0,P|248:83|208:124,1,120,2|0,0:0|0:0,0:0:0:0:
117,121,31152,2,0,P|114:85|118:41,2,60,0|0|2,0:0|0:0|0:0,0:0:0:0:
165,239,32181,1,0,0:0:0:0:
165,239,32352,2,0,B|294:249|294:249|235:287,1,180
170,317,33038,6,0,P|89:257|148:163,1,225,6|0,0:0|0:0,0:0:0:0:
342,317,34066,2,0,P|423:257|364:163,1,225,0|0,0:0|0:0,0:0:0:0:
204,316,35095,1,0,0:0:0:0:
273,182,35438,1,2,3:0:0:0:
341,317,35781,6,0,P|272:342|204:316,1,150,0|2,0:0|3:0,0:0:0:0:
146,267,36295,1,0,0:0:0:0:
207,50,36809,6,0,P|276:24|344:51,1,150,2|0,3:0|0:0,0:0:0:0:
439,166,37495,1,2,3:0:0:0:
343,50,37838,1,0,0:0:0:0:
297,192,38181,1,2,3:0:0:0:
199,77,38524,6,0,L|118:93,1,75,0|0,0:0|0:0,0:0:0:0:
73,165,38866,1,2,3:0:0:0:
73,165,39038,2,0,L|146:179,1,75,0|0,0:0|0:0,0:0:0:0:
199,252,39381,1,0,0:0:0:0:
199,252,39552,2,0,L|118:268,1,75,2|0,3:0|0:0,0:0:0:0:
73,340,39895,5,0,0:0:0:0:
73,340,40066,2,0,P|100:239|61:184,1,150,0|0,0:0|0:0,0:0:0:0:
22,126,40581,2,0,L|184:133,1,150,0|2,0:0|3:0,0:0:0:0:
263,144,41095,1,0,0:0:0:0:
263,144,41266,6,0,P|297:118|348:110,2,75,0|0|2,0:0|0:0|3:0,0:0:0:0:
332,202,41781,2,0,P|371:218|403:258,2,75,0|0|0,0:0|0:0|0:0,0:0:0:0:
321,291,42295,2,0,P|326:333|307:381,2,75,2|0|0,3:0|0:0|0:0,0:0:0:0:
237,326,42809,2,0,P|202:351|151:360,2,75,0|2|0,0:0|3:0|0:0,0:0:0:0:
242,235,43324,2,0,P|157:170|60:257,1,225,0|0,0:0|0:0,0:0:0:0:
153,267,44009,5,2,0:0:0:0:
153,267,44181,2,0,L|158:360,1,75,0|2,0:0|3:0,0:0:0:0:
242,235,44524,1,0,0:0:0:0:
242,235,44695,2,0,L|247:142,1,75,0|0,0:0|0:0,0:0:0:0:
329,275,45038,1,2,3:0:0:0:
329,275,45209,2,0,L|334:368,1,75,0|0,0:0|0:0,0:0:0:0:
418,243,45552,6,0,L|423:150,1,75,0|2,0:0|3:0,0:0:0:0:
396,81,45895,1,0,0:0:0:0:
310,107,46066,2,0,B|239:76|239:76|269:164,1,150,0|2,0:0|3:0,0:0:0:0:
263,235,46581,1,0,0:0:0:0:
194,292,46752,5,0,0:0:0:0:
194,292,46924,2,0,L|108:279,1,75,0|2,0:0|3:0,0:0:0:0:
263,235,47266,2,0,L|349:248,2,75,0|0|0,0:0|0:0|0:0,0:0:0:0:
181,197,47781,1,2,3:0:0:0:
181,197,47953,2,0,L|194:111,1,75,0|0,0:0|0:0,0:0:0:0:
263,235,48295,2,0,L|250:321,1,75,0|0,0:0|3:0,0:0:0:0:
163,325,48638,1,2,0:0:0:0:
106,255,48809,2,0,P|88:174|127:115,1,150,0|2,0:0|3:0,0:0:0:0:
197,71,49324,1,0,0:0:0:0:
278,107,49495,6,0,P|321:106|364:81,2,75,0|0|2,0:0|0:0|3:0,0:0:0:0:
197,71,50009,1,0,0:0:0:0:
183,160,50181,2,0,L|176:264,1,75,0|0,0:0|0:0,0:0:0:0:
163,323,50524,6,0,P|120:324|77:349,2,75,2|0|0,3:0|0:0|0:0,0:0:0:0:
244,361,51038,2,0,L|251:257,1,75,0|2,0:0|3:0,0:0:0:0:
328,329,51381,1,0,0:0:0:0:
328,329,51552,2,0,P|372:296|464:315,1,150,0|2,0:0|3:0,0:0:0:0:
460,312,52066,1,0,0:0:0:0:
445,223,52238,6,0,P|372:156|293:170,1,150,0|2,0:0|3:0,0:0:0:0:
236,143,52752,2,0,P|330:113|357:37,1,150,0|0,0:0|0:0,0:0:0:0:
412,4,53266,2,0,P|390:100|442:162,1,150,2|0,3:0|0:0,0:0:0:0:
445,223,53781,2,0,L|454:297,2,75,0|2|0,0:0|3:0|0:0,0:0:0:0:
357,221,54295,2,0,P|254:211|363:152,1,300,0|2,0:0|0:0,0:0:0:0:
354,139,55324,5,0,0:0:0:0:
262,294,55667,1,2,0:0:0:0:
173,139,56009,1,0,0:0:0:0:
262,294,56352,2,0,B|154:306|154:306|103:297,2,150,2|0|2,0:0|0:0|0:0,0:0:0:0:
440,266,57381,1,0,0:0:0:0:
447,86,57724,6,0,P|403:52|284:74,1,150,2|0,0:0|0:0,0:0:0:0:
203,198,58409,2,0,L|360:188,1,150,2|0,0:0|0:0,0:0:0:0:
352,188,59095,1,2,0:0:0:0:
474,319,59438,1,0,0:0:0:0:
474,319,59781,2,0,L|324:328,1,150,2|0,0:0|0:0,0:0:0:0:
152,275,60466,5,2,0:0:0:0:
163,171,60809,1,2,0:0:0:0:
253,113,61152,1,2,0:0:0:0:
354,142,61495,1,2,0:0:0:0:
353,142,61838,6,0,P|356:104|348:68,1,75,2|0,0:0|0:0,0:0:0:0:
253,113,62181,2,0,P|226:87|192:70,1,75,2|0,0:0|0:0,0:0:0:0:
163,171,62524,2,0,P|125:175|91:189,1,75,2|0,0:0|0:0,0:0:0:0:
152,274,62866,2,0,P|131:306|120:341,1,75,2|2,0:0|0:0,0:0:0:0:
225,350,63209,5,0,0:0:0:0:
225,350,63381,1,0,0:0:0:0:
282,281,63552,1,0,0:0:0:0:
282,281,63724,1,0,0:0:0:0:
353,335,63895,1,2,0:0:0:0:
353,335,64067,1,2,0:0:0:0:
410,266,64238,1,2,0:0:0:0:
410,266,64410,1,2,0:0:0:0:
482,319,64581,6,0,L|504:365,7,37.5,0|0|0|0|0|0|8|0,0:0|0:0|0:0|0:0|0:0|0:0|0:0|0:0,0:0:0:0:
466,292,65266,6,0,P|428:239|232:325,1,300,0|6,0:0|0:0,0:0:0:0:
237,296,66295,6,0,L|142:279,1,75,8|2,0:0|0:0,0:0:0:0:
82,241,66638,2,0,P|107:174|125:159,1,75,2|2,0:0|0:0,0:0:0:0:
88,82,66981,1,8,0:0:0:0:
88,82,67152,2,0,L|161:95,1,75,0|2,0:0|0:0,0:0:0:0:
250,77,67495,2,0,P|264:47|279:-2,2,75,0|8|0,0:0|0:0|0:0,0:0:0:0:
223,163,68009,2,0,P|302:149|338:74,1,150,0|8,0:0|0:0,0:0:0:0:
426,39,68524,1,0,0:0:0:0:
426,39,68609,1,0,0:0:0:0:
426,39,68695,6,0,L|445:188,1,150,0|8,0:0|0:0,0:0:0:0:
423,275,69209,2,0,P|370:299|335:300,1,75,2|0,0:0|0:0,0:0:0:0:
287,239,69552,1,2,0:0:0:0:
287,239,69724,2,0,P|340:215|375:214,1,75,8|0,0:0|0:0,0:0:0:0:
427,158,70066,1,2,0:0:0:0:
427,158,70238,2,0,L|504:148,2,75,0|8|0,0:0|0:0|0:0,0:0:0:0:
342,125,70752,2,0,L|189:117,1,150,2|8,0:0|0:0,0:0:0:0:
156,200,71266,1,0,0:0:0:0:
156,200,71352,1,0,0:0:0:0:
156,200,71438,6,0,P|150:245|154:299,1,75,2|0,0:0|0:0,0:0:0:0:
238,298,71781,1,8,0:0:0:0:
324,274,71952,1,2,0:0:0:0:
265,206,72124,1,0,0:0:0:0:
98,138,72466,5,8,0:0:0:0:
98,138,72638,2,0,L|23:129,2,75,0|2|0,0:0|0:0|0:0,0:0:0:0:
187,123,73152,2,0,P|258:90|331:108,2,150,8|0|8,0:0|0:0|0:0,0:0:0:0:
154,207,74009,1,0,0:0:0:0:
198,285,74181,6,0,L|210:370,2,75,0|0|8,0:0|0:0|0:0,0:0:0:0:
154,207,74695,1,2,0:0:0:0:
154,207,74866,2,0,P|232:198|290:264,1,150,0|8,0:0|0:0,0:0:0:0:
347,306,75381,2,0,L|439:289,1,75,0|0,0:0|0:0,0:0:0:0:
482,225,75724,1,0,0:0:0:0:
482,225,75895,1,8,0:0:0:0:
491,83,76238,2,0,P|466:152|482:225,1,150,2|8,0:0|0:0,0:0:0:0:
347,306,76924,6,0,B|303:286|303:286|271:303|271:303|232:279|185:290|185:290,1,150,2|8,0:0|0:0,0:0:0:0:
118,296,77438,1,2,0:0:0:0:
118,296,77609,2,0,P|85:264|73:233,1,75,0|2,0:0|0:0,0:0:0:0:
57,135,77952,1,8,0:0:0:0:
57,135,78123,1,0,0:0:0:0:
224,157,78466,1,0,0:0:0:0:
224,157,78638,2,0,P|241:228|218:310,2,150,8|0|8,0:0|0:0|0:0,0:0:0:0:
164,89,79495,1,0,0:0:0:0:
164,89,79581,1,0,0:0:0:0:
164,89,79666,6,0,L|88:81,2,75,0|0|8,0:0|0:0|0:0,0:0:0:0:
236,34,80181,2,0,L|310:41,1,75,2|0,0:0|0:0,0:0:0:0:
396,15,80524,1,2,0:0:0:0:
403,104,80695,1,8,0:0:0:0:
403,104,80866,2,0,P|325:136|304:208,1,150,0|0,0:0|0:0,0:0:0:0:
317,283,81381,1,8,0:0:0:0:
317,283,81552,1,0,0:0:0:0:
303,193,81724,2,0,P|244:147|154:165,1,150,2|8,0:0|0:0,0:0:0:0:
97,203,82238,1,0,0:0:0:0:
97,203,82324,1,0,0:0:0:0:
97,203,82409,6,0,L|120:289,1,75
185,335,82752,1,0,0:0:0:0:
185,335,82924,2,0,B|210:288|210:288|183:177,1,150,2|2,0:0|0:0,0:0:0:0:
182,103,83438,1,8,0:0:0:0:
263,139,83609,2,0,L|348:123,1,75,0|2,0:0|0:0,0:0:0:0:
403,64,83952,1,0,0:0:0:0:
403,64,84124,2,0,P|425:102|423:144,1,75,8|0,0:0|0:0,0:0:0:0:
412,221,84466,1,0,0:0:0:0:
235,269,84809,1,8,0:0:0:0:
316,310,84981,1,0,0:0:0:0:
316,310,85066,1,0,0:0:0:0:
316,310,85152,6,0,P|361:318|392:318,2,75,2|0|2,0:0|0:0|0:0,0:0:0:0:
235,269,85666,2,0,P|172:230|90:262,1,150,0|0,0:0|0:0,0:0:0:0:
159,323,86181,1,0,0:0:0:0:
159,323,86352,2,0,L|188:154,1,150,0|0,0:0|0:0,0:0:0:0:
181,83,86866,2,0,P|145:73|104:74,1,75,0|0,0:0|0:0,0:0:0:0:
107,73,87209,6,0,P|210:152|228:26,1,300,8|2,0:0|0:0,0:0:0:0:
235,32,88238,6,0,P|275:54|312:57,1,75,8|2,0:0|0:0,0:0:0:0:
393,46,88581,1,0,0:0:0:0:
479,22,88752,1,2,0:0:0:0:
448,106,88924,2,0,P|424:158|423:202,1,75,8|0,0:0|0:0,0:0:0:0:
418,264,89266,1,2,0:0:0:0:
331,239,89438,1,0,0:0:0:0:
331,239,89524,1,0,0:0:0:0:
331,239,89609,2,0,L|230:218,1,75,8|0,0:0|0:0,0:0:0:0:
168,293,89952,2,0,L|241:308,1,75,0|2,0:0|0:0,0:0:0:0:
331,239,90295,1,8,0:0:0:0:
284,168,90466,1,0,0:0:0:0:
193,173,90638,6,0,P|156:180|121:167,1,75,0|2,0:0|0:0,0:0:0:0:
74,90,90981,1,8,0:0:0:0:
163,73,91153,1,2,0:0:0:0:
163,73,91324,2,0,P|200:66|235:79,1,75,0|2,0:0|0:0,0:0:0:0:
308,130,91666,2,0,L|398:141,2,75,8|0|2,0:0|0:0|0:0,0:0:0:0:
219,148,92181,1,0,0:0:0:0:
257,234,92352,1,8,0:0:0:0:
346,237,92524,1,0,0:0:0:0:
346,237,92609,1,0,0:0:0:0:
346,237,92695,2,0,P|385:242|425:234,2,75,2|2|8,0:0|0:0|0:0,0:0:0:0:
302,157,93209,1,0,0:0:0:0:
257,234,93381,5,2,0:0:0:0:
257,234,93552,2,0,L|246:340,1,75,0|8,0:0|0:0,0:0:0:0:
185,155,93895,1,0,0:0:0:0:
185,155,94066,2,0,L|174:49,1,75,0|2,0:0|0:0,0:0:0:0:
123,241,94409,1,8,0:0:0:0:
123,241,94580,2,0,L|112:347,1,75,0|2,0:0|0:0,0:0:0:0:
51,162,94924,1,0,0:0:0:0:
115,99,95095,1,8,0:0:0:0:
185,155,95266,1,0,0:0:0:0:
185,155,95352,1,0,0:0:0:0:
185,155,95438,2,0,L|270:140,2,75,0|2|8,0:0|0:0|0:0,0:0:0:0:
160,317,96124,6,0,P|226:345|303:280,1,150,0|8,0:0|0:0,0:0:0:0:
333,230,96638,1,2,0:0:0:0:
407,280,96809,2,0,P|447:285|495:264,1,75,0|2,0:0|0:0,0:0:0:0:
437,194,97152,2,0,P|388:134|309:122,1,150,8|2,0:0|0:0,0:0:0:0:
234,148,97666,1,2,0:0:0:0:
169,85,97838,2,0,P|165:61|169:6,2,75,10|2|2,0:0|0:0|0:0,0:0:0:0:
147,172,98352,1,2,0:0:0:0:
212,234,98524,1,10,0:0:0:0:
299,212,98695,1,2,0:0:0:0:
322,125,98866,6,0,P|370:86|469:114,1,150,2|8,0:0|0:0,0:0:0:0:
399,174,99381,2,0,L|393:260,1,75,2|0,0:0|0:0,0:0:0:0:
285,188,99724,1,2,0:0:0:0:
285,188,99895,2,0,L|279:274,1,75,8|0,0:0|0:0,0:0:0:0:
170,203,100238,1,2,0:0:0:0:
170,203,100409,2,0,L|164:289,1,75,0|8,0:0|0:0,0:0:0:0:
124,358,100752,1,0,0:0:0:0:
124,358,100838,1,0,0:0:0:0:
124,358,100924,2,0,P|194:326|283:367,1,150,0|8,0:0|0:0,0:0:0:0:
347,322,101438,1,0,0:0:0:0:
414,263,101609,6,0,L|493:278,2,75,0|2|8,0:0|0:0|0:0,0:0:0:0:
341,208,102124,1,2,0:0:0:0:
341,208,102295,2,0,L|267:194,1,75,0|2,0:0|0:0,0:0:0:0:
179,213,102638,1,8,0:0:0:0:
179,213,102809,2,0,P|186:153|284:104,1,150,0|0,0:0|0:0,0:0:0:0:
267,194,103324,2,0,P|260:254|162:303,1,150,8|2,0:0|0:0,0:0:0:0:
101,289,103838,1,2,0:0:0:0:
101,289,104009,2,0,L|89:195,1,75,8|0,0:0|0:0,0:0:0:0:
48,135,104352,5,2,0:0:0:0:
124,87,104524,2,0,P|171:79|201:89,1,75,0|8,0:0|0:0,0:0:0:0:
158,167,104866,1,2,0:0:0:0:
248,164,105038,2,0,P|292:180|313:204,1,75,0|2,0:0|0:0,0:0:0:0:
239,255,105381,1,8,0:0:0:0:
318,297,105553,2,0,P|348:333|354:364,1,75,0|2,0:0|0:0,0:0:0:0:
265,370,105895,2,0,L|176:363,2,75,0|8|0,0:0|0:0|0:0,0:0:0:0:
318,297,106409,2,0,P|337:238|317:138,1,150,0|8,0:0|0:0,0:0:0:0:
169,59,107095,6,0,P|172:126|126:197,1,150,2|8,0:0|0:0,0:0:0:0:
59,251,107609,2,0,P|115:214|200:219,1,150,2|8,0:0|0:0,0:0:0:0:
282,244,108124,2,0,P|222:213|183:137,1,150,2|0,0:0|0:0,0:0:0:0:
256,192,108552,12,2,109838,0:0:0:0:
391,98,111038,5,0,0:0:0:0:
391,98,111209,2,0,P|412:130|421:173,1,75
331,168,111552,2,0,P|323:206|299:242,1,75,0|0,0:0|0:0,0:0:0:0:
240,173,111895,2,0,P|207:194|164:203,1,75,0|2,0:0|0:0,0:0:0:0:
170,113,112238,1,8,0:0:0:0:
170,113,112581,6,0,P|241:80|309:111,2,150,0|8|0,0:0|0:0|0:0,0:0:0:0:
136,196,113438,1,2,0:0:0:0:
136,196,113609,2,0,L|129:288,1,75,8|0,0:0|0:0,0:0:0:0:
83,347,113952,2,0,P|150:307|239:334,1,150,2|8,0:0|0:0,0:0:0:0:
304,345,114466,1,0,0:0:0:0:
304,345,114638,2,0,L|297:253,1,75,2|2,0:0|0:0,0:0:0:0:
322,183,114981,1,8,0:0:0:0:
322,183,115324,6,0,L|473:173,2,150,2|8|0,0:0|0:0|0:0,0:0:0:0:
245,134,116181,2,0,L|151:141,1,75,2|8,0:0|0:0,0:0:0:0:
127,219,116524,1,0,0:0:0:0:
127,219,116695,2,0,L|33:226,2,75,2|0|8,0:0|0:0|0:0,0:0:0:0:
169,298,117209,1,0,0:0:0:0:
169,298,117381,2,0,P|214:239|176:146,1,150,0|8,0:0|0:0,0:0:0:0:
64,50,118066,6,0,B|106:35|106:35|221:54,1,150,0|8,0:0|0:0,0:0:0:0:
286,100,118581,1,2,0:0:0:0:
374,86,118752,2,0,P|359:48|328:22,1,75,0|2,0:0|0:0,0:0:0:0:
286,100,119095,2,0,L|298:249,1,150,8|2,0:0|0:0,0:0:0:0:
246,323,119609,2,0,P|219:297|206:262,1,75,0|8,0:0|0:0,0:0:0:0:
209,172,119952,2,0,L|129:186,1,75,0|2,0:0|0:0,0:0:0:0:
46,200,120295,1,2,0:0:0:0:
96,274,120466,1,8,0:0:0:0:
186,280,120638,1,0,0:0:0:0:
262,233,120809,6,0,P|342:212|418:228,1,150,2|8,0:0|0:0,0:0:0:0:
484,271,121324,1,2,0:0:0:0:
484,271,121495,2,0,L|473:186,1,75,0|2,0:0|0:0,0:0:0:0:
376,104,121838,1,8,0:0:0:0:
376,104,122009,2,0,L|365:189,1,75,0|2,0:0|0:0,0:0:0:0:
358,268,122352,2,0,P|378:304|389:359,2,75,0|8|0,0:0|0:0|0:0,0:0:0:0:
290,208,122866,1,0,0:0:0:0:
290,208,123038,2,0,B|257:185|214:185,2,75,2|8|0,0:0|0:0|0:0,0:0:0:0:
358,267,123552,6,0,P|370:168|337:98,1,150,0|8,0:0|0:0,0:0:0:0:
338,33,124066,1,2,0:0:0:0:
422,63,124238,2,0,L|501:49,2,75,0|2|8,0:0|0:0|0:0,0:0:0:0:
353,122,124752,1,0,0:0:0:0:
266,94,124924,2,0,B|226:96|194:73|194:73|169:112|121:118,2,150,2|8|2,0:0|0:0|0:0,0:0:0:0:
353,122,125781,1,2,0:0:0:0:
353,122,125952,2,0,L|358:224,1,75,8|0,0:0|0:0,0:0:0:0:
429,250,126295,6,0,P|361:285|277:238,1,150,2|2,0:0|0:0,0:0:0:0:
223,95,126981,1,2,0:0:0:0:
88,214,127324,1,2,0:0:0:0:
88,214,127666,2,0,P|156:179|240:226,1,150,2|2,0:0|0:0,0:0:0:0:
351,327,128352,1,2,0:0:0:0:
439,170,128695,1,2,0:0:0:0:
381,101,128866,1,2,0:0:0:0:
296,133,129038,6,0,P|254:133|212:145,2,75,2|2|2,0:0|0:0|0:0,0:0:0:0:
355,201,129552,1,2,0:0:0:0:
412,272,129724,2,0,P|454:272|496:260,2,75,2|0|2,0:0|0:0|0:0,0:0:0:0:
326,303,130238,1,2,0:0:0:0:
326,303,131095,2,0,P|248:230|310:108,1,225,0|0,0:0|0:0,0:0:0:0:
341,86,131781,5,6,0:0:0:0:
256,192,131866,12,0,135724,0:0:0:0:
319,226,136409,5,0,0:0:0:0:
292,140,136581,2,0,P|327:126|379:129,2,75,0|0|0,0:0|0:0|0:0,0:0:0:0:
234,209,137095,1,0,0:0:0:0:
256,192,137266,12,0,140009,0:0:0:0:
