osu file format v14

[General]
AudioFilename: audio.mp3
AudioLeadIn: 0
PreviewTime: 34103
Countdown: 1
SampleSet: Normal
StackLeniency: 0.7
Mode: 0
LetterboxInBreaks: 0
WidescreenStoryboard: 0

[Editor]
DistanceSpacing: 1.3
BeatDivisor: 4
GridSize: 4
TimelineZoom: 1.7

[Metadata]
Title:OVERDRIVERS
TitleUnicode:OVERDRIVERS
Artist:P*Light feat. mow*2
ArtistUnicode:P*Light feat. mow*2
Creator:Kuuma
Version:INFINITE
Source:SOUND VOLTEX II -infinite infection-
Tags:SDVX
BeatmapID:942643
BeatmapSetID:437837

[Difficulty]
HPDrainRate:6
CircleSize:4
OverallDifficulty:8
ApproachRate:9.6
SliderMultiplier:2
SliderTickRate:1

[Events]
//Background and Video events
0,0,"stretched-3010.jpg",0,0
//Break Periods
//Storyboard Layer 0 (Background)
//Storyboard Layer 1 (Fail)
//Storyboard Layer 2 (Pass)
//Storyboard Layer 3 (Foreground)
//Storyboard Sound Samples

[TimingPoints]
290,338.983050847458,4,1,0,75,1,0
2323,-133.333333333333,4,1,0,75,0,0
2662,-100,4,1,0,75,0,0
3001,-100,4,1,0,75,0,0
7069,-66.6666666666667,4,1,0,75,0,0
7578,-50,4,1,0,75,0,0
8086,-100,4,1,0,75,0,0
10798,-133.333333333333,4,1,0,75,0,0
11137,-100,4,1,0,75,0,0
11561,-100,4,1,0,75,0,0
12323,-100,4,1,0,75,0,0
12662,-50,4,1,0,75,0,0
13849,-200,4,1,0,75,0,0
15205,-100,4,1,0,75,0,0
16222,-50,4,1,0,75,0,0
16561,-100,4,1,0,75,0,0
19951,-200,4,1,0,75,0,0
20290,-100,4,1,0,75,0,0
21306,-200,4,1,0,75,0,0
21645,-100,4,1,0,75,0,0
23510,-200,4,1,0,75,0,0
24357,-100,4,1,0,75,0,0
26052,-50,4,1,0,75,0,0
30120,-100,4,1,0,75,0,0
35205,-50,4,1,0,75,0,0
35544,-100,4,1,0,75,0,1
39442,-200,4,1,0,75,0,1
40967,-100,4,1,0,75,0,1
44866,-200,4,1,0,75,0,1
45713,-100,4,1,0,75,0,1
48595,-100,4,1,0,75,0,1
54527,-60.6060606060606,4,1,0,75,0,1
56900,-50,4,1,0,75,0,1
57239,-100,4,1,0,75,0,0
59951,-50,4,1,0,75,0,0
61815,-200,4,1,0,75,0,0
62662,-100,4,1,0,75,0,0
67747,-50,4,1,0,75,0,0
68086,-100,4,1,0,75,0,0
73510,-200,4,1,0,75,0,0
76222,-100,4,1,0,75,0,0
79951,-50,4,1,0,75,0,0
85713,-100,4,1,0,75,0,0
86730,-200,4,1,0,75,0,0
89442,-50,4,1,0,75,0,0
89781,-100,4,1,0,75,0,1
98595,-50,4,1,0,75,0,0
100628,-100,4,1,0,75,0,1
104696,-66.6666666666667,4,1,0,75,0,1
105205,-50,4,1,0,75,0,1
105713,-100,4,1,0,75,0,1
106052,-100,4,1,0,75,0,0
108764,-100,4,1,0,75,0,1
110290,-50,4,1,0,75,0,1
112832,-50,4,1,0,75,0,0

[Colours]
Combo1 : 254,227,220
Combo2 : 156,51,202
Combo3 : 239,226,250
Combo4 : 70,16,90

[HitObjects]
96,174,290,6,0,P|67:175|38:199,2,50
108,96,544,2,0,P|156:116|176:160,1,100
49,185,798,1,0,0:0:0:0:
340,192,967,5,0,0:0:0:0:
340,192,1051,1,0,0:0:0:0:
340,192,1136,1,0,0:0:0:0:
340,192,1222,2,0,P|292:212|236:192,1,100
175,157,1476,1,0,0:0:0:0:
104,312,1645,6,0,L|208:284,1,100
248,296,1900,2,0,L|364:314,1,100
388,340,2154,1,0,0:0:0:0:
388,224,2323,6,0,L|440:200,1,37.5000014305115
348,40,2493,2,0,L|320:88,1,37.5000014305115
256,192,2662,6,0,B|256:232|256:232|260:244|260:244|256:256|256:280|248:292|252:308|252:308|256:320|256:320|256:340,1,150
192,24,3001,6,0,P|144:52|132:100,1,100
152,136,3256,2,0,P|196:169|245:161,1,100
276,124,3510,2,0,P|268:68|229:39,1,100
192,24,3764,1,0,0:0:0:0:
164,40,3849,1,0,0:0:0:0:
144,60,3934,1,0,0:0:0:0:
136,92,4018,1,0,0:0:0:0:
136,124,4103,1,0,0:0:0:0:
148,156,4188,1,0,0:0:0:0:
168,184,4273,1,0,0:0:0:0:
192,208,4357,6,0,P|240:220|296:216,1,100
468,252,4612,2,0,P|412:244|360:256,1,100
248,312,4866,2,0,P|296:324|352:320,1,100
468,252,5120,1,0,0:0:0:0:
468,252,5205,1,0,0:0:0:0:
468,252,5290,1,0,0:0:0:0:
288,212,5374,2,0,L|288:156,1,50
346,271,5544,2,0,L|346:327,1,50
248,312,5713,6,0,P|296:328|348:328,1,100
462,349,5967,2,0,P|456:291|476:236,1,100
512,164,6222,2,0,P|503:113|479:66,1,100
448,52,6476,1,0,0:0:0:0:
408,48,6561,1,0,0:0:0:0:
368,60,6645,1,0,0:0:0:0:
336,84,6730,2,0,P|300:116|240:128,1,100
128,264,7069,6,0,B|120:316|184:360|184:360|164:312,1,150.000005722046
171,330,7578,6,0,B|216:328|216:328|252:332|280:336|280:336|320:324|320:324|352:336|384:324,1,200
367,328,7917,1,0,0:0:0:0:
367,328,8086,6,0,L|367:296,4,25
352,48,8425,6,0,P|304:76|292:124,1,100
312,160,8679,2,0,P|356:193|405:185,1,100
436,148,8934,2,0,P|428:92|389:63,1,100
312,160,9188,2,0,L|312:104,1,50
176,48,9357,2,0,L|176:104,1,50
176,124,9527,1,0,0:0:0:0:
176,148,9612,1,0,0:0:0:0:
176,172,9696,1,0,0:0:0:0:
176,196,9781,6,0,P|164:248|172:304,1,100
44,340,10035,2,0,P|48:290|36:242,1,100
80,108,10290,2,0,P|124:84|176:96,1,100
192,108,10544,1,0,0:0:0:0:
216,140,10628,1,0,0:0:0:0:
220,180,10713,1,0,0:0:0:0:
160,276,10798,2,0,L|124:296,1,37.5000014305115
288,316,10967,2,0,L|328:296,1,37.5000014305115
416,264,11137,5,0,0:0:0:0:
452,244,11222,1,0,0:0:0:0:
480,216,11306,1,0,0:0:0:0:
496,176,11391,1,0,0:0:0:0:
500,140,11476,1,0,0:0:0:0:
492,100,11561,1,0,0:0:0:0:
460,76,11645,2,0,P|432:104|404:124,1,50
231,139,11815,2,0,P|252:156|283:167,1,50
488,132,11985,2,0,P|464:136|440:128,1,50
264,92,12154,2,0,P|276:120|308:144,1,50
480,204,12323,2,0,P|464:200|452:196,4,25
180,280,12662,6,0,B|164:260|164:260|144:228|120:204|120:204|116:172|108:140|108:140|72:120|72:120,1,200
424,112,13001,2,0,B|396:124|396:124|392:152|384:172|340:184|340:184|340:228|340:228|332:272,1,200
256,352,13340,1,0,0:0:0:0:
256,192,13510,2,0,L|256:244,4,50
20,113,13849,6,0,B|52:121|52:121|79:111|79:111|103:119|103:119|139:119|159:103|159:103|179:107|179:107|199:119|199:119|235:103|267:115|267:115|291:103|291:103|319:99|319:99|347:115|347:115|371:115,1,350
88,312,15205,6,0,B|122:301|134:261|134:261|162:269,1,100
332,264,15544,1,0,0:0:0:0:
350,115,15713,2,0,B|315:104|303:64|303:64|275:72,1,100
136,152,16052,1,0,0:0:0:0:
88,312,16222,6,0,B|136:320|136:320|188:304|188:304|244:320|244:320|288:312,1,200
404,192,16561,6,0,P|412:144|396:84,1,100
136,152,16900,1,0,0:0:0:0:
352,312,17069,1,0,0:0:0:0:
276,71,17239,1,0,0:0:0:0:
156,288,17408,1,0,0:0:0:0:
404,192,17578,1,0,0:0:0:0:
136,152,17747,1,0,0:0:0:0:
404,192,17917,6,0,P|438:226|496:249,1,100
276,71,18256,1,0,0:0:0:0:
136,152,18425,1,0,0:0:0:0:
404,192,18595,1,0,0:0:0:0:
129,186,18764,2,0,L|80:200,1,50
398,151,18934,2,0,L|464:132,1,50
133,223,19103,1,0,0:0:0:0:
324,76,19273,6,0,L|344:40,1,25
233,59,19442,2,0,L|240:18,1,25
152,104,19612,2,0,L|144:63,1,25
129,186,19781,2,0,L|92:172,1,25
154,269,19951,6,0,L|144:284,1,12.5
187,298,20035,2,0,L|182:316,1,12.5
228,316,20120,2,0,L|229:334,1,12.5
272,318,20205,2,0,L|279:334,1,12.5
314,304,20290,6,0,P|368:296|432:312,1,100
129,186,20628,6,0,L|88:176,1,25
383,198,20798,6,0,L|424:208,1,25
129,198,20967,6,0,L|88:208,1,25
383,186,21137,6,0,L|424:176,1,25
240,80,21306,2,0,L|240:64,1,12.5
204,100,21391,2,0,L|204:120,1,12.5
168,80,21476,2,0,L|168:64,1,12.5
132,100,21561,2,0,L|132:120,1,12.5
96,80,21645,6,0,B|84:92|84:92|64:76|64:76|36:88|36:88|4:80,1,100
132,212,21984,6,0,P|124:268|144:328,1,100
368,264,22323,1,0,0:0:0:0:
96,212,22493,1,0,0:0:0:0:
264,264,22662,1,0,0:0:0:0:
96,308,22832,1,0,0:0:0:0:
368,264,23001,1,0,0:0:0:0:
80,73,23171,6,0,B|124:104|124:104|148:144,1,100
312,160,23510,6,0,B|240:116|240:116|196:44,1,150
188,316,24357,6,0,L|224:364,1,50
254,264,24527,2,0,L|224:224,1,50
124,92,24696,5,0,0:0:0:0:
368,92,24866,1,0,0:0:0:0:
188,172,25035,1,0,0:0:0:0:
432,172,25205,1,0,0:0:0:0:
124,256,25374,1,0,0:0:0:0:
368,256,25544,1,0,0:0:0:0:
56,176,25713,1,0,0:0:0:0:
300,176,25883,1,0,0:0:0:0:
168,212,26052,6,0,B|132:260|124:308|156:356|156:356|172:308,1,200
300,176,26391,2,0,B|336:240|264:272|320:328|320:328|320:368,1,200
432,216,26730,2,0,B|468:264|476:312|444:360|444:360|428:312,1,200
184,108,27069,5,0,0:0:0:0:
156,280,27239,1,0,0:0:0:0:
308,208,27408,1,0,0:0:0:0:
96,172,27578,1,0,0:0:0:0:
260,312,27748,1,0,0:0:0:0:
292,104,27917,1,0,0:0:0:0:
132,312,28086,1,0,0:0:0:0:
348,208,28256,1,0,0:0:0:0:
176,80,28425,1,0,0:0:0:0:
272,340,28595,1,0,0:0:0:0:
412,84,28764,6,0,B|360:72|304:68|260:80|260:80|300:112,1,200
348,208,29103,2,0,B|404:232|452:232|500:224|500:224|469:192,1,200
296,109,29442,2,0,B|299:156|299:156|260:131|225:88|198:43,1,200
221,228,29781,2,0,B|217:180|217:180|256:205|291:248|318:293,1,200
176,248,30120,6,0,L|222:228,1,50
148,152,30289,2,0,L|103:173,1,50
168,232,30459,2,0,L|224:204,1,50
140,124,30628,2,0,L|95:145,1,50
156,208,30798,5,0,0:0:0:0:
196,208,30883,1,0,0:0:0:0:
236,208,30967,1,0,0:0:0:0:
276,208,31052,1,0,0:0:0:0:
316,208,31137,1,0,0:0:0:0:
356,208,31222,1,0,0:0:0:0:
396,208,31306,1,0,0:0:0:0:
436,208,31391,1,0,0:0:0:0:
476,208,31476,6,0,L|476:268,1,50
392,64,31645,2,0,L|392:120,1,50
316,208,31815,2,0,L|316:264,1,50
232,64,31984,2,0,L|232:120,1,50
316,208,32154,6,0,L|316:264,1,50
424,352,32323,2,0,L|424:284,1,50
208,352,32493,2,0,L|208:284,1,50
316,208,32662,6,0,L|316:264,1,50
316,344,32832,1,0,0:0:0:0:
168,180,33001,2,0,L|168:120,1,50
168,44,33171,1,0,0:0:0:0:
336,116,33340,2,0,L|400:116,1,50
472,116,33510,1,0,0:0:0:0:
252,296,33679,2,0,L|196:296,1,50
112,296,33849,1,0,0:0:0:0:
36,152,34018,2,0,L|100:152,1,50
172,152,34188,5,0,0:0:0:0:
172,152,34357,1,0,0:0:0:0:
172,152,34527,1,0,0:0:0:0:
172,152,35205,6,0,B|217:150|217:150|253:154|281:158|281:158|321:146|321:146|353:158|385:146,1,200
172,152,35544,6,0,P|164:208|176:252,1,100
368,150,35883,1,0,0:0:0:0:
136,68,36052,1,0,0:0:0:0:
292,104,36222,1,0,0:0:0:0:
88,204,36391,1,0,0:0:0:0:
368,150,36561,1,0,0:0:0:0:
164,156,36730,1,0,0:0:0:0:
340,276,36900,6,0,B|392:288|392:288|444:276,1,100
208,336,37239,1,0,0:0:0:0:
440,216,37408,1,0,0:0:0:0:
236,248,37578,1,0,0:0:0:0:
440,312,37747,1,0,0:0:0:0:
160,192,37917,2,0,P|104:200|56:188,1,100
348,128,38256,2,0,P|340:188|352:236,1,100
96,284,38595,6,0,B|128:292|128:292|164:280|164:280|204:288,1,100
160,192,38934,1,0,0:0:0:0:
344,208,39103,2,0,B|308:204|308:204|280:216|280:216|244:208,1,100
444,88,39442,6,0,L|440:72,1,12.5
464,200,39781,2,0,L|460:184,1,12.5
484,312,40120,2,0,L|480:296,1,12.5
204,280,40290,5,8,0:0:0:0:
296,112,40459,5,8,0:0:0:0:
116,112,40628,5,8,0:0:0:0:
380,264,40798,5,8,0:0:0:0:
203,279,40967,6,0,P|154:270|106:282,1,100
203,279,41306,1,0,0:0:0:0:
121,47,41475,1,0,0:0:0:0:
157,203,41645,1,0,0:0:0:0:
257,0,41814,1,0,0:0:0:0:
203,279,41984,1,0,0:0:0:0:
209,75,42153,1,0,0:0:0:0:
329,251,42323,6,0,B|341:303|341:303|329:355,1,100
208,336,42662,1,0,0:0:0:0:
440,216,42831,1,0,0:0:0:0:
236,248,43001,1,0,0:0:0:0:
440,312,43170,1,0,0:0:0:0:
268,154,43340,2,0,P|324:162|372:150,1,100
80,90,43679,2,0,P|88:150|76:198,1,100
332,246,44018,6,0,B|300:254|300:254|264:242|264:242|224:250,1,100
268,154,44357,1,0,0:0:0:0:
84,170,44526,2,0,B|120:166|120:166|148:178|148:178|184:170,1,100
428,240,44866,6,0,L|444:236,1,12.5
316,260,45204,2,0,L|332:256,1,12.5
204,280,45543,2,0,L|219:276,1,12.5
392,144,45713,5,8,0:0:0:0:
104,260,45883,1,8,0:0:0:0:
420,244,46052,1,8,0:0:0:0:
124,148,46222,1,8,0:0:0:0:
356,300,46391,6,0,P|336:248|348:200,1,100
256,192,46645,12,0,47747,0:0:0:0:
148,112,47917,6,0,L|96:112,1,50
16,112,48086,1,0,0:0:0:0:
56,196,48256,6,0,L|56:248,1,50
56,328,48425,1,0,0:0:0:0:
224,284,48595,2,0,P|216:302|191:301,1,25
268,280,48679,2,0,P|260:298|235:297,1,25
312,264,48764,2,0,P|304:282|279:281,1,25
348,236,48849,2,0,P|340:254|315:253,1,25
372,196,48934,2,0,P|364:214|339:213,1,25
384,152,49018,2,0,P|376:170|351:169,1,25
388,108,49103,1,0,0:0:0:0:
256,192,49145,12,0,50459,0:0:0:0:
364,272,50628,6,0,L|416:272,1,50
496,272,50797,1,0,0:0:0:0:
456,188,50967,6,0,L|456:136,1,50
455,39,51137,2,0,B|447:79|447:79|459:111|455:159,1,100
368,240,51476,6,0,P|360:268|340:292,1,50
228,310,51645,2,0,P|199:307|172:292,1,50
134,185,51815,5,0,0:0:0:0:
260,48,51984,2,0,L|260:104,1,50
260,188,52154,1,0,0:0:0:0:
344,216,52323,2,0,L|400:216,1,50
484,216,52493,1,0,0:0:0:0:
340,120,52662,2,0,L|284:119,1,50
200,120,52832,1,0,0:0:0:0:
44,284,53001,5,0,0:0:0:0:
72,304,53086,1,0,0:0:0:0:
108,308,53171,1,0,0:0:0:0:
144,300,53256,1,0,0:0:0:0:
172,284,53340,1,0,0:0:0:0:
192,260,53425,1,0,0:0:0:0:
220,240,53510,1,0,0:0:0:0:
256,236,53595,1,0,0:0:0:0:
288,252,53679,5,0,0:0:0:0:
300,284,53764,1,0,0:0:0:0:
292,320,53849,1,0,0:0:0:0:
264,344,53934,1,0,0:0:0:0:
228,344,54018,1,0,0:0:0:0:
200,324,54103,1,0,0:0:0:0:
180,296,54188,6,0,P|188:281|205:277,1,25
171,260,54273,2,0,P|184:249|202:251,1,25
176,220,54357,2,0,P|191:213|207:221,1,25
188,192,54442,2,0,P|204:191|216:204,1,25
208,164,54527,6,0,B|304:196|392:160|424:112|412:72|384:40|336:40|288:100|288:100|256:104|216:92|216:92|184:92|136:128,1,495.000004720688
88,144,55205,6,0,P|38:193|93:253,1,165.000001573563
87,108,55459,6,0,P|26:143|63:214,1,165.000001573563
96,73,55713,6,0,P|28:91|45:170,1,165.000001573563
444,92,56052,1,0,0:0:0:0:
45,169,56391,1,0,0:0:0:0:
444,292,56730,1,0,0:0:0:0:
136,168,56900,6,0,B|181:166|181:166|217:170|245:174|245:174|285:162|285:162|317:174|349:162,1,200
464,168,57239,5,0,0:0:0:0:
488,144,57323,1,0,0:0:0:0:
496,108,57408,1,0,0:0:0:0:
484,76,57493,1,0,0:0:0:0:
456,56,57578,1,0,0:0:0:0:
420,52,57662,1,0,0:0:0:0:
392,76,57747,1,0,0:0:0:0:
384,108,57832,1,0,0:0:0:0:
396,140,57917,5,0,0:0:0:0:
396,140,58001,1,0,0:0:0:0:
396,140,58086,1,0,0:0:0:0:
396,140,58171,1,0,0:0:0:0:
424,160,58256,5,0,0:0:0:0:
456,172,58340,1,0,0:0:0:0:
472,204,58425,1,0,0:0:0:0:
472,240,58510,1,0,0:0:0:0:
456,272,58595,1,0,0:0:0:0:
428,292,58679,1,0,0:0:0:0:
392,292,58764,1,0,0:0:0:0:
360,272,58849,1,0,0:0:0:0:
340,244,58934,1,0,0:0:0:0:
340,208,59018,1,0,0:0:0:0:
364,180,59103,1,0,0:0:0:0:
396,160,59188,21,0,0:0:0:0:
428,172,59273,1,0,0:0:0:0:
468,220,59357,1,0,0:0:0:0:
460,284,59442,1,0,0:0:0:0:
404,316,59527,1,0,0:0:0:0:
340,320,59612,1,0,0:0:0:0:
280,288,59696,1,0,0:0:0:0:
232,240,59781,1,0,0:0:0:0:
164,232,59866,1,0,0:0:0:0:
112,276,59951,6,0,P|24:276|64:208,1,200
142,191,60205,2,0,P|225:194|188:120,1,200
64,48,60459,2,0,B|108:56|108:56|160:52|216:32|216:32|276:40,1,200
492,124,60713,2,0,B|448:132|448:132|396:128|340:108|340:108|280:116,1,200
204,168,60967,2,0,B|216:224|216:224|188:276|216:312|216:312|204:368,1,200
400,308,61306,5,0,0:0:0:0:
400,308,61391,1,0,0:0:0:0:
400,308,61476,1,0,0:0:0:0:
468,228,61645,1,0,0:0:0:0:
496,128,61815,1,0,0:0:0:0:
496,128,62154,6,0,L|456:128,1,25
396,188,62323,2,0,L|364:188,1,25
296,128,62493,2,0,L|256:128,1,25
184,188,62662,5,0,0:0:0:0:
156,208,62747,1,0,0:0:0:0:
120,212,62832,1,0,0:0:0:0:
84,204,62917,1,0,0:0:0:0:
52,188,63001,1,0,0:0:0:0:
32,156,63086,1,0,0:0:0:0:
24,124,63171,1,0,0:0:0:0:
32,88,63256,1,0,0:0:0:0:
52,60,63340,1,0,0:0:0:0:
96,40,63425,1,0,0:0:0:0:
160,52,63510,1,0,0:0:0:0:
192,108,63595,1,0,0:0:0:0:
248,144,63679,1,0,0:0:0:0:
312,148,63764,1,0,0:0:0:0:
368,116,63849,1,0,0:0:0:0:
400,60,63934,1,0,0:0:0:0:
380,32,64018,5,0,0:0:0:0:
348,20,64103,1,0,0:0:0:0:
316,32,64188,1,0,0:0:0:0:
292,60,64273,1,0,0:0:0:0:
288,96,64357,1,0,0:0:0:0:
308,124,64442,1,0,0:0:0:0:
340,136,64527,1,0,0:0:0:0:
376,136,64612,1,0,0:0:0:0:
408,120,64696,2,0,P|432:120|452:140,3,50
368,236,65035,2,0,P|344:236|324:216,3,50
316,184,65374,5,0,0:0:0:0:
292,160,65459,1,0,0:0:0:0:
260,148,65544,1,0,0:0:0:0:
224,140,65628,1,0,0:0:0:0:
188,144,65713,2,0,L|160:160,4,25
104,212,65967,5,0,0:0:0:0:
128,236,66052,1,0,0:0:0:0:
164,244,66137,1,0,0:0:0:0:
196,244,66222,1,0,0:0:0:0:
228,232,66306,1,0,0:0:0:0:
252,204,66391,2,0,L|264:232,1,25
260,168,66476,2,0,L|292:188,1,25
252,132,66561,2,0,L|288:136,1,25
228,108,66645,2,0,L|264:96,1,25
196,92,66730,5,0,0:0:0:0:
180,88,66815,1,0,0:0:0:0:
164,88,66900,1,0,0:0:0:0:
148,92,66984,1,0,0:0:0:0:
132,96,67069,1,0,0:0:0:0:
120,104,67154,1,0,0:0:0:0:
108,112,67239,1,0,0:0:0:0:
100,124,67323,1,0,0:0:0:0:
92,136,67408,1,0,0:0:0:0:
88,148,67493,1,0,0:0:0:0:
84,164,67578,1,0,0:0:0:0:
80,180,67662,1,0,0:0:0:0:
80,196,67747,6,0,P|120:272|232:280,1,200
180,192,68086,5,0,0:0:0:0:
216,192,68171,1,0,0:0:0:0:
252,192,68256,1,0,0:0:0:0:
288,192,68340,1,0,0:0:0:0:
324,192,68425,1,0,0:0:0:0:
360,192,68510,1,0,0:0:0:0:
396,192,68595,1,0,0:0:0:0:
432,192,68679,1,0,0:0:0:0:
384,40,68764,6,0,P|364:56|356:84,3,50
207,230,69103,2,0,P|187:214|179:186,3,50
180,156,69442,5,0,0:0:0:0:
200,128,69527,1,0,0:0:0:0:
228,108,69612,1,0,0:0:0:0:
264,100,69696,1,0,0:0:0:0:
292,104,69781,1,0,0:0:0:0:
324,120,69866,1,0,0:0:0:0:
352,140,69951,1,0,0:0:0:0:
364,172,70035,1,0,0:0:0:0:
364,208,70120,1,0,0:0:0:0:
352,240,70205,1,0,0:0:0:0:
328,264,70290,1,0,0:0:0:0:
296,276,70374,1,0,0:0:0:0:
260,276,70459,1,0,0:0:0:0:
228,260,70544,1,0,0:0:0:0:
204,236,70628,1,0,0:0:0:0:
188,204,70713,1,0,0:0:0:0:
144,88,70798,5,0,0:0:0:0:
144,88,70883,1,0,0:0:0:0:
144,88,70967,2,0,P|169:83|195:95,1,50
128,312,71137,1,0,0:0:0:0:
128,312,71222,1,0,0:0:0:0:
128,312,71306,2,0,P|102:316|76:304,1,50
52,200,71476,2,0,P|68:180|96:173,1,50
248,224,71645,2,0,P|222:223|199:205,1,50
56,146,71815,2,0,P|78:132|107:133,1,50
239,220,71984,2,0,P|215:213|197:190,1,50
176,132,72154,5,0,0:0:0:0:
204,72,72239,1,0,0:0:0:0:
268,60,72323,1,0,0:0:0:0:
328,88,72408,1,0,0:0:0:0:
328,88,72493,1,0,0:0:0:0:
328,88,72578,1,0,0:0:0:0:
328,88,72662,1,0,0:0:0:0:
328,88,72747,1,0,0:0:0:0:
352,116,72832,1,0,0:0:0:0:
368,148,72917,1,0,0:0:0:0:
372,184,73001,1,0,0:0:0:0:
360,216,73086,1,0,0:0:0:0:
336,244,73171,1,0,0:0:0:0:
304,260,73256,1,0,0:0:0:0:
268,260,73340,1,0,0:0:0:0:
236,248,73425,1,0,0:0:0:0:
152,120,73510,6,8,L|152:76,15,25
336,244,74866,2,8,L|361:244,15,25
144,88,76222,5,8,0:0:0:0:
144,88,76307,1,8,0:0:0:0:
144,88,76391,2,8,P|169:83|195:95,1,50
128,312,76561,1,8,0:0:0:0:
128,312,76646,1,8,0:0:0:0:
128,312,76730,2,8,P|102:316|76:304,1,50
205,47,76900,5,8,0:0:0:0:
205,47,76985,1,8,0:0:0:0:
205,47,77069,2,8,P|230:55|247:78,1,50
86,237,77239,1,8,0:0:0:0:
86,237,77324,1,8,0:0:0:0:
86,237,77408,2,8,P|62:230|44:206,1,50
192,108,77578,2,0,P|216:115|233:139,1,50
88,144,77747,2,0,P|63:136|46:112,1,50
192,108,77917,1,4,0:0:0:0:
192,108,78934,5,0,0:0:0:0:
192,108,79951,6,0,B|252:104|252:104|312:116|312:116|356:104|356:104|388:108,1,200
104,220,80290,1,0,0:0:0:0:
95,308,80459,1,0,0:0:0:0:
177,271,80628,1,8,0:0:0:0:
432,172,80798,1,0,2:0:0:0:
434,260,80967,1,0,2:0:0:0:
355,215,81137,1,8,2:0:0:0:
232,56,81645,5,0,0:0:0:0:
224,64,82154,1,0,0:0:0:0:
216,72,82662,2,0,P|92:84|64:144,1,200
64,228,83001,5,8,0:0:0:0:
72,244,83086,1,0,0:0:0:0:
84,260,83171,1,0,0:0:0:0:
100,272,83256,1,0,0:0:0:0:
120,276,83340,1,0,0:0:0:0:
160,276,83425,1,0,0:0:0:0:
192,252,83510,1,0,0:0:0:0:
208,216,83595,1,0,0:0:0:0:
188,160,83679,1,0,0:0:0:0:
132,144,83764,1,0,0:0:0:0:
80,176,83849,1,0,0:0:0:0:
76,236,83934,1,0,0:0:0:0:
124,268,84018,1,0,0:0:0:0:
184,268,84103,1,0,0:0:0:0:
244,252,84188,1,0,0:0:0:0:
304,264,84273,1,0,0:0:0:0:
352,300,84357,5,0,0:0:0:0:
368,196,85374,1,0,0:0:0:0:
368,196,85544,1,0,0:0:0:0:
408,76,85713,6,0,P|440:84|464:112,3,50
444,292,86052,2,0,P|415:307|378:303,3,50
232,184,86391,2,0,P|234:159|247:138,3,50
408,76,86730,2,0,L|383:76,1,25
124,316,86900,2,0,L|149:316,1,25
36,192,87069,5,0,0:0:0:0:
480,192,87578,1,0,0:0:0:0:
256,192,88086,1,0,0:0:0:0:
256,192,88256,1,0,0:0:0:0:
320,144,88425,5,0,0:0:0:0:
192,240,88595,1,0,0:0:0:0:
420,148,88764,1,0,0:0:0:0:
92,236,88934,1,0,0:0:0:0:
476,232,89103,2,0,P|492:244|504:264,1,25
36,152,89273,2,0,P|24:144|16:128,1,25
256,156,89442,2,0,B|252:200|252:200|244:220|244:220|252:248|260:264|260:264|252:280|252:280|260:296|260:296|252:320|252:320|256:364,1,200
404,192,89781,6,0,P|412:144|396:84,1,100
136,152,90120,1,0,0:0:0:0:
404,192,90289,1,0,0:0:0:0:
156,288,90459,1,0,0:0:0:0:
276,71,90628,1,0,0:0:0:0:
352,312,90798,1,0,0:0:0:0:
136,152,90967,1,0,0:0:0:0:
404,192,91137,6,0,P|438:226|496:249,1,100
332,172,91476,2,0,P|285:184|236:223,1,100
392,120,91815,2,0,P|404:100|404:72,1,50
301,44,91984,2,0,P|295:22|275:2,1,50
184,56,92154,2,0,P|164:44|136:44,1,50
108,146,92323,2,0,P|86:152|66:172,1,50
120,263,92493,6,0,P|184:272|240:260,1,100
498,212,92832,1,0,0:0:0:0:
266,130,93001,1,0,0:0:0:0:
422,166,93171,1,0,0:0:0:0:
218,266,93340,1,0,0:0:0:0:
498,212,93510,1,0,0:0:0:0:
266,130,93679,1,0,0:0:0:0:
120,156,93849,6,0,P|96:176|84:208,1,50
115,187,94018,2,0,P|96:212|92:246,1,50
117,219,94188,2,0,P|116:272|136:320,1,100
392,220,94527,1,0,0:0:0:0:
116,188,94696,1,0,0:0:0:0:
392,220,94866,2,0,P|421:176|430:125,1,100
372,32,95205,5,0,0:0:0:0:
340,40,95290,1,0,0:0:0:0:
312,64,95374,1,0,0:0:0:0:
296,96,95459,1,0,0:0:0:0:
296,132,95544,1,0,0:0:0:0:
312,164,95628,1,0,0:0:0:0:
336,188,95713,1,0,0:0:0:0:
368,200,95798,1,0,0:0:0:0:
404,196,95883,1,0,0:0:0:0:
432,176,95967,1,0,0:0:0:0:
448,144,96052,1,0,0:0:0:0:
448,108,96137,1,0,0:0:0:0:
424,84,96222,1,0,0:0:0:0:
392,76,96306,1,0,0:0:0:0:
356,84,96391,1,0,0:0:0:0:
332,108,96476,1,0,0:0:0:0:
320,140,96561,6,0,P|320:168|308:196,1,50
192,244,96730,2,0,P|192:216|204:188,1,50
285,114,96900,2,0,P|299:139|303:169,1,50
226,269,97069,2,0,P|212:244|208:214,1,50
242,110,97239,1,0,0:0:0:0:
242,110,97408,1,0,0:0:0:0:
269,273,97578,1,0,0:0:0:0:
269,273,97747,1,0,0:0:0:0:
108,176,97917,5,0,0:0:0:0:
392,208,98086,1,0,0:0:0:0:
140,285,98256,1,0,0:0:0:0:
363,107,98425,1,0,0:0:0:0:
108,176,98595,6,0,P|76:92|144:124,1,200
392,208,98849,2,0,P|424:292|356:260,1,200
256,192,99103,1,0,0:0:0:0:
256,204,99442,1,0,0:0:0:0:
256,216,99781,1,0,0:0:0:0:
256,224,100120,1,0,0:0:0:0:
256,264,100290,2,0,B|264:180|264:180|244:136|244:136|256:64,1,200
320,24,100628,6,0,P|368:52|380:100,1,100
360,136,100883,2,0,P|316:169|267:161,1,100
236,124,101137,2,0,P|244:68|283:39,1,100
320,24,101391,1,0,0:0:0:0:
348,40,101476,1,0,0:0:0:0:
368,60,101561,1,0,0:0:0:0:
376,92,101645,1,0,0:0:0:0:
376,124,101730,1,0,0:0:0:0:
364,156,101815,1,0,0:0:0:0:
344,184,101900,1,0,0:0:0:0:
320,208,101984,6,0,P|272:220|216:216,1,100
56,144,102239,2,0,P|112:152|164:140,1,100
320,24,102493,2,0,P|268:20|216:28,1,100
112,60,102747,1,0,0:0:0:0:
112,60,102832,1,0,0:0:0:0:
112,60,102917,1,0,0:0:0:0:
276,152,103001,2,0,L|276:96,1,50
56,144,103171,2,0,L|56:200,1,50
248,312,103340,6,0,P|300:320|348:312,1,100
460,216,103595,6,0,P|408:208|360:216,1,100
148,220,103849,6,0,P|197:211|246:218,1,100
280,232,104103,1,0,0:0:0:0:
312,244,104188,1,0,0:0:0:0:
348,240,104273,1,0,0:0:0:0:
380,228,104357,6,0,P|422:196|450:157,1,100
406,92,104696,6,0,B|398:144|462:188|462:188|442:140,1,150.000005722046
288,56,105205,6,0,B|272:63|240:51|240:51|200:63|200:63|172:59|136:55|136:55|91:57,1,200
148,220,105544,1,0,0:0:0:0:
348,240,105713,6,0,L|379:240,4,25
260,128,106052,6,0,P|208:108|192:68,1,100
198,220,106306,2,0,P|207:275|180:309,1,100
309,227,106561,2,0,P|352:192|395:198,1,100
264,40,106815,2,0,L|208:40,1,50
14,131,106984,2,0,L|69:131,1,50
89,132,107154,1,0,0:0:0:0:
113,132,107239,1,0,0:0:0:0:
137,133,107323,1,0,0:0:0:0:
161,133,107408,6,0,P|213:121|269:130,1,100
309,227,107662,6,0,P|358:232|407:221,1,100
468,56,107917,6,0,P|418:50|369:61,1,100
336,72,108171,1,0,0:0:0:0:
304,88,108256,1,0,0:0:0:0:
268,92,108340,1,0,0:0:0:0:
88,56,108425,2,0,P|64:72|48:96,1,50
140,236,108595,2,0,P|163:219|180:195,1,50
200,176,108764,5,0,0:0:0:0:
200,140,108849,1,0,0:0:0:0:
184,108,108934,1,0,0:0:0:0:
152,92,109018,1,0,0:0:0:0:
116,96,109103,1,0,0:0:0:0:
88,116,109188,1,0,0:0:0:0:
68,144,109273,1,0,0:0:0:0:
60,176,109357,1,0,0:0:0:0:
80,224,109442,1,0,0:0:0:0:
136,256,109527,1,0,0:0:0:0:
200,252,109612,1,0,0:0:0:0:
256,224,109696,1,0,0:0:0:0:
276,164,109781,1,0,0:0:0:0:
312,108,109866,1,0,0:0:0:0:
376,88,109951,1,0,0:0:0:0:
432,120,110035,2,0,P|452:140|460:176,1,50
88,112,110290,6,0,B|116:124|116:124|120:152|128:172|172:184|172:184|172:228|172:228|180:272,1,200
348,288,110628,6,0,B|364:260|364:260|362:226|386:202|386:202|390:170|398:138|398:138|434:118|434:118,1,200
256,32,110967,1,0,0:0:0:0:
256,292,111137,2,0,L|256:344,7,50
256,192,111476,12,0,112832,0:0:0:0:
