osu file format v14

[General]
AudioFilename: overdrivers-exh.mp3
AudioLeadIn: 0
PreviewTime: 34199
Countdown: 0
SampleSet: Soft
StackLeniency: 0.7
Mode: 3
LetterboxInBreaks: 0
SpecialStyle: 0
WidescreenStoryboard: 1

[Editor]
DistanceSpacing: 1
BeatDivisor: 4
GridSize: 4
TimelineZoom: 1.6

[Metadata]
Title:OVERDRIVERS
TitleUnicode:OVERDRIVERS
Artist:P*Light feat. mow*2
ArtistUnicode:P*Light feat. mow*2
Creator:ExUsagi
Version:BASIC
Source:SOUND VOLTEX II -infinite infection-
Tags:SDVX 2 Happy Hardcore Lily KONAMI BEMANI
BeatmapID:465238
BeatmapSetID:196172

[Difficulty]
HPDrainRate:6.5
CircleSize:7
OverallDifficulty:5.5
ApproachRate:5
SliderMultiplier:1.4
SliderTickRate:1

[Events]
//Background and Video events
0,0,"overdrivers.jpg",0,0
//Break Periods
//Storyboard Layer 0 (Background)
//Storyboard Layer 1 (Fail)
//Storyboard Layer 2 (Pass)
//Storyboard Layer 3 (Foreground)
//Storyboard Sound Samples

[TimingPoints]
293,338.983050847458,4,2,1,40,1,0
35547,-100,4,2,1,40,0,1
57242,-100,4,2,1,40,0,0
89784,-100,4,2,1,40,0,1
100631,-100,4,2,1,40,0,0

[HitObjects]
402,192,293,5,8,0:0:0:0:
402,192,547,5,0,0:0:0:0:
109,192,801,5,0,0:0:0:0:
475,192,970,5,8,0:0:0:0:
475,192,1225,5,0,0:0:0:0:
36,192,1479,5,0,0:0:0:0:
329,192,1648,5,8,0:0:0:0:
182,192,1903,5,8,0:0:0:0:
329,192,2157,5,8,0:0:0:0:
256,192,2665,128,8,3004:0:0:0:0:
109,192,2665,1,0,0:0:0:0:
402,192,3004,5,4,0:0:0:0:
109,192,3259,5,0,0:0:0:0:
402,192,3513,5,4,0:0:0:0:
329,192,3852,1,4,0:0:0:0:
182,192,4021,1,12,0:0:0:0:
36,192,4191,1,4,0:0:0:0:
475,192,4360,5,4,0:0:0:0:
109,192,4615,5,0,0:0:0:0:
402,192,4869,5,4,0:0:0:0:
109,192,5208,1,4,0:0:0:0:
256,192,5377,1,12,0:0:0:0:
329,192,5547,1,4,0:0:0:0:
475,192,5716,5,4,0:0:0:0:
329,192,5970,5,0,0:0:0:0:
182,192,6225,5,4,0:0:0:0:
36,192,6564,1,4,0:0:0:0:
182,192,6733,1,4,0:0:0:0:
329,192,6903,1,4,0:0:0:0:
475,192,7072,5,12,0:0:0:0:
475,192,7242,5,12,0:0:0:0:
256,192,7581,5,12,0:0:0:0:
36,192,7920,5,12,0:0:0:0:
36,192,8089,5,12,0:0:0:0:
329,192,8428,5,4,0:0:0:0:
36,192,8682,5,4,0:0:0:0:
256,192,8937,5,4,0:0:0:0:
182,192,9276,1,4,0:0:0:0:
109,192,9445,1,4,0:0:0:0:
36,192,9615,1,4,0:0:0:0:
402,192,9784,5,4,0:0:0:0:
109,192,10038,5,4,0:0:0:0:
256,192,10293,5,4,0:0:0:0:
329,192,10631,1,4,0:0:0:0:
402,192,10801,1,4,0:0:0:0:
475,192,10970,1,4,0:0:0:0:
36,192,11140,5,4,0:0:0:0:
182,192,11479,5,4,0:0:0:0:
329,192,11818,5,4,0:0:0:0:
475,192,12157,5,4,0:0:0:0:
256,192,12326,5,0,0:0:0:0:
402,192,12665,5,12,0:0:0:0:
402,192,13004,5,12,0:0:0:0:
109,192,13343,5,12,0:0:0:0:
402,192,13513,128,12,13852:0:0:0:0:
109,192,13852,128,12,15208:0:0:0:0:
256,192,15208,5,2,1:0:0:0:
256,192,15716,5,2,1:0:0:0:
256,192,16225,128,2,16564:1:0:0:0:
475,192,16564,5,2,0:0:0:0:
182,192,16903,5,0,0:0:0:0:
475,192,17242,5,0,0:0:0:0:
182,192,17581,5,0,0:0:0:0:
36,192,17920,5,0,0:0:0:0:
329,192,18259,5,0,0:0:0:0:
36,192,18598,5,0,0:0:0:0:
329,192,18937,5,0,0:0:0:0:
36,192,19276,5,0,0:0:0:0:
182,192,19445,5,0,0:0:0:0:
329,192,19615,5,0,0:0:0:0:
475,192,19784,5,0,0:0:0:0:
109,192,19954,128,0,20293:0:0:0:0:
402,192,20293,5,0,0:0:0:0:
475,192,20631,5,0,0:0:0:0:
329,192,20801,5,0,0:0:0:0:
182,192,20970,5,0,0:0:0:0:
36,192,21140,5,0,0:0:0:0:
402,192,21309,128,0,21648:0:0:0:0:
256,192,21648,128,0,21987:0:0:0:0:
109,192,21987,5,0,0:0:0:0:
402,192,22326,5,0,0:0:0:0:
109,192,22665,5,0,0:0:0:0:
402,192,23004,5,0,0:0:0:0:
475,192,23343,5,0,0:0:0:0:
182,192,23682,5,0,0:0:0:0:
475,192,24021,5,0,0:0:0:0:
182,192,24191,1,0,0:0:0:0:
36,192,24699,128,0,26055:0:0:0:0:
329,192,25038,5,0,0:0:0:0:
475,192,25377,5,0,0:0:0:0:
329,192,25716,5,0,0:0:0:0:
182,192,26055,128,8,26394:0:0:0:0:
329,192,26394,128,8,26733:0:0:0:0:
182,192,26733,128,8,27072:0:0:0:0:
36,192,27072,5,0,0:0:0:0:
475,192,27411,128,0,28767:0:0:0:0:
182,192,27750,5,0,0:0:0:0:
36,192,28089,5,0,0:0:0:0:
182,192,28428,5,0,0:0:0:0:
329,192,28767,128,8,29106:0:0:0:0:
182,192,29106,128,8,29445:0:0:0:0:
329,192,29445,128,8,29784:0:0:0:0:
475,192,29784,5,0,0:0:0:0:
256,192,30123,128,8,30462:0:0:0:0:
256,192,30801,128,8,31140:0:0:0:0:
256,192,31479,128,8,31818:0:0:0:0:
256,192,32157,128,8,32496:0:0:0:0:
109,192,32835,5,0,0:0:0:0:
402,192,33174,5,0,0:0:0:0:
109,192,33513,128,0,33852:0:0:0:0:
402,192,33852,128,0,34191:0:0:0:0:
182,192,34191,5,8,0:0:0:0:
329,192,34360,5,8,0:0:0:0:
182,192,34530,1,8,0:0:0:0:
256,192,35208,128,8,35547:0:0:0:0:
109,192,35547,5,0,0:0:0:0:
402,192,35716,5,4,0:0:0:0:
109,192,36055,5,4,0:0:0:0:
402,192,36394,5,4,0:0:0:0:
109,192,36733,5,4,0:0:0:0:
182,192,37072,1,4,0:0:0:0:
256,192,37411,1,4,0:0:0:0:
329,192,37750,1,4,0:0:0:0:
402,192,38089,1,4,0:0:0:0:
182,192,38428,5,4,0:0:0:0:
329,192,38767,5,4,0:0:0:0:
182,192,39106,5,4,0:0:0:0:
329,192,39445,5,4,0:0:0:0:
475,192,39784,1,4,0:0:0:0:
329,192,40123,1,4,0:0:0:0:
182,192,40462,1,4,0:0:0:0:
36,192,40801,1,4,0:0:0:0:
256,192,40970,5,0,0:0:0:0:
475,192,41140,5,4,0:0:0:0:
109,192,41479,5,4,0:0:0:0:
475,192,41818,5,4,0:0:0:0:
109,192,42157,5,4,0:0:0:0:
36,192,42496,1,4,0:0:0:0:
329,192,42835,1,4,0:0:0:0:
329,192,43174,1,4,0:0:0:0:
329,192,43513,1,4,0:0:0:0:
402,192,43852,5,4,0:0:0:0:
36,192,44191,5,4,0:0:0:0:
402,192,44530,5,4,0:0:0:0:
36,192,44869,5,4,0:0:0:0:
109,192,45208,5,4,0:0:0:0:
182,192,45547,5,4,0:0:0:0:
329,192,45886,5,4,0:0:0:0:
329,192,46225,5,4,0:0:0:0:
256,192,46394,128,0,47581:0:0:0:0:
182,192,47581,5,4,0:0:0:0:
329,192,47920,5,4,0:0:0:0:
182,192,48259,5,4,0:0:0:0:
329,192,48598,128,4,49106:0:0:0:0:
256,192,49106,128,0,50293:0:0:0:0:
402,192,50293,5,4,0:0:0:0:
109,192,50631,5,4,0:0:0:0:
402,192,50970,5,4,0:0:0:0:
109,192,51309,5,4,0:0:0:0:
402,192,51479,128,4,51818:0:0:0:0:
36,192,51818,128,12,54530:0:0:0:0:
402,192,52496,5,4,0:0:0:0:
256,192,53174,5,12,0:0:0:0:
402,192,53852,5,4,0:0:0:0:
329,192,54530,5,4,0:0:0:0:
402,192,54869,5,4,0:0:0:0:
36,192,55208,5,12,0:0:0:0:
475,192,55462,5,12,0:0:0:0:
36,192,55716,5,12,0:0:0:0:
475,192,55886,128,12,56225:0:0:0:0:
256,192,56903,5,8,0:0:0:0:
36,192,57242,128,4,58598:0:0:0:0:
182,192,58598,128,4,59615:0:0:0:0:
475,192,59615,5,4,0:0:0:0:
329,192,59615,5,2,1:0:0:0:
402,192,59954,5,8,0:0:0:0:
256,192,60208,5,8,0:0:0:0:
402,192,60462,5,8,0:0:0:0:
109,192,60716,5,8,0:0:0:0:
256,192,60970,5,8,0:0:0:0:
109,192,61225,5,8,0:0:0:0:
36,192,61648,5,8,0:0:0:0:
475,192,61818,5,8,0:0:0:0:
36,192,62157,128,8,62665:0:0:0:0:
475,192,62665,5,0,0:0:0:0:
329,192,62835,5,4,0:0:0:0:
475,192,63174,5,4,0:0:0:0:
36,192,63513,5,4,0:0:0:0:
329,192,63682,128,0,64021:0:0:0:0:
36,192,64021,5,0,0:0:0:0:
182,192,64191,5,4,0:0:0:0:
36,192,64530,5,4,0:0:0:0:
475,192,64869,5,4,0:0:0:0:
182,192,65038,128,0,65377:0:0:0:0:
402,192,65377,128,0,65716:0:0:0:0:
109,192,65716,128,0,66055:0:0:0:0:
475,192,66055,128,0,66394:0:0:0:0:
36,192,66394,128,0,66733:0:0:0:0:
256,192,66733,128,0,67750:0:0:0:0:
182,192,67750,5,8,0:0:0:0:
329,192,67750,5,8,0:0:0:0:
36,192,68089,5,0,0:0:0:0:
256,192,68259,5,4,0:0:0:0:
256,192,68598,5,4,0:0:0:0:
109,192,68937,5,4,0:0:0:0:
109,192,69276,5,4,0:0:0:0:
329,192,69615,5,4,0:0:0:0:
329,192,69954,5,4,0:0:0:0:
475,192,70293,5,4,0:0:0:0:
475,192,70631,5,4,0:0:0:0:
182,192,70970,5,4,0:0:0:0:
182,192,71309,5,4,0:0:0:0:
36,192,71648,5,4,0:0:0:0:
36,192,71987,5,4,0:0:0:0:
256,192,72326,5,4,0:0:0:0:
256,192,72665,5,4,0:0:0:0:
402,192,73004,5,4,0:0:0:0:
402,192,73343,5,4,0:0:0:0:
475,192,73682,5,4,0:0:0:0:
36,192,74021,5,4,0:0:0:0:
475,192,74360,5,4,0:0:0:0:
36,192,74699,5,4,0:0:0:0:
402,192,75038,5,4,0:0:0:0:
109,192,75377,5,4,0:0:0:0:
402,192,75716,5,4,0:0:0:0:
109,192,76055,5,4,0:0:0:0:
182,192,76394,5,4,0:0:0:0:
329,192,76733,5,4,0:0:0:0:
182,192,77072,5,4,0:0:0:0:
329,192,77411,5,4,0:0:0:0:
36,192,77581,5,12,0:0:0:0:
475,192,77750,5,12,0:0:0:0:
36,192,77920,5,12,0:0:0:0:
329,192,78259,1,4,0:0:0:0:
475,192,78598,128,12,78937:0:0:0:0:
36,192,78937,128,0,79954:0:0:0:0:
402,192,79954,5,0,0:0:0:0:
475,192,80123,5,4,0:0:0:0:
182,192,80293,5,0,0:0:0:0:
36,192,80462,1,0,0:0:0:0:
329,192,80631,5,4,0:0:0:0:
182,192,80801,5,0,0:0:0:0:
36,192,80970,1,0,0:0:0:0:
329,192,81140,5,4,0:0:0:0:
109,192,81648,128,8,82157:0:0:0:0:
402,192,82157,128,8,82665:0:0:0:0:
36,192,82665,128,8,82835:0:0:0:0:
475,192,82835,128,8,83343:0:0:0:0:
182,192,83682,128,0,84021:0:0:0:0:
329,192,84021,128,8,84360:0:0:0:0:
256,192,84360,128,0,85377:0:0:0:0:
109,192,85377,5,0,0:0:0:0:
402,192,85547,5,4,0:0:0:0:
256,192,86055,128,4,86733:0:0:0:0:
36,192,87072,128,8,87581:0:0:0:0:
475,192,87581,128,8,88089:0:0:0:0:
109,192,88089,5,8,0:0:0:0:
402,192,88259,5,8,0:0:0:0:
182,192,88428,5,0,0:0:0:0:
329,192,88598,5,0,0:0:0:0:
182,192,88767,5,0,0:0:0:0:
329,192,88937,5,0,0:0:0:0:
36,192,89106,128,0,89445:0:0:0:0:
475,192,89445,128,8,89784:0:0:0:0:
256,192,89784,5,0,0:0:0:0:
109,192,89954,5,4,0:0:0:0:
256,192,90293,5,4,0:0:0:0:
256,192,90631,5,4,0:0:0:0:
182,192,90801,5,0,0:0:0:0:
109,192,90970,5,4,0:0:0:0:
256,192,91140,5,0,0:0:0:0:
109,192,91309,5,4,0:0:0:0:
256,192,91648,5,4,0:0:0:0:
402,192,91987,5,4,0:0:0:0:
329,192,92157,5,0,0:0:0:0:
256,192,92326,5,4,0:0:0:0:
402,192,92496,5,0,0:0:0:0:
256,192,92665,5,4,0:0:0:0:
109,192,93004,5,4,0:0:0:0:
256,192,93343,5,4,0:0:0:0:
475,192,93513,5,0,0:0:0:0:
36,192,93682,5,4,0:0:0:0:
475,192,93852,5,0,0:0:0:0:
256,192,94021,5,4,0:0:0:0:
402,192,94360,5,4,0:0:0:0:
36,192,94530,5,4,0:0:0:0:
182,192,94699,5,4,0:0:0:0:
329,192,94869,5,4,0:0:0:0:
475,192,95038,5,4,0:0:0:0:
36,192,95208,5,8,0:0:0:0:
329,192,95377,5,4,0:0:0:0:
329,192,95716,5,4,0:0:0:0:
182,192,96055,5,4,0:0:0:0:
182,192,96394,5,4,0:0:0:0:
109,192,96733,5,4,0:0:0:0:
402,192,97072,5,4,0:0:0:0:
402,192,97411,1,4,0:0:0:0:
109,192,97750,1,4,0:0:0:0:
329,192,98089,5,4,0:0:0:0:
182,192,98428,5,4,0:0:0:0:
402,192,98598,5,8,0:0:0:0:
109,192,98852,5,8,0:0:0:0:
402,192,99106,5,8,0:0:0:0:
109,192,99276,128,8,99615:0:0:0:0:
256,192,100293,128,8,100631:0:0:0:0:
329,192,100631,5,4,0:0:0:0:
182,192,100886,5,0,0:0:0:0:
256,192,101140,5,4,0:0:0:0:
329,192,101479,1,4,0:0:0:0:
256,192,101648,1,8,0:0:0:0:
182,192,101818,1,4,0:0:0:0:
402,192,101987,5,4,0:0:0:0:
109,192,102242,5,0,0:0:0:0:
256,192,102496,5,4,0:0:0:0:
109,192,102835,1,4,0:0:0:0:
256,192,103004,1,12,0:0:0:0:
402,192,103174,1,4,0:0:0:0:
475,192,103343,5,4,0:0:0:0:
256,192,103598,5,0,0:0:0:0:
36,192,103852,5,4,0:0:0:0:
109,192,104191,1,4,0:0:0:0:
182,192,104360,1,4,0:0:0:0:
256,192,104530,1,4,0:0:0:0:
402,192,104699,5,12,0:0:0:0:
402,192,104869,5,12,0:0:0:0:
256,192,105208,5,12,0:0:0:0:
109,192,105547,5,12,0:0:0:0:
109,192,105716,5,12,0:0:0:0:
329,192,106055,1,4,0:0:0:0:
475,192,106309,1,0,0:0:0:0:
402,192,106564,1,4,0:0:0:0:
329,192,106903,1,4,0:0:0:0:
256,192,107072,1,4,0:0:0:0:
182,192,107242,1,4,0:0:0:0:
256,192,107411,1,4,0:0:0:0:
36,192,107665,1,0,0:0:0:0:
109,192,107920,1,4,0:0:0:0:
182,192,108259,1,4,0:0:0:0:
256,192,108428,1,4,0:0:0:0:
329,192,108598,1,4,0:0:0:0:
36,192,108767,5,0,0:0:0:0:
182,192,108937,5,0,0:0:0:0:
329,192,109106,5,0,0:0:0:0:
475,192,109276,5,0,0:0:0:0:
109,192,109445,5,0,0:0:0:0:
182,192,109615,5,0,0:0:0:0:
329,192,109784,5,0,0:0:0:0:
402,192,109954,5,0,0:0:0:0:
182,192,110293,5,8,0:0:0:0:
329,192,110631,5,8,0:0:0:0:
256,192,110970,128,8,111479:0:0:0:0:
109,192,111479,5,8,0:0:0:0:
402,192,111479,5,0,0:0:0:0:
