osu file format v14

[General]
AudioFilename: t.mp3
AudioLeadIn: 0
PreviewTime: 54835
Countdown: 0
SampleSet: Soft
StackLeniency: 0.7
Mode: 3
LetterboxInBreaks: 0
SpecialStyle: 0
WidescreenStoryboard: 1

[Editor]
DistanceSpacing: 1.3
BeatDivisor: 4
GridSize: 4
TimelineZoom: 1.4

[Metadata]
Title:Homeneko*Sensation
TitleUnicode:ホメ猫☆センセーション
Artist:P*Light feat. mow*2
ArtistUnicode:P*Light feat. mow*2
Creator:victorica_db
Version:8K Lv.9
Source:SOUND VOLTEX III GRAVITY WARS
Tags:ZUN Team Shanghai Alice ティアオイエツォン(withered leaf) touhou youyoumu 東方妖々夢 ~ Perfect Cherry Blossom Chen BEMANI×東方Project Ultimate MasterPieces なすBeatStream DanceDanceRevolution DDR jubeat prop REFLEC BEAT groovin'!! Upper
BeatmapID:722606
BeatmapSetID:315350

[Difficulty]
HPDrainRate:8
CircleSize:8
OverallDifficulty:8
ApproachRate:5
SliderMultiplier:1.4
SliderTickRate:1

[Events]
//Background and Video events
0,0,"b.jpg",0,0
//Break Periods
//Storyboard Layer 0 (Background)
//Storyboard Layer 1 (Fail)
//Storyboard Layer 2 (Pass)
//Storyboard Layer 3 (Foreground)
//Storyboard Sound Samples

[TimingPoints]
2333,300,4,2,1,23,1,0
55133,-100,4,2,1,30,0,1
64433,-100,4,2,1,30,0,0
64733,-100,4,2,1,30,0,1
73133,-100,4,2,1,30,0,0
76733,-100,4,2,1,30,0,1
85133,-100,4,2,1,30,0,0
95933,-100,4,2,1,30,0,1
106583,-100,4,2,1,30,0,0
107933,-100,4,2,1,30,0,1
117383,-100,4,2,1,30,0,0

[HitObjects]
96,192,2033,5,0,0:0:0:0:
96,192,2333,1,4,0:0:0:0:
32,192,2333,1,0,0:0:0:0:
352,192,2333,1,0,0:0:0:0:
480,192,2333,1,0,0:0:0:0:
288,192,2783,1,0,0:0:0:0:
480,192,3383,1,0,0:0:0:0:
352,192,3533,1,0,0:0:0:0:
224,192,3683,1,0,0:0:0:0:
96,192,3833,1,0,0:0:0:0:
224,192,3983,1,0,0:0:0:0:
352,192,4133,1,0,0:0:0:0:
288,192,4283,1,0,0:0:0:0:
160,192,4583,1,0,0:0:0:0:
416,192,4733,1,0,0:0:0:0:
160,192,5183,1,0,0:0:0:0:
160,192,5333,1,0,0:0:0:0:
480,192,6383,1,0,0:0:0:0:
352,192,6433,1,0,0:0:0:0:
224,192,6483,1,0,0:0:0:0:
96,192,6533,1,0,0:0:0:0:
416,192,6608,1,0,0:0:0:0:
288,192,6758,1,0,0:0:0:0:
160,192,6908,1,0,0:0:0:0:
96,192,7133,1,4,0:0:0:0:
224,192,7133,1,0,0:0:0:0:
32,192,7133,1,0,0:0:0:0:
416,192,7133,1,0,0:0:0:0:
96,192,7433,1,0,0:0:0:0:
96,192,7733,1,0,0:0:0:0:
96,192,8033,1,0,0:0:0:0:
96,192,8183,1,4,0:0:0:0:
32,192,8183,1,0,0:0:0:0:
480,192,8183,1,0,0:0:0:0:
96,192,8333,1,0,0:0:0:0:
96,192,8633,1,0,0:0:0:0:
96,192,8933,1,0,0:0:0:0:
416,192,9083,1,0,0:0:0:0:
96,192,9233,1,0,0:0:0:0:
416,192,9383,1,0,0:0:0:0:
288,192,9533,1,4,0:0:0:0:
32,192,9533,1,0,0:0:0:0:
480,192,9533,1,0,0:0:0:0:
96,192,9533,1,0,0:0:0:0:
32,192,9983,1,4,0:0:0:0:
96,192,9983,1,0,0:0:0:0:
288,192,9983,1,0,0:0:0:0:
480,192,9983,1,0,0:0:0:0:
32,192,10433,1,4,0:0:0:0:
352,192,10433,1,0,0:0:0:0:
480,192,10433,1,0,0:0:0:0:
160,192,10433,1,0,0:0:0:0:
32,192,10733,1,4,0:0:0:0:
96,192,10733,1,0,0:0:0:0:
288,192,10733,1,0,0:0:0:0:
416,192,10733,1,0,0:0:0:0:
352,192,11333,1,0,0:0:0:0:
160,192,11408,1,0,0:0:0:0:
352,192,11483,1,0,0:0:0:0:
96,192,11633,1,0,0:0:0:0:
480,192,11633,1,0,0:0:0:0:
288,192,11933,1,4,0:0:0:0:
480,192,11933,1,0,0:0:0:0:
224,192,12083,1,0,0:0:0:0:
416,192,12083,1,0,0:0:0:0:
160,192,12233,1,8,0:0:0:0:
352,192,12233,1,0,0:0:0:0:
288,192,12383,1,0,0:0:0:0:
96,192,12383,1,0,0:0:0:0:
224,192,12683,1,0,0:0:0:0:
352,192,12683,1,0,0:0:0:0:
416,192,12833,1,8,0:0:0:0:
160,192,12833,1,0,0:0:0:0:
224,192,12983,1,0,0:0:0:0:
352,192,12983,1,0,0:0:0:0:
96,192,13133,1,8,0:0:0:0:
480,192,13133,1,0,0:0:0:0:
416,192,13283,1,0,0:0:0:0:
96,192,13283,1,0,0:0:0:0:
96,192,13433,1,8,0:0:0:0:
352,192,13433,1,0,0:0:0:0:
288,192,13583,1,0,0:0:0:0:
96,192,13583,1,0,0:0:0:0:
416,192,14183,1,0,0:0:0:0:
96,192,14333,1,8,0:0:0:0:
288,192,14333,1,0,0:0:0:0:
160,192,14483,1,0,0:0:0:0:
352,192,14483,1,0,0:0:0:0:
288,192,14633,1,8,0:0:0:0:
96,192,14633,1,0,0:0:0:0:
160,192,14783,1,0,0:0:0:0:
352,192,14783,1,0,0:0:0:0:
352,192,15083,1,0,0:0:0:0:
480,192,15083,1,0,0:0:0:0:
160,192,15233,1,8,0:0:0:0:
288,192,15233,1,0,0:0:0:0:
352,192,15383,1,8,0:0:0:0:
480,192,15383,1,0,0:0:0:0:
32,192,15533,1,4,0:0:0:0:
96,192,15533,1,0,0:0:0:0:
224,192,15533,1,0,0:0:0:0:
416,192,15533,1,0,0:0:0:0:
32,192,15833,1,4,0:0:0:0:
160,192,15833,1,0,0:0:0:0:
352,192,15833,1,0,0:0:0:0:
480,192,15833,1,0,0:0:0:0:
32,192,16133,1,4,0:0:0:0:
224,192,16133,1,0,0:0:0:0:
352,192,16133,1,0,0:0:0:0:
480,192,16133,1,0,0:0:0:0:
32,192,16433,1,0,0:0:0:0:
32,192,16583,1,0,0:0:0:0:
224,192,16733,1,4,0:0:0:0:
352,192,16733,1,0,0:0:0:0:
160,192,16883,1,0,0:0:0:0:
416,192,16883,1,0,0:0:0:0:
224,192,17033,1,8,0:0:0:0:
352,192,17033,1,0,0:0:0:0:
96,192,17183,1,0,0:0:0:0:
480,192,17183,1,0,0:0:0:0:
416,192,17483,1,0,0:0:0:0:
288,192,17483,1,0,0:0:0:0:
224,192,17633,1,8,0:0:0:0:
352,192,17633,1,0,0:0:0:0:
160,192,17783,1,0,0:0:0:0:
288,192,17783,1,0,0:0:0:0:
96,192,17933,1,4,0:0:0:0:
224,192,17933,1,0,0:0:0:0:
32,192,17933,1,0,0:0:0:0:
352,192,18083,1,0,0:0:0:0:
480,192,18083,1,0,0:0:0:0:
96,192,18233,1,8,0:0:0:0:
224,192,18233,1,0,0:0:0:0:
352,192,18383,1,0,0:0:0:0:
480,192,18383,1,0,0:0:0:0:
96,192,18533,1,8,0:0:0:0:
224,192,18533,1,0,0:0:0:0:
352,192,18683,1,0,0:0:0:0:
480,192,18683,1,0,0:0:0:0:
96,192,18833,1,8,0:0:0:0:
224,192,18833,1,0,0:0:0:0:
352,192,18983,128,0,19733:0:0:0:0:
480,192,18983,128,0,19733:0:0:0:0:
32,192,19133,1,4,0:0:0:0:
160,192,19733,128,4,20333:0:0:0:0:
288,192,19733,128,0,20333:0:0:0:0:
32,192,19733,1,0,0:0:0:0:
480,192,20333,1,8,0:0:0:0:
416,192,20483,1,0,0:0:0:0:
352,192,20633,1,0,0:0:0:0:
288,192,20783,1,0,0:0:0:0:
160,192,20933,1,0,0:0:0:0:
288,192,21083,1,0,0:0:0:0:
96,192,21233,1,0,0:0:0:0:
480,192,21233,1,0,0:0:0:0:
352,192,21533,1,4,0:0:0:0:
480,192,21533,1,0,0:0:0:0:
288,192,21683,1,0,0:0:0:0:
96,192,21833,1,8,0:0:0:0:
224,192,21833,1,0,0:0:0:0:
416,192,21983,1,0,0:0:0:0:
96,192,22133,1,8,0:0:0:0:
224,192,22133,1,0,0:0:0:0:
416,192,22283,1,0,0:0:0:0:
96,192,22433,1,8,0:0:0:0:
224,192,22433,1,0,0:0:0:0:
416,192,22583,1,0,0:0:0:0:
96,192,22733,1,8,0:0:0:0:
224,192,22733,1,0,0:0:0:0:
480,192,22733,1,0,0:0:0:0:
160,192,22883,1,0,0:0:0:0:
352,192,23033,1,8,0:0:0:0:
480,192,23033,1,0,0:0:0:0:
160,192,23183,1,0,0:0:0:0:
352,192,23333,1,8,0:0:0:0:
480,192,23333,1,0,0:0:0:0:
160,192,23483,1,0,0:0:0:0:
352,192,23633,1,8,0:0:0:0:
480,192,23633,1,0,0:0:0:0:
160,192,23783,1,0,0:0:0:0:
96,192,23933,1,8,0:0:0:0:
480,192,23933,1,0,0:0:0:0:
352,192,23933,1,0,0:0:0:0:
224,192,24083,1,0,0:0:0:0:
352,192,24233,1,8,0:0:0:0:
96,192,24233,1,0,0:0:0:0:
224,192,24383,1,0,0:0:0:0:
96,192,24533,1,8,0:0:0:0:
352,192,24533,1,0,0:0:0:0:
224,192,24683,1,0,0:0:0:0:
96,192,24833,1,8,0:0:0:0:
352,192,24833,1,0,0:0:0:0:
224,192,24983,1,0,0:0:0:0:
352,192,25133,1,8,0:0:0:0:
480,192,25133,1,0,0:0:0:0:
160,192,25133,1,0,0:0:0:0:
288,192,25283,1,0,0:0:0:0:
96,192,25433,1,8,0:0:0:0:
224,192,25433,1,0,0:0:0:0:
352,192,25583,1,0,0:0:0:0:
480,192,25733,1,8,0:0:0:0:
96,192,25733,1,0,0:0:0:0:
288,192,25883,1,0,0:0:0:0:
224,192,26033,1,8,0:0:0:0:
96,192,26033,1,0,0:0:0:0:
352,192,26183,1,0,0:0:0:0:
224,192,26333,1,8,0:0:0:0:
96,192,26333,1,0,0:0:0:0:
416,192,26333,1,0,0:0:0:0:
288,192,26483,1,0,0:0:0:0:
352,192,26633,1,8,0:0:0:0:
480,192,26633,1,0,0:0:0:0:
160,192,26783,1,0,0:0:0:0:
96,192,26933,1,8,0:0:0:0:
352,192,26933,1,0,0:0:0:0:
224,192,27083,1,0,0:0:0:0:
352,192,27233,1,8,0:0:0:0:
480,192,27233,1,0,0:0:0:0:
224,192,27383,1,0,0:0:0:0:
96,192,27533,1,8,0:0:0:0:
352,192,27533,1,0,0:0:0:0:
480,192,27533,1,0,0:0:0:0:
224,192,27683,1,0,0:0:0:0:
352,192,27833,1,8,0:0:0:0:
480,192,27833,1,0,0:0:0:0:
160,192,27983,1,0,0:0:0:0:
288,192,28133,1,8,0:0:0:0:
480,192,28133,1,0,0:0:0:0:
160,192,28283,1,0,0:0:0:0:
352,192,28433,1,8,0:0:0:0:
480,192,28433,1,0,0:0:0:0:
160,192,28583,1,0,0:0:0:0:
352,192,28733,1,8,0:0:0:0:
480,192,28733,1,0,0:0:0:0:
96,192,28733,1,0,0:0:0:0:
224,192,28883,1,0,0:0:0:0:
96,192,29033,1,8,0:0:0:0:
480,192,29033,1,0,0:0:0:0:
224,192,29183,1,0,0:0:0:0:
96,192,29333,1,8,0:0:0:0:
480,192,29333,1,0,0:0:0:0:
224,192,29483,1,0,0:0:0:0:
96,192,29633,1,8,0:0:0:0:
480,192,29633,1,0,0:0:0:0:
96,192,29783,1,0,0:0:0:0:
480,192,29783,1,0,0:0:0:0:
480,192,29933,1,4,0:0:0:0:
96,192,29933,1,0,0:0:0:0:
32,192,29933,1,0,0:0:0:0:
32,192,30233,1,4,0:0:0:0:
96,192,30233,1,0,0:0:0:0:
480,192,30233,1,0,0:0:0:0:
32,192,30533,1,4,0:0:0:0:
96,192,30533,1,0,0:0:0:0:
480,192,30533,1,0,0:0:0:0:
480,192,30683,1,0,0:0:0:0:
416,192,30758,1,0,0:0:0:0:
352,192,30833,1,0,0:0:0:0:
288,192,30908,1,0,0:0:0:0:
224,192,30983,1,0,0:0:0:0:
160,192,31058,1,0,0:0:0:0:
352,192,31133,1,4,0:0:0:0:
480,192,31133,1,0,0:0:0:0:
96,192,31133,1,0,0:0:0:0:
32,192,31133,1,0,0:0:0:0:
160,192,31433,1,8,0:0:0:0:
416,192,31433,1,0,0:0:0:0:
224,192,31733,1,8,0:0:0:0:
352,192,31733,1,0,0:0:0:0:
288,192,31883,1,0,0:0:0:0:
96,192,32033,1,8,0:0:0:0:
224,192,32033,1,0,0:0:0:0:
416,192,32033,1,0,0:0:0:0:
352,192,32183,1,0,0:0:0:0:
288,192,32333,1,8,0:0:0:0:
160,192,32333,1,0,0:0:0:0:
352,192,32633,1,8,0:0:0:0:
480,192,32633,1,0,0:0:0:0:
160,192,32783,1,0,0:0:0:0:
352,192,32933,1,8,0:0:0:0:
480,192,32933,1,0,0:0:0:0:
96,192,33233,1,8,0:0:0:0:
224,192,33233,1,0,0:0:0:0:
416,192,33233,1,0,0:0:0:0:
160,192,33533,1,8,0:0:0:0:
416,192,33533,1,0,0:0:0:0:
288,192,33833,1,8,0:0:0:0:
480,192,33833,1,0,0:0:0:0:
160,192,34133,1,8,0:0:0:0:
480,192,34133,1,0,0:0:0:0:
352,192,34283,1,0,0:0:0:0:
224,192,34433,1,8,0:0:0:0:
480,192,34433,1,0,0:0:0:0:
96,192,34433,1,0,0:0:0:0:
352,192,34583,1,0,0:0:0:0:
480,192,34733,1,8,0:0:0:0:
224,192,34733,1,0,0:0:0:0:
416,192,34883,1,0,0:0:0:0:
96,192,35033,1,8,0:0:0:0:
224,192,35033,1,0,0:0:0:0:
352,192,35183,1,0,0:0:0:0:
224,192,35333,1,8,0:0:0:0:
96,192,35333,1,0,0:0:0:0:
288,192,35483,1,0,0:0:0:0:
224,192,35633,1,8,0:0:0:0:
96,192,35633,1,0,0:0:0:0:
32,192,35933,1,4,0:0:0:0:
96,192,35933,1,0,0:0:0:0:
288,192,35933,1,0,0:0:0:0:
480,192,35933,1,0,0:0:0:0:
352,192,36233,1,8,0:0:0:0:
480,192,36233,1,0,0:0:0:0:
288,192,36533,1,8,0:0:0:0:
416,192,36533,1,0,0:0:0:0:
96,192,36683,1,0,0:0:0:0:
352,192,36833,1,8,0:0:0:0:
224,192,36833,1,0,0:0:0:0:
416,192,36983,1,0,0:0:0:0:
480,192,37133,1,4,0:0:0:0:
288,192,37133,1,0,0:0:0:0:
96,192,37133,1,0,0:0:0:0:
32,192,37133,1,0,0:0:0:0:
224,192,37433,1,8,0:0:0:0:
352,192,37433,1,0,0:0:0:0:
416,192,37583,1,0,0:0:0:0:
96,192,37733,1,8,0:0:0:0:
224,192,37733,1,0,0:0:0:0:
416,192,37883,1,0,0:0:0:0:
224,192,38033,1,8,0:0:0:0:
96,192,38033,1,0,0:0:0:0:
416,192,38183,1,0,0:0:0:0:
480,192,38333,1,4,0:0:0:0:
32,192,38333,1,0,0:0:0:0:
288,192,38333,1,0,0:0:0:0:
96,192,38333,1,0,0:0:0:0:
224,192,38633,1,8,0:0:0:0:
352,192,38633,1,0,0:0:0:0:
32,192,38933,1,4,0:0:0:0:
96,192,38933,1,0,0:0:0:0:
288,192,38933,1,0,0:0:0:0:
480,192,38933,1,0,0:0:0:0:
224,192,39233,1,8,0:0:0:0:
352,192,39233,1,0,0:0:0:0:
32,192,39533,1,4,0:0:0:0:
160,192,39533,1,0,0:0:0:0:
288,192,39533,1,0,0:0:0:0:
416,192,39533,1,0,0:0:0:0:
224,192,39983,1,0,0:0:0:0:
416,192,39983,1,0,0:0:0:0:
352,192,40433,1,0,0:0:0:0:
480,192,40433,1,0,0:0:0:0:
32,192,40733,1,4,0:0:0:0:
96,192,40733,1,0,0:0:0:0:
288,192,40733,1,0,0:0:0:0:
224,192,41333,1,0,0:0:0:0:
416,192,41333,1,0,0:0:0:0:
96,192,41933,1,8,0:0:0:0:
96,192,42233,1,8,0:0:0:0:
96,192,42533,1,0,0:0:0:0:
224,192,42533,1,0,0:0:0:0:
224,192,43133,1,8,0:0:0:0:
160,192,43733,1,0,0:0:0:0:
416,192,43733,1,0,0:0:0:0:
224,192,44033,1,8,0:0:0:0:
352,192,44033,1,0,0:0:0:0:
160,192,44183,1,8,0:0:0:0:
416,192,44183,1,0,0:0:0:0:
480,192,44333,1,4,0:0:0:0:
96,192,44333,1,0,0:0:0:0:
32,192,44333,1,0,0:0:0:0:
32,192,44633,1,4,0:0:0:0:
96,192,44633,1,0,0:0:0:0:
480,192,44633,1,0,0:0:0:0:
32,192,44933,1,4,0:0:0:0:
96,192,44933,1,0,0:0:0:0:
480,192,44933,1,0,0:0:0:0:
32,192,45233,1,0,0:0:0:0:
32,192,45383,1,0,0:0:0:0:
224,192,45533,1,4,0:0:0:0:
352,192,45533,1,0,0:0:0:0:
288,192,45683,1,0,0:0:0:0:
224,192,45833,1,8,0:0:0:0:
96,192,45833,1,0,0:0:0:0:
352,192,45983,1,0,0:0:0:0:
224,192,46133,1,8,0:0:0:0:
96,192,46133,1,0,0:0:0:0:
352,192,46283,1,0,0:0:0:0:
96,192,46433,1,8,0:0:0:0:
224,192,46433,1,0,0:0:0:0:
352,192,46583,1,0,0:0:0:0:
480,192,46733,1,8,0:0:0:0:
288,192,46733,1,0,0:0:0:0:
160,192,46883,1,0,0:0:0:0:
288,192,47033,1,8,0:0:0:0:
480,192,47033,1,0,0:0:0:0:
160,192,47183,1,0,0:0:0:0:
96,192,47333,1,8,0:0:0:0:
224,192,47333,1,0,0:0:0:0:
352,192,47483,1,0,0:0:0:0:
224,192,47633,1,8,0:0:0:0:
96,192,47633,1,0,0:0:0:0:
352,192,47783,1,4,0:0:0:0:
32,192,47783,1,0,0:0:0:0:
480,192,47783,1,0,0:0:0:0:
96,192,48233,1,8,0:0:0:0:
224,192,48233,1,0,0:0:0:0:
288,192,48383,1,0,0:0:0:0:
352,192,48533,1,8,0:0:0:0:
480,192,48533,1,0,0:0:0:0:
224,192,48683,1,0,0:0:0:0:
96,192,48833,1,8,0:0:0:0:
352,192,48833,1,0,0:0:0:0:
480,192,48983,1,0,0:0:0:0:
96,192,49133,1,4,0:0:0:0:
352,192,49133,1,0,0:0:0:0:
32,192,49133,1,0,0:0:0:0:
224,192,49283,1,0,0:0:0:0:
352,192,49433,1,8,0:0:0:0:
480,192,49433,1,0,0:0:0:0:
224,192,49583,1,0,0:0:0:0:
96,192,49733,1,8,0:0:0:0:
288,192,49733,1,0,0:0:0:0:
416,192,49883,1,0,0:0:0:0:
224,192,50033,1,8,0:0:0:0:
96,192,50033,1,0,0:0:0:0:
352,192,50183,1,0,0:0:0:0:
480,192,50333,1,4,0:0:0:0:
32,192,50333,1,0,0:0:0:0:
96,192,50333,1,0,0:0:0:0:
96,192,50633,1,8,0:0:0:0:
32,192,50933,1,4,0:0:0:0:
224,192,50933,1,0,0:0:0:0:
224,192,51233,1,8,0:0:0:0:
32,192,51533,1,4,0:0:0:0:
352,192,51533,1,0,0:0:0:0:
352,192,51833,1,8,0:0:0:0:
480,192,52133,1,4,0:0:0:0:
32,192,52133,1,0,0:0:0:0:
480,192,52433,1,8,0:0:0:0:
96,192,52733,1,4,0:0:0:0:
224,192,52733,1,0,0:0:0:0:
352,192,53033,1,4,0:0:0:0:
480,192,53033,1,0,0:0:0:0:
224,192,53333,1,4,0:0:0:0:
352,192,53333,1,0,0:0:0:0:
352,192,53483,1,4,0:0:0:0:
224,192,53483,1,0,0:0:0:0:
96,192,53783,1,8,0:0:0:0:
480,192,53783,1,0,0:0:0:0:
224,192,53933,1,0,0:0:0:0:
352,192,54083,1,0,0:0:0:0:
160,192,54233,1,0,0:0:0:0:
352,192,54383,1,0,0:0:0:0:
224,192,54533,1,0,0:0:0:0:
416,192,54683,1,0,0:0:0:0:
32,192,54833,128,0,55133:0:0:0:0:
224,192,55133,1,4,0:0:0:0:
416,192,55133,1,0,0:0:0:0:
96,192,55433,1,8,0:0:0:0:
352,192,55433,1,0,0:0:0:0:
160,192,55733,1,8,0:0:0:0:
288,192,55883,1,0,0:0:0:0:
416,192,56033,1,8,0:0:0:0:
160,192,56033,1,0,0:0:0:0:
96,192,56183,1,0,0:0:0:0:
480,192,56183,1,0,0:0:0:0:
288,192,56333,1,8,0:0:0:0:
160,192,56483,1,0,0:0:0:0:
416,192,56633,1,8,0:0:0:0:
96,192,56933,1,8,0:0:0:0:
224,192,56933,1,0,0:0:0:0:
416,192,57083,1,0,0:0:0:0:
96,192,57233,1,8,0:0:0:0:
224,192,57233,1,0,0:0:0:0:
416,192,57383,1,0,0:0:0:0:
96,192,57533,1,8,0:0:0:0:
224,192,57533,1,0,0:0:0:0:
288,192,57833,1,8,0:0:0:0:
480,192,57833,1,0,0:0:0:0:
416,192,58133,1,8,0:0:0:0:
288,192,58283,1,0,0:0:0:0:
96,192,58433,1,8,0:0:0:0:
224,192,58433,1,0,0:0:0:0:
352,192,58583,1,0,0:0:0:0:
480,192,58733,1,8,0:0:0:0:
160,192,58883,1,0,0:0:0:0:
480,192,59033,1,8,0:0:0:0:
160,192,59183,1,0,0:0:0:0:
288,192,59333,1,8,0:0:0:0:
480,192,59333,1,0,0:0:0:0:
224,192,59633,1,8,0:0:0:0:
352,192,59633,1,0,0:0:0:0:
96,192,59783,1,8,0:0:0:0:
416,192,59783,1,0,0:0:0:0:
224,192,59933,1,4,0:0:0:0:
480,192,59933,1,0,0:0:0:0:
32,192,59933,1,0,0:0:0:0:
96,192,60233,1,8,0:0:0:0:
288,192,60233,1,0,0:0:0:0:
352,192,60533,1,8,0:0:0:0:
480,192,60533,1,0,0:0:0:0:
224,192,60683,1,0,0:0:0:0:
96,192,60833,1,8,0:0:0:0:
480,192,60833,1,0,0:0:0:0:
32,192,60983,1,0,0:0:0:0:
224,192,60983,1,4,0:0:0:0:
352,192,60983,1,0,0:0:0:0:
352,192,61283,1,0,0:0:0:0:
224,192,61433,1,8,0:0:0:0:
352,192,61733,1,8,0:0:0:0:
480,192,62033,1,8,0:0:0:0:
352,192,62183,1,8,0:0:0:0:
224,192,62333,1,4,0:0:0:0:
32,192,62333,1,0,0:0:0:0:
32,192,62633,1,4,0:0:0:0:
288,192,62633,1,0,0:0:0:0:
32,192,62783,1,4,0:0:0:0:
288,192,62783,1,0,0:0:0:0:
32,192,63083,1,4,0:0:0:0:
480,192,63083,1,0,0:0:0:0:
32,192,63383,1,4,0:0:0:0:
224,192,63383,1,0,0:0:0:0:
32,192,63683,1,4,0:0:0:0:
224,192,63683,1,0,0:0:0:0:
352,192,63833,1,4,0:0:0:0:
32,192,63833,1,0,0:0:0:0:
480,192,64133,1,0,0:0:0:0:
352,192,64208,1,0,0:0:0:0:
224,192,64283,1,0,0:0:0:0:
96,192,64358,1,0,0:0:0:0:
352,192,64433,1,0,0:0:0:0:
480,192,64433,1,0,0:0:0:0:
96,192,64733,1,4,0:0:0:0:
224,192,64733,1,0,0:0:0:0:
416,192,64733,1,0,0:0:0:0:
352,192,64883,1,0,0:0:0:0:
224,192,65033,1,8,0:0:0:0:
96,192,65033,1,0,0:0:0:0:
352,192,65183,1,0,0:0:0:0:
480,192,65333,1,8,0:0:0:0:
224,192,65333,1,0,0:0:0:0:
352,192,65483,1,0,0:0:0:0:
224,192,65633,1,8,0:0:0:0:
96,192,65633,1,0,0:0:0:0:
288,192,65783,1,0,0:0:0:0:
352,192,65933,1,8,0:0:0:0:
480,192,65933,1,0,0:0:0:0:
288,192,66083,1,0,0:0:0:0:
224,192,66233,1,8,0:0:0:0:
96,192,66233,1,0,0:0:0:0:
416,192,66383,1,0,0:0:0:0:
224,192,66533,1,8,0:0:0:0:
96,192,66533,1,0,0:0:0:0:
416,192,66683,1,0,0:0:0:0:
288,192,66833,1,8,0:0:0:0:
480,192,66833,1,0,0:0:0:0:
160,192,66983,1,0,0:0:0:0:
96,192,67133,1,8,0:0:0:0:
288,192,67133,1,0,0:0:0:0:
416,192,67283,1,0,0:0:0:0:
224,192,67433,1,8,0:0:0:0:
96,192,67433,1,0,0:0:0:0:
352,192,67583,1,0,0:0:0:0:
224,192,67733,1,8,0:0:0:0:
96,192,67733,1,0,0:0:0:0:
352,192,67883,1,0,0:0:0:0:
96,192,68033,1,8,0:0:0:0:
480,192,68033,1,0,0:0:0:0:
288,192,68183,1,0,0:0:0:0:
224,192,68333,1,8,0:0:0:0:
96,192,68333,1,0,0:0:0:0:
352,192,68483,1,0,0:0:0:0:
224,192,68633,1,8,0:0:0:0:
96,192,68633,1,0,0:0:0:0:
352,192,68783,1,0,0:0:0:0:
480,192,68933,1,8,0:0:0:0:
96,192,68933,1,0,0:0:0:0:
288,192,69083,1,0,0:0:0:0:
96,192,69233,1,8,0:0:0:0:
224,192,69233,1,0,0:0:0:0:
416,192,69383,1,8,0:0:0:0:
288,192,69533,1,4,0:0:0:0:
96,192,69533,1,0,0:0:0:0:
480,192,69533,1,0,0:0:0:0:
160,192,69608,1,0,0:0:0:0:
352,192,69683,1,0,0:0:0:0:
224,192,69758,1,0,0:0:0:0:
416,192,69833,1,8,0:0:0:0:
288,192,69908,1,0,0:0:0:0:
96,192,69983,1,0,0:0:0:0:
416,192,70058,1,0,0:0:0:0:
160,192,70133,1,8,0:0:0:0:
480,192,70208,1,0,0:0:0:0:
352,192,70283,1,0,0:0:0:0:
224,192,70358,1,0,0:0:0:0:
96,192,70433,1,8,0:0:0:0:
352,192,70508,1,0,0:0:0:0:
160,192,70583,1,0,0:0:0:0:
480,192,70658,1,0,0:0:0:0:
224,192,70733,1,4,0:0:0:0:
416,192,70808,1,0,0:0:0:0:
96,192,70883,1,0,0:0:0:0:
352,192,70958,1,0,0:0:0:0:
224,192,71033,1,8,0:0:0:0:
416,192,71108,1,0,0:0:0:0:
160,192,71183,1,0,0:0:0:0:
288,192,71258,1,0,0:0:0:0:
480,192,71333,1,8,0:0:0:0:
96,192,71408,1,0,0:0:0:0:
416,192,71483,1,0,0:0:0:0:
224,192,71558,1,0,0:0:0:0:
352,192,71633,1,8,0:0:0:0:
160,192,71708,1,0,0:0:0:0:
416,192,71783,1,0,0:0:0:0:
288,192,71858,1,0,0:0:0:0:
480,192,71933,1,4,0:0:0:0:
96,192,71933,1,0,0:0:0:0:
224,192,71933,1,0,0:0:0:0:
224,192,72233,1,4,0:0:0:0:
416,192,72233,1,0,0:0:0:0:
96,192,72233,1,0,0:0:0:0:
288,192,72383,1,4,0:0:0:0:
480,192,72383,1,0,0:0:0:0:
160,192,72383,1,0,0:0:0:0:
96,192,72683,1,4,0:0:0:0:
480,192,72683,1,0,0:0:0:0:
288,192,72683,1,0,0:0:0:0:
224,192,72983,1,0,0:0:0:0:
416,192,72983,1,0,0:0:0:0:
96,192,72983,1,0,0:0:0:0:
480,192,73133,1,4,0:0:0:0:
32,192,73133,1,0,0:0:0:0:
96,192,73133,1,0,0:0:0:0:
160,192,73733,1,0,0:0:0:0:
288,192,73808,1,0,0:0:0:0:
416,192,73883,1,0,0:0:0:0:
96,192,74033,1,8,0:0:0:0:
288,192,74033,1,0,0:0:0:0:
480,192,74033,1,0,0:0:0:0:
96,192,74333,1,4,0:0:0:0:
224,192,74333,1,0,0:0:0:0:
352,192,74333,1,0,0:0:0:0:
288,192,74633,1,0,0:0:0:0:
480,192,74633,1,0,0:0:0:0:
96,192,74933,1,4,0:0:0:0:
160,192,74933,1,0,0:0:0:0:
352,192,74933,1,0,0:0:0:0:
288,192,75233,1,0,0:0:0:0:
480,192,75233,1,0,0:0:0:0:
352,192,75533,1,4,0:0:0:0:
480,192,75533,1,0,0:0:0:0:
352,192,75683,1,0,0:0:0:0:
480,192,75683,1,0,0:0:0:0:
96,192,75833,1,4,0:0:0:0:
224,192,75833,1,0,0:0:0:0:
96,192,75983,1,0,0:0:0:0:
224,192,75983,1,0,0:0:0:0:
352,192,76133,1,4,0:0:0:0:
480,192,76133,1,0,0:0:0:0:
96,192,76208,1,0,0:0:0:0:
224,192,76208,1,0,0:0:0:0:
352,192,76283,1,0,0:0:0:0:
480,192,76283,1,0,0:0:0:0:
224,192,76358,1,0,0:0:0:0:
96,192,76358,1,0,0:0:0:0:
352,192,76433,1,0,0:0:0:0:
480,192,76433,1,0,0:0:0:0:
96,192,76733,1,4,0:0:0:0:
288,192,76733,1,0,0:0:0:0:
224,192,77033,1,8,0:0:0:0:
32,192,77033,1,0,0:0:0:0:
352,192,77333,1,8,0:0:0:0:
288,192,77483,1,0,0:0:0:0:
224,192,77633,1,8,0:0:0:0:
32,192,77633,1,0,0:0:0:0:
160,192,77783,1,0,0:0:0:0:
352,192,78083,1,0,0:0:0:0:
32,192,78233,1,8,0:0:0:0:
352,192,78383,1,0,0:0:0:0:
224,192,78533,1,8,0:0:0:0:
32,192,78683,1,0,0:0:0:0:
416,192,78683,1,0,0:0:0:0:
32,192,78833,1,8,0:0:0:0:
224,192,78833,1,0,0:0:0:0:
416,192,78983,1,0,0:0:0:0:
160,192,79133,1,8,0:0:0:0:
352,192,79433,1,8,0:0:0:0:
32,192,79433,1,0,0:0:0:0:
480,192,79733,1,8,0:0:0:0:
352,192,79883,1,0,0:0:0:0:
160,192,80033,1,8,0:0:0:0:
32,192,80033,1,0,0:0:0:0:
288,192,80183,1,0,0:0:0:0:
224,192,80483,1,0,0:0:0:0:
32,192,80483,128,0,80933:0:0:0:0:
352,192,80783,1,0,0:0:0:0:
32,192,81083,1,0,0:0:0:0:
32,192,81233,1,8,0:0:0:0:
160,192,81233,1,0,0:0:0:0:
288,192,81383,1,8,0:0:0:0:
416,192,81533,1,4,0:0:0:0:
160,192,81608,1,0,0:0:0:0:
352,192,81683,1,0,0:0:0:0:
224,192,81758,1,0,0:0:0:0:
416,192,81833,1,8,0:0:0:0:
96,192,81908,1,0,0:0:0:0:
352,192,81983,1,0,0:0:0:0:
160,192,82058,1,0,0:0:0:0:
480,192,82133,1,8,0:0:0:0:
352,192,82208,1,0,0:0:0:0:
224,192,82283,1,0,0:0:0:0:
96,192,82358,1,0,0:0:0:0:
416,192,82433,1,8,0:0:0:0:
224,192,82508,1,0,0:0:0:0:
352,192,82583,1,0,0:0:0:0:
160,192,82658,1,0,0:0:0:0:
288,192,82733,1,4,0:0:0:0:
416,192,82808,1,0,0:0:0:0:
96,192,82883,1,0,0:0:0:0:
224,192,82958,1,0,0:0:0:0:
416,192,83033,1,8,0:0:0:0:
288,192,83108,1,0,0:0:0:0:
160,192,83183,1,0,0:0:0:0:
416,192,83258,1,0,0:0:0:0:
288,192,83333,1,8,0:0:0:0:
96,192,83408,1,0,0:0:0:0:
416,192,83483,1,0,0:0:0:0:
224,192,83558,1,0,0:0:0:0:
352,192,83633,1,8,0:0:0:0:
160,192,83708,1,0,0:0:0:0:
288,192,83783,1,0,0:0:0:0:
96,192,83858,1,0,0:0:0:0:
224,192,83933,1,4,0:0:0:0:
352,192,83933,1,0,0:0:0:0:
480,192,83933,1,0,0:0:0:0:
96,192,84233,1,4,0:0:0:0:
224,192,84233,1,0,0:0:0:0:
416,192,84233,1,0,0:0:0:0:
160,192,84383,1,4,0:0:0:0:
288,192,84383,1,0,0:0:0:0:
480,192,84383,1,0,0:0:0:0:
224,192,84683,1,4,0:0:0:0:
352,192,84683,1,0,0:0:0:0:
480,192,84683,1,0,0:0:0:0:
160,192,84983,1,4,0:0:0:0:
288,192,84983,1,0,0:0:0:0:
416,192,84983,1,0,0:0:0:0:
96,192,85133,1,4,0:0:0:0:
480,192,85133,1,0,0:0:0:0:
32,192,85133,1,0,0:0:0:0:
160,192,85733,1,0,0:0:0:0:
416,192,85808,1,0,0:0:0:0:
160,192,85883,1,0,0:0:0:0:
96,192,86033,1,0,0:0:0:0:
480,192,86033,1,0,0:0:0:0:
32,192,86333,1,8,0:0:0:0:
224,192,86333,1,0,0:0:0:0:
352,192,86333,1,0,0:0:0:0:
416,192,86783,1,0,0:0:0:0:
480,192,87383,1,0,0:0:0:0:
160,192,87533,1,0,0:0:0:0:
352,192,87683,1,0,0:0:0:0:
96,192,87833,1,0,0:0:0:0:
288,192,87983,1,0,0:0:0:0:
416,192,88133,1,0,0:0:0:0:
160,192,88283,1,0,0:0:0:0:
288,192,88583,1,0,0:0:0:0:
480,192,88733,1,0,0:0:0:0:
160,192,89183,1,0,0:0:0:0:
416,192,89333,1,0,0:0:0:0:
480,192,90383,1,0,0:0:0:0:
352,192,90433,1,0,0:0:0:0:
224,192,90483,1,0,0:0:0:0:
96,192,90533,1,0,0:0:0:0:
416,192,90608,1,0,0:0:0:0:
288,192,90758,1,0,0:0:0:0:
160,192,90908,1,0,0:0:0:0:
96,192,91133,1,4,0:0:0:0:
288,192,91133,1,0,0:0:0:0:
480,192,91133,1,0,0:0:0:0:
32,192,91133,1,0,0:0:0:0:
288,192,91433,1,0,0:0:0:0:
288,192,91733,1,0,0:0:0:0:
288,192,92033,1,0,0:0:0:0:
288,192,92183,1,0,0:0:0:0:
32,192,92183,1,4,0:0:0:0:
416,192,92333,1,0,0:0:0:0:
288,192,92633,1,0,0:0:0:0:
416,192,92933,1,0,0:0:0:0:
288,192,93083,1,0,0:0:0:0:
160,192,93233,1,0,0:0:0:0:
288,192,93383,1,0,0:0:0:0:
416,192,93533,1,4,0:0:0:0:
160,192,93533,1,0,0:0:0:0:
32,192,93533,1,0,0:0:0:0:
32,192,93983,1,4,0:0:0:0:
288,192,93983,1,0,0:0:0:0:
480,192,93983,1,0,0:0:0:0:
352,192,94283,1,4,0:0:0:0:
480,192,94283,1,0,0:0:0:0:
32,192,94283,1,0,0:0:0:0:
32,192,94583,1,4,0:0:0:0:
96,192,94583,1,0,0:0:0:0:
224,192,94583,1,0,0:0:0:0:
416,192,95333,1,0,0:0:0:0:
160,192,95408,1,0,0:0:0:0:
416,192,95483,1,0,0:0:0:0:
224,192,95633,1,0,0:0:0:0:
480,192,95633,1,0,0:0:0:0:
96,192,95933,1,4,0:0:0:0:
224,192,95933,1,0,0:0:0:0:
352,192,96083,1,0,0:0:0:0:
224,192,96233,1,8,0:0:0:0:
480,192,96233,1,0,0:0:0:0:
352,192,96383,1,0,0:0:0:0:
224,192,96533,1,8,0:0:0:0:
96,192,96533,1,0,0:0:0:0:
352,192,96683,1,0,0:0:0:0:
480,192,96683,1,0,0:0:0:0:
224,192,96833,1,8,0:0:0:0:
352,192,96983,1,0,0:0:0:0:
480,192,96983,1,0,0:0:0:0:
224,192,97133,1,8,0:0:0:0:
96,192,97133,1,0,0:0:0:0:
416,192,97283,1,0,0:0:0:0:
288,192,97433,1,8,0:0:0:0:
96,192,97433,1,0,0:0:0:0:
416,192,97583,1,0,0:0:0:0:
352,192,97733,1,8,0:0:0:0:
480,192,97733,1,0,0:0:0:0:
224,192,97883,1,0,0:0:0:0:
96,192,98033,1,8,0:0:0:0:
352,192,98033,1,0,0:0:0:0:
224,192,98183,1,0,0:0:0:0:
352,192,98333,1,8,0:0:0:0:
480,192,98333,1,0,0:0:0:0:
160,192,98483,1,0,0:0:0:0:
288,192,98633,1,8,0:0:0:0:
480,192,98633,1,0,0:0:0:0:
416,192,98783,1,0,0:0:0:0:
96,192,98933,1,8,0:0:0:0:
224,192,98933,1,0,0:0:0:0:
352,192,99083,1,0,0:0:0:0:
224,192,99233,1,8,0:0:0:0:
480,192,99233,1,0,0:0:0:0:
352,192,99383,1,0,0:0:0:0:
96,192,99533,1,8,0:0:0:0:
224,192,99533,1,0,0:0:0:0:
352,192,99683,1,0,0:0:0:0:
160,192,99833,1,8,0:0:0:0:
480,192,99833,1,0,0:0:0:0:
288,192,99983,1,0,0:0:0:0:
352,192,100133,1,8,0:0:0:0:
480,192,100133,1,0,0:0:0:0:
224,192,100283,1,0,0:0:0:0:
96,192,100433,1,8,0:0:0:0:
480,192,100433,1,0,0:0:0:0:
416,192,100583,1,8,0:0:0:0:
160,192,100583,1,0,0:0:0:0:
96,192,100733,1,4,0:0:0:0:
224,192,100733,1,0,0:0:0:0:
352,192,100733,1,0,0:0:0:0:
480,192,100808,1,0,0:0:0:0:
352,192,100883,1,0,0:0:0:0:
224,192,100958,1,0,0:0:0:0:
96,192,101033,1,8,0:0:0:0:
160,192,101108,1,0,0:0:0:0:
288,192,101183,1,0,0:0:0:0:
416,192,101258,1,0,0:0:0:0:
96,192,101333,1,8,0:0:0:0:
224,192,101408,1,0,0:0:0:0:
352,192,101483,1,0,0:0:0:0:
160,192,101558,1,0,0:0:0:0:
288,192,101633,1,8,0:0:0:0:
416,192,101708,1,0,0:0:0:0:
224,192,101783,1,0,0:0:0:0:
352,192,101858,1,0,0:0:0:0:
480,192,101933,1,4,0:0:0:0:
352,192,102008,1,0,0:0:0:0:
224,192,102083,1,0,0:0:0:0:
96,192,102158,1,0,0:0:0:0:
224,192,102233,1,8,0:0:0:0:
352,192,102308,1,0,0:0:0:0:
480,192,102383,1,0,0:0:0:0:
160,192,102458,1,0,0:0:0:0:
288,192,102533,1,8,0:0:0:0:
416,192,102608,1,0,0:0:0:0:
96,192,102683,1,0,0:0:0:0:
224,192,102758,1,0,0:0:0:0:
352,192,102833,1,8,0:0:0:0:
480,192,102908,1,0,0:0:0:0:
352,192,102983,1,0,0:0:0:0:
224,192,103058,1,0,0:0:0:0:
96,192,103133,1,4,0:0:0:0:
352,192,103133,1,0,0:0:0:0:
480,192,103133,1,0,0:0:0:0:
96,192,103433,1,4,0:0:0:0:
224,192,103433,1,0,0:0:0:0:
352,192,103433,1,0,0:0:0:0:
160,192,103583,1,4,0:0:0:0:
288,192,103583,1,0,0:0:0:0:
416,192,103583,1,0,0:0:0:0:
224,192,103883,1,4,0:0:0:0:
352,192,103883,1,0,0:0:0:0:
480,192,103883,1,0,0:0:0:0:
96,192,104183,1,4,0:0:0:0:
224,192,104183,1,0,0:0:0:0:
352,192,104183,1,0,0:0:0:0:
160,192,104333,1,4,0:0:0:0:
288,192,104333,1,0,0:0:0:0:
416,192,104333,1,0,0:0:0:0:
416,192,104633,1,4,0:0:0:0:
224,192,104633,1,0,0:0:0:0:
96,192,104633,1,0,0:0:0:0:
96,192,104783,1,4,0:0:0:0:
224,192,104783,1,0,0:0:0:0:
416,192,104783,1,0,0:0:0:0:
224,192,105083,1,4,0:0:0:0:
352,192,105083,1,0,0:0:0:0:
416,192,105083,1,0,0:0:0:0:
96,192,105383,1,4,0:0:0:0:
288,192,105383,1,0,0:0:0:0:
480,192,105383,1,0,0:0:0:0:
160,192,105533,1,4,0:0:0:0:
416,192,105533,1,0,0:0:0:0:
416,192,105683,1,8,0:0:0:0:
160,192,105683,1,0,0:0:0:0:
96,192,105833,1,4,0:0:0:0:
480,192,105833,1,0,0:0:0:0:
480,192,105983,1,8,0:0:0:0:
96,192,105983,1,0,0:0:0:0:
224,192,106133,1,4,0:0:0:0:
352,192,106133,1,0,0:0:0:0:
224,192,106283,1,8,0:0:0:0:
352,192,106283,1,0,0:0:0:0:
160,192,106433,1,4,0:0:0:0:
416,192,106433,1,0,0:0:0:0:
416,192,106583,1,4,0:0:0:0:
160,192,106583,1,0,0:0:0:0:
160,192,107333,1,0,0:0:0:0:
288,192,107408,1,0,0:0:0:0:
416,192,107483,1,0,0:0:0:0:
96,192,107633,1,0,0:0:0:0:
352,192,107633,1,0,0:0:0:0:
160,192,107933,1,8,0:0:0:0:
352,192,107933,1,0,0:0:0:0:
288,192,108083,1,0,0:0:0:0:
416,192,108233,1,8,0:0:0:0:
96,192,108233,1,0,0:0:0:0:
224,192,108383,128,0,108683:0:0:0:0:
416,192,108683,1,0,0:0:0:0:
96,192,108833,1,8,0:0:0:0:
352,192,108833,1,0,0:0:0:0:
224,192,108983,1,0,0:0:0:0:
288,192,109133,1,8,0:0:0:0:
352,192,109283,1,0,0:0:0:0:
416,192,109433,128,8,110033:0:0:0:0:
96,192,109433,1,0,0:0:0:0:
288,192,109733,1,8,0:0:0:0:
224,192,110033,1,8,0:0:0:0:
96,192,110183,1,0,0:0:0:0:
160,192,110258,1,0,0:0:0:0:
224,192,110333,1,8,0:0:0:0:
352,192,110483,1,0,0:0:0:0:
416,192,110633,1,8,0:0:0:0:
160,192,110633,1,0,0:0:0:0:
288,192,110783,128,0,111083:0:0:0:0:
352,192,111083,1,0,0:0:0:0:
224,192,111233,1,8,0:0:0:0:
96,192,111233,1,0,0:0:0:0:
352,192,111383,1,8,0:0:0:0:
480,192,111533,1,4,0:0:0:0:
288,192,111533,1,0,0:0:0:0:
224,192,111833,1,4,0:0:0:0:
416,192,111833,1,0,0:0:0:0:
352,192,112133,1,4,0:0:0:0:
160,192,112133,1,0,0:0:0:0:
32,192,112433,1,0,0:0:0:0:
32,192,112583,1,0,0:0:0:0:
224,192,112733,1,4,0:0:0:0:
352,192,112733,1,0,0:0:0:0:
288,192,112883,1,0,0:0:0:0:
352,192,113033,1,8,0:0:0:0:
160,192,113033,1,0,0:0:0:0:
416,192,113183,128,0,113483:0:0:0:0:
96,192,113333,1,8,0:0:0:0:
288,192,113483,1,0,0:0:0:0:
160,192,113633,1,8,0:0:0:0:
288,192,113783,1,0,0:0:0:0:
224,192,113933,1,4,0:0:0:0:
96,192,113933,1,0,0:0:0:0:
288,192,114083,1,0,0:0:0:0:
416,192,114083,1,0,0:0:0:0:
96,192,114233,1,8,0:0:0:0:
224,192,114233,1,0,0:0:0:0:
288,192,114383,1,0,0:0:0:0:
416,192,114383,1,0,0:0:0:0:
96,192,114533,1,8,0:0:0:0:
224,192,114533,1,0,0:0:0:0:
288,192,114683,1,0,0:0:0:0:
416,192,114683,1,0,0:0:0:0:
96,192,114833,1,8,0:0:0:0:
224,192,114833,1,0,0:0:0:0:
288,192,114983,128,0,115733:0:0:0:0:
416,192,114983,128,0,115733:0:0:0:0:
224,192,115733,128,8,116333:0:0:0:0:
96,192,115733,128,0,116333:0:0:0:0:
224,192,116483,1,4,0:0:0:0:
96,192,116483,1,0,0:0:0:0:
480,192,116633,1,4,0:0:0:0:
288,192,116633,1,0,0:0:0:0:
224,192,116783,1,4,0:0:0:0:
96,192,116783,1,0,0:0:0:0:
480,192,116933,1,4,0:0:0:0:
288,192,116933,1,0,0:0:0:0:
416,192,117083,1,4,0:0:0:0:
224,192,117083,1,0,0:0:0:0:
352,192,117233,1,4,0:0:0:0:
160,192,117233,1,0,0:0:0:0:
288,192,117383,1,4,0:0:0:0:
96,192,117383,1,0,0:0:0:0:
32,192,117383,1,0,0:0:0:0:
