osu file format v14

[General]
AudioFilename: t.mp3
AudioLeadIn: 0
PreviewTime: 54835
Countdown: 0
SampleSet: Soft
StackLeniency: 0.7
Mode: 3
LetterboxInBreaks: 0
SpecialStyle: 0
WidescreenStoryboard: 1

[Editor]
DistanceSpacing: 1.3
BeatDivisor: 4
GridSize: 4
TimelineZoom: 1.4

[Metadata]
Title:Homeneko*Sensation
TitleUnicode:ホメ猫☆センセーション
Artist:P*Light feat. mow*2
ArtistUnicode:P*Light feat. mow*2
Creator:victorica_db
Version:4K Hard
Source:SOUND VOLTEX III GRAVITY WARS
Tags:ZUN Team Shanghai Alice ティアオイエツォン(withered leaf) touhou youyoumu 東方妖々夢 ~ Perfect Cherry Blossom Chen BEMANI×東方Project Ultimate MasterPieces なすBeatStream DanceDanceRevolution DDR jubeat prop REFLEC BEAT groovin'!! Upper
BeatmapID:703723
BeatmapSetID:315350

[Difficulty]
HPDrainRate:7
CircleSize:4
OverallDifficulty:7
ApproachRate:5
SliderMultiplier:1.4
SliderTickRate:1

[Events]
//Background and Video events
0,0,"b.jpg",0,0
//Break Periods
//Storyboard Layer 0 (Background)
//Storyboard Layer 1 (Fail)
//Storyboard Layer 2 (Pass)
//Storyboard Layer 3 (Foreground)
//Storyboard Sound Samples

[TimingPoints]
2333,300,4,2,1,30,1,0
44333,-66.6666666666667,4,2,1,30,0,0
44483,-166.666666666667,4,2,1,30,0,0
44633,-66.6666666666667,4,2,1,30,0,0
44783,-166.666666666667,4,2,1,30,0,0
44933,-100,4,2,1,30,0,0
50333,-71.4285714285714,4,2,1,30,0,0
50483,-133.333333333333,4,2,1,30,0,0
50633,-71.4285714285714,4,2,1,30,0,0
50783,-133.333333333333,4,2,1,30,0,0
50933,-71.4285714285714,4,2,1,30,0,0
51083,-133.333333333333,4,2,1,30,0,0
51233,-71.4285714285714,4,2,1,30,0,0
51383,-133.333333333333,4,2,1,30,0,0
51533,-71.4285714285714,4,2,1,30,0,0
51683,-133.333333333333,4,2,1,30,0,0
51833,-71.4285714285714,4,2,1,30,0,0
51983,-133.333333333333,4,2,1,30,0,0
52133,-71.4285714285714,4,2,1,30,0,0
52283,-133.333333333333,4,2,1,30,0,0
52433,-71.4285714285714,4,2,1,30,0,0
52583,-133.333333333333,4,2,1,30,0,0
52733,-71.4285714285714,4,2,1,30,0,0
52883,-133.333333333333,4,2,1,30,0,0
53033,-71.4285714285714,4,2,1,30,0,0
53183,-133.333333333333,4,2,1,30,0,0
53333,-71.4285714285714,4,2,1,30,0,0
53408,-133.333333333333,4,2,1,30,0,0
53483,-66.6666666666667,4,2,1,30,0,0
53633,-142.857142857143,4,2,1,30,0,0
53783,-100,4,2,1,30,0,0
55133,-100,4,2,1,30,0,1
64433,-100,4,2,1,30,0,0
64733,-100,4,2,1,30,0,1
73133,-100,4,2,1,30,0,0
76733,-100,4,2,1,30,0,1
85133,-100,4,2,1,30,0,0
95933,-100,4,2,1,30,0,1
106583,-100,4,2,1,30,0,0
107933,-100,4,2,1,30,0,1
117383,-100,4,2,1,30,0,0

[HitObjects]
64,192,1133,128,0,2333:0:0:0:0:
320,192,2033,1,0,0:0:0:0:
448,192,2333,1,4,0:0:0:0:
192,192,2333,1,0,0:0:0:0:
320,192,2783,1,0,0:0:0:0:
448,192,3383,1,0,0:0:0:0:
64,192,3533,1,0,0:0:0:0:
192,192,3683,1,0,0:0:0:0:
448,192,3833,1,0,0:0:0:0:
320,192,3983,1,0,0:0:0:0:
192,192,4133,1,0,0:0:0:0:
64,192,4283,1,0,0:0:0:0:
192,192,4583,1,0,0:0:0:0:
320,192,4733,1,0,0:0:0:0:
64,192,5183,1,0,0:0:0:0:
64,192,5333,128,0,6383:0:0:0:0:
448,192,6383,1,0,0:0:0:0:
320,192,6433,1,0,0:0:0:0:
192,192,6483,1,0,0:0:0:0:
64,192,6533,1,0,0:0:0:0:
448,192,6608,1,0,0:0:0:0:
320,192,6758,1,0,0:0:0:0:
192,192,6908,1,0,0:0:0:0:
64,192,7133,1,4,0:0:0:0:
320,192,7133,1,0,0:0:0:0:
448,192,7133,1,0,0:0:0:0:
64,192,7433,1,0,0:0:0:0:
192,192,7733,1,0,0:0:0:0:
320,192,8033,1,0,0:0:0:0:
448,192,8183,1,4,0:0:0:0:
192,192,8183,1,0,0:0:0:0:
64,192,8183,1,0,0:0:0:0:
320,192,8333,1,0,0:0:0:0:
64,192,8633,1,0,0:0:0:0:
192,192,8933,1,0,0:0:0:0:
320,192,9083,1,0,0:0:0:0:
448,192,9233,1,0,0:0:0:0:
320,192,9383,1,0,0:0:0:0:
192,192,9533,1,4,0:0:0:0:
64,192,9533,1,0,0:0:0:0:
448,192,9533,1,0,0:0:0:0:
64,192,9983,1,4,0:0:0:0:
320,192,9983,1,0,0:0:0:0:
448,192,9983,1,0,0:0:0:0:
192,192,10433,1,4,0:0:0:0:
64,192,10433,1,0,0:0:0:0:
448,192,10433,1,0,0:0:0:0:
64,192,10733,1,4,0:0:0:0:
448,192,10733,1,0,0:0:0:0:
320,192,10733,1,0,0:0:0:0:
192,192,11333,1,0,0:0:0:0:
320,192,11408,1,0,0:0:0:0:
448,192,11483,1,0,0:0:0:0:
64,192,11633,1,0,0:0:0:0:
320,192,11633,1,0,0:0:0:0:
64,192,11933,1,4,0:0:0:0:
192,192,12083,1,0,0:0:0:0:
320,192,12233,128,8,12683:0:0:0:0:
64,192,12383,128,0,12683:0:0:0:0:
192,192,12683,1,0,0:0:0:0:
320,192,12833,1,8,0:0:0:0:
192,192,12983,1,0,0:0:0:0:
64,192,13133,1,8,0:0:0:0:
448,192,13133,128,0,14033:0:0:0:0:
64,192,13283,128,0,14033:0:0:0:0:
320,192,13433,128,8,14033:0:0:0:0:
192,192,13583,128,0,14033:0:0:0:0:
320,192,14183,1,0,0:0:0:0:
64,192,14333,1,8,0:0:0:0:
192,192,14483,1,0,0:0:0:0:
320,192,14633,1,8,0:0:0:0:
448,192,14783,128,0,15083:0:0:0:0:
64,192,15083,1,0,0:0:0:0:
192,192,15233,1,8,0:0:0:0:
448,192,15233,1,0,0:0:0:0:
64,192,15383,1,8,0:0:0:0:
320,192,15383,1,0,0:0:0:0:
448,192,15533,128,4,16433:0:0:0:0:
320,192,15533,1,0,0:0:0:0:
320,192,15833,128,4,16433:0:0:0:0:
192,192,15833,1,0,0:0:0:0:
192,192,16133,128,4,16433:0:0:0:0:
64,192,16133,1,0,0:0:0:0:
64,192,16733,1,4,0:0:0:0:
320,192,16733,1,0,0:0:0:0:
448,192,16733,1,0,0:0:0:0:
192,192,16883,1,0,0:0:0:0:
320,192,17033,1,8,0:0:0:0:
448,192,17183,128,0,17483:0:0:0:0:
192,192,17483,1,0,0:0:0:0:
64,192,17633,1,8,0:0:0:0:
192,192,17783,1,0,0:0:0:0:
448,192,17933,1,4,0:0:0:0:
192,192,18083,1,0,0:0:0:0:
448,192,18233,1,8,0:0:0:0:
192,192,18383,1,0,0:0:0:0:
448,192,18533,1,8,0:0:0:0:
192,192,18683,1,0,0:0:0:0:
448,192,18833,1,8,0:0:0:0:
192,192,18983,128,0,20333:0:0:0:0:
448,192,19133,1,4,0:0:0:0:
448,192,19733,128,4,20333:0:0:0:0:
320,192,19733,1,0,0:0:0:0:
320,192,20333,1,8,0:0:0:0:
192,192,20483,1,0,0:0:0:0:
64,192,20633,1,0,0:0:0:0:
192,192,20783,1,0,0:0:0:0:
320,192,20933,1,0,0:0:0:0:
448,192,21083,1,0,0:0:0:0:
192,192,21083,1,0,0:0:0:0:
64,192,21233,1,0,0:0:0:0:
320,192,21233,128,0,21533:0:0:0:0:
64,192,21533,1,4,0:0:0:0:
192,192,21533,1,0,0:0:0:0:
320,192,21683,1,0,0:0:0:0:
192,192,21833,1,8,0:0:0:0:
448,192,21833,1,0,0:0:0:0:
320,192,21983,1,0,0:0:0:0:
64,192,22133,1,8,0:0:0:0:
192,192,22133,1,0,0:0:0:0:
320,192,22283,1,0,0:0:0:0:
192,192,22433,1,8,0:0:0:0:
448,192,22433,1,0,0:0:0:0:
320,192,22583,1,0,0:0:0:0:
192,192,22733,1,8,0:0:0:0:
448,192,22733,1,0,0:0:0:0:
64,192,22883,1,0,0:0:0:0:
320,192,23033,1,8,0:0:0:0:
448,192,23033,1,0,0:0:0:0:
192,192,23183,1,0,0:0:0:0:
64,192,23333,1,8,0:0:0:0:
320,192,23333,1,0,0:0:0:0:
448,192,23483,1,0,0:0:0:0:
320,192,23633,1,8,0:0:0:0:
64,192,23633,1,0,0:0:0:0:
192,192,23783,1,0,0:0:0:0:
64,192,23933,1,8,0:0:0:0:
448,192,23933,1,0,0:0:0:0:
320,192,24083,1,0,0:0:0:0:
192,192,24233,1,8,0:0:0:0:
64,192,24233,1,0,0:0:0:0:
320,192,24383,1,0,0:0:0:0:
192,192,24533,1,8,0:0:0:0:
448,192,24533,1,0,0:0:0:0:
320,192,24683,1,0,0:0:0:0:
448,192,24833,1,8,0:0:0:0:
192,192,24833,1,0,0:0:0:0:
320,192,24983,1,0,0:0:0:0:
64,192,25133,1,8,0:0:0:0:
448,192,25133,1,0,0:0:0:0:
192,192,25283,1,0,0:0:0:0:
320,192,25433,1,8,0:0:0:0:
448,192,25433,1,0,0:0:0:0:
64,192,25583,1,0,0:0:0:0:
320,192,25733,1,8,0:0:0:0:
448,192,25733,1,0,0:0:0:0:
64,192,25883,1,0,0:0:0:0:
192,192,26033,1,8,0:0:0:0:
448,192,26033,1,0,0:0:0:0:
320,192,26183,1,0,0:0:0:0:
64,192,26333,1,8,0:0:0:0:
448,192,26333,1,0,0:0:0:0:
320,192,26483,1,0,0:0:0:0:
192,192,26633,1,8,0:0:0:0:
64,192,26633,1,0,0:0:0:0:
448,192,26783,1,0,0:0:0:0:
192,192,26933,1,8,0:0:0:0:
64,192,26933,1,0,0:0:0:0:
448,192,27083,1,0,0:0:0:0:
64,192,27233,1,8,0:0:0:0:
320,192,27233,1,0,0:0:0:0:
192,192,27383,1,0,0:0:0:0:
64,192,27533,1,8,0:0:0:0:
448,192,27533,1,0,0:0:0:0:
320,192,27683,1,0,0:0:0:0:
192,192,27833,1,8,0:0:0:0:
64,192,27833,1,0,0:0:0:0:
448,192,27983,1,0,0:0:0:0:
64,192,28133,1,8,0:0:0:0:
320,192,28133,1,0,0:0:0:0:
448,192,28283,1,0,0:0:0:0:
320,192,28433,1,8,0:0:0:0:
192,192,28433,1,0,0:0:0:0:
64,192,28583,1,0,0:0:0:0:
192,192,28733,1,8,0:0:0:0:
448,192,28733,1,0,0:0:0:0:
320,192,28883,1,0,0:0:0:0:
192,192,29033,1,8,0:0:0:0:
64,192,29033,1,0,0:0:0:0:
320,192,29183,1,0,0:0:0:0:
192,192,29333,1,8,0:0:0:0:
448,192,29333,1,0,0:0:0:0:
64,192,29483,1,0,0:0:0:0:
448,192,29633,1,8,0:0:0:0:
192,192,29633,1,0,0:0:0:0:
448,192,29783,1,0,0:0:0:0:
192,192,29783,1,0,0:0:0:0:
64,192,29933,1,4,0:0:0:0:
192,192,29933,1,0,0:0:0:0:
448,192,30083,1,0,0:0:0:0:
320,192,30083,1,0,0:0:0:0:
64,192,30233,1,4,0:0:0:0:
192,192,30233,1,0,0:0:0:0:
448,192,30383,1,0,0:0:0:0:
320,192,30383,1,0,0:0:0:0:
64,192,30533,1,4,0:0:0:0:
192,192,30533,1,0,0:0:0:0:
448,192,30683,1,0,0:0:0:0:
320,192,30683,1,0,0:0:0:0:
192,192,30758,1,0,0:0:0:0:
64,192,30833,1,0,0:0:0:0:
192,192,30908,1,0,0:0:0:0:
320,192,30983,1,0,0:0:0:0:
192,192,31058,1,0,0:0:0:0:
64,192,31133,128,4,31733:0:0:0:0:
448,192,31133,1,0,0:0:0:0:
320,192,31433,1,8,0:0:0:0:
448,192,31733,1,8,0:0:0:0:
320,192,31883,128,0,32033:0:0:0:0:
192,192,32033,128,8,32183:0:0:0:0:
448,192,32033,1,0,0:0:0:0:
64,192,32183,128,0,32333:0:0:0:0:
448,192,32333,128,8,32783:0:0:0:0:
320,192,32333,1,0,0:0:0:0:
192,192,32633,1,8,0:0:0:0:
64,192,32783,128,0,32933:0:0:0:0:
320,192,32933,1,8,0:0:0:0:
192,192,33233,1,8,0:0:0:0:
448,192,33233,128,0,33533:0:0:0:0:
64,192,33533,128,8,34133:0:0:0:0:
320,192,33533,1,0,0:0:0:0:
448,192,33833,1,2,0:0:0:0:
192,192,34133,1,8,0:0:0:0:
320,192,34283,128,0,34433:0:0:0:0:
192,192,34433,128,8,34583:0:0:0:0:
64,192,34433,1,0,0:0:0:0:
448,192,34583,128,0,34733:0:0:0:0:
320,192,34733,1,8,0:0:0:0:
320,192,34883,128,0,35033:0:0:0:0:
64,192,35033,1,8,0:0:0:0:
192,192,35183,128,0,35333:0:0:0:0:
320,192,35333,1,8,0:0:0:0:
64,192,35483,128,0,35633:0:0:0:0:
448,192,35633,1,8,0:0:0:0:
64,192,35933,1,4,0:0:0:0:
320,192,35933,1,0,0:0:0:0:
192,192,36233,1,8,0:0:0:0:
320,192,36533,1,8,0:0:0:0:
64,192,36683,128,0,36833:0:0:0:0:
448,192,36833,1,8,0:0:0:0:
192,192,36833,128,0,36983:0:0:0:0:
320,192,36983,128,0,37133:0:0:0:0:
192,192,37133,1,4,0:0:0:0:
448,192,37133,1,0,0:0:0:0:
64,192,37133,128,0,37433:0:0:0:0:
192,192,37433,1,8,0:0:0:0:
320,192,37433,128,0,37583:0:0:0:0:
448,192,37583,128,0,37883:0:0:0:0:
64,192,37733,1,8,0:0:0:0:
192,192,37883,128,0,38033:0:0:0:0:
64,192,38033,1,8,0:0:0:0:
320,192,38183,128,0,38333:0:0:0:0:
448,192,38333,128,4,39533:0:0:0:0:
192,192,38333,1,0,0:0:0:0:
64,192,38333,1,0,0:0:0:0:
320,192,38633,1,8,0:0:0:0:
64,192,38933,1,4,0:0:0:0:
320,192,38933,1,0,0:0:0:0:
192,192,39233,1,8,0:0:0:0:
320,192,39533,1,4,0:0:0:0:
64,192,39533,1,0,0:0:0:0:
192,192,39533,128,0,39683:0:0:0:0:
320,192,39983,128,0,40133:0:0:0:0:
64,192,40433,1,0,0:0:0:0:
320,192,40433,1,0,0:0:0:0:
448,192,40433,128,0,40733:0:0:0:0:
64,192,40733,1,4,0:0:0:0:
320,192,40733,1,0,0:0:0:0:
192,192,41333,1,0,0:0:0:0:
448,192,41333,1,0,0:0:0:0:
64,192,41933,1,8,0:0:0:0:
192,192,42233,1,8,0:0:0:0:
448,192,42533,1,0,0:0:0:0:
320,192,42533,1,0,0:0:0:0:
320,192,43133,1,8,0:0:0:0:
64,192,43733,1,0,0:0:0:0:
448,192,43733,1,0,0:0:0:0:
64,192,44033,1,8,0:0:0:0:
64,192,44183,1,8,0:0:0:0:
192,192,44333,1,4,0:0:0:0:
448,192,44333,1,0,0:0:0:0:
320,192,44633,1,4,0:0:0:0:
64,192,44633,1,0,0:0:0:0:
64,192,44933,1,4,0:0:0:0:
192,192,44933,1,0,0:0:0:0:
64,192,45533,1,4,0:0:0:0:
448,192,45533,1,0,0:0:0:0:
320,192,45533,1,0,0:0:0:0:
192,192,45683,1,0,0:0:0:0:
320,192,45833,1,8,0:0:0:0:
448,192,45833,1,0,0:0:0:0:
192,192,45983,1,0,0:0:0:0:
64,192,46133,1,8,0:0:0:0:
320,192,46133,1,0,0:0:0:0:
448,192,46283,1,0,0:0:0:0:
320,192,46433,1,8,0:0:0:0:
192,192,46433,1,0,0:0:0:0:
448,192,46583,1,0,0:0:0:0:
320,192,46733,1,8,0:0:0:0:
64,192,46733,1,0,0:0:0:0:
192,192,46883,1,0,0:0:0:0:
320,192,47033,1,8,0:0:0:0:
448,192,47033,1,0,0:0:0:0:
192,192,47183,1,0,0:0:0:0:
64,192,47333,1,8,0:0:0:0:
320,192,47333,1,0,0:0:0:0:
192,192,47483,1,0,0:0:0:0:
320,192,47633,1,8,0:0:0:0:
448,192,47633,1,0,0:0:0:0:
64,192,47783,1,4,0:0:0:0:
448,192,47783,1,0,0:0:0:0:
64,192,48233,1,8,0:0:0:0:
448,192,48233,1,0,0:0:0:0:
320,192,48383,1,0,0:0:0:0:
192,192,48533,1,8,0:0:0:0:
64,192,48533,1,0,0:0:0:0:
320,192,48683,1,0,0:0:0:0:
448,192,48833,1,8,0:0:0:0:
192,192,48833,1,0,0:0:0:0:
320,192,48983,1,0,0:0:0:0:
192,192,49133,1,4,0:0:0:0:
64,192,49133,1,0,0:0:0:0:
320,192,49283,1,0,0:0:0:0:
192,192,49433,1,8,0:0:0:0:
448,192,49433,1,0,0:0:0:0:
64,192,49583,1,0,0:0:0:0:
192,192,49733,1,8,0:0:0:0:
320,192,49733,1,0,0:0:0:0:
448,192,49883,1,0,0:0:0:0:
64,192,50033,1,8,0:0:0:0:
192,192,50033,1,0,0:0:0:0:
320,192,50183,1,0,0:0:0:0:
448,192,50333,1,4,0:0:0:0:
192,192,50333,1,0,0:0:0:0:
192,192,50633,1,8,0:0:0:0:
448,192,50633,1,0,0:0:0:0:
192,192,50933,1,4,0:0:0:0:
64,192,50933,1,0,0:0:0:0:
64,192,51233,1,8,0:0:0:0:
192,192,51233,1,0,0:0:0:0:
64,192,51533,1,4,0:0:0:0:
448,192,51533,1,0,0:0:0:0:
64,192,51833,1,8,0:0:0:0:
448,192,51833,1,0,0:0:0:0:
192,192,52133,1,4,0:0:0:0:
320,192,52133,1,0,0:0:0:0:
192,192,52433,1,8,0:0:0:0:
320,192,52433,1,0,0:0:0:0:
192,192,52733,1,4,0:0:0:0:
448,192,52733,1,0,0:0:0:0:
192,192,53033,1,4,0:0:0:0:
448,192,53033,1,0,0:0:0:0:
320,192,53333,1,4,0:0:0:0:
64,192,53333,1,0,0:0:0:0:
192,192,53483,1,4,0:0:0:0:
448,192,53483,1,0,0:0:0:0:
64,192,53783,1,8,0:0:0:0:
448,192,53783,1,0,0:0:0:0:
320,192,53933,1,0,0:0:0:0:
192,192,54083,1,0,0:0:0:0:
64,192,54233,1,0,0:0:0:0:
192,192,54383,1,0,0:0:0:0:
320,192,54533,1,0,0:0:0:0:
448,192,54683,1,0,0:0:0:0:
320,192,54833,1,0,0:0:0:0:
64,192,54833,128,0,55133:0:0:0:0:
448,192,55133,1,4,0:0:0:0:
192,192,55133,1,0,0:0:0:0:
192,192,55283,1,0,0:0:0:0:
64,192,55433,1,8,0:0:0:0:
320,192,55433,1,0,0:0:0:0:
192,192,55583,1,0,0:0:0:0:
448,192,55733,1,8,0:0:0:0:
64,192,55733,1,0,0:0:0:0:
320,192,55883,1,0,0:0:0:0:
192,192,56033,1,8,0:0:0:0:
64,192,56033,1,0,0:0:0:0:
320,192,56183,1,0,0:0:0:0:
64,192,56333,1,8,0:0:0:0:
192,192,56333,1,0,0:0:0:0:
320,192,56483,1,0,0:0:0:0:
192,192,56633,1,8,0:0:0:0:
448,192,56633,1,0,0:0:0:0:
320,192,56783,1,0,0:0:0:0:
64,192,56933,1,8,0:0:0:0:
192,192,56933,1,0,0:0:0:0:
320,192,57083,1,0,0:0:0:0:
64,192,57233,1,8,0:0:0:0:
192,192,57233,1,0,0:0:0:0:
320,192,57383,1,0,0:0:0:0:
192,192,57533,1,8,0:0:0:0:
448,192,57533,1,0,0:0:0:0:
64,192,57683,1,0,0:0:0:0:
320,192,57833,1,8,0:0:0:0:
192,192,57833,1,0,0:0:0:0:
448,192,57983,1,0,0:0:0:0:
64,192,58133,1,8,0:0:0:0:
320,192,58133,1,0,0:0:0:0:
192,192,58283,1,0,0:0:0:0:
320,192,58433,1,8,0:0:0:0:
448,192,58433,1,0,0:0:0:0:
320,192,58583,1,0,0:0:0:0:
64,192,58733,1,8,0:0:0:0:
192,192,58733,1,0,0:0:0:0:
448,192,58883,1,0,0:0:0:0:
320,192,58883,1,0,0:0:0:0:
64,192,59033,1,8,0:0:0:0:
192,192,59033,1,0,0:0:0:0:
448,192,59183,1,0,0:0:0:0:
320,192,59183,1,0,0:0:0:0:
192,192,59333,1,8,0:0:0:0:
64,192,59333,1,0,0:0:0:0:
320,192,59483,1,0,0:0:0:0:
448,192,59633,1,8,0:0:0:0:
64,192,59633,1,0,0:0:0:0:
320,192,59783,1,8,0:0:0:0:
64,192,59783,1,0,0:0:0:0:
192,192,59933,1,4,0:0:0:0:
448,192,59933,1,0,0:0:0:0:
64,192,59933,1,0,0:0:0:0:
320,192,60083,1,0,0:0:0:0:
64,192,60233,1,8,0:0:0:0:
192,192,60233,1,0,0:0:0:0:
320,192,60383,1,0,0:0:0:0:
192,192,60533,1,8,0:0:0:0:
448,192,60533,1,0,0:0:0:0:
320,192,60683,1,0,0:0:0:0:
192,192,60833,1,8,0:0:0:0:
448,192,60833,1,0,0:0:0:0:
64,192,60983,1,4,0:0:0:0:
320,192,60983,1,0,0:0:0:0:
448,192,60983,1,0,0:0:0:0:
192,192,61283,1,0,0:0:0:0:
192,192,61433,1,0,0:0:0:0:
448,192,61433,1,8,0:0:0:0:
320,192,61583,1,0,0:0:0:0:
64,192,61733,1,8,0:0:0:0:
192,192,61733,1,0,0:0:0:0:
448,192,61883,1,0,0:0:0:0:
320,192,62033,1,8,0:0:0:0:
64,192,62033,1,0,0:0:0:0:
192,192,62183,1,8,0:0:0:0:
320,192,62183,1,0,0:0:0:0:
64,192,62333,1,4,0:0:0:0:
448,192,62333,1,0,0:0:0:0:
64,192,62633,1,4,0:0:0:0:
320,192,62633,1,0,0:0:0:0:
192,192,62783,1,4,0:0:0:0:
448,192,62783,1,0,0:0:0:0:
192,192,63083,1,4,0:0:0:0:
448,192,63083,1,0,0:0:0:0:
320,192,63383,1,4,0:0:0:0:
64,192,63383,1,0,0:0:0:0:
448,192,63683,1,4,0:0:0:0:
320,192,63683,1,0,0:0:0:0:
192,192,63833,1,4,0:0:0:0:
64,192,63833,1,0,0:0:0:0:
64,192,64133,1,0,0:0:0:0:
192,192,64208,1,0,0:0:0:0:
320,192,64283,1,0,0:0:0:0:
192,192,64358,1,0,0:0:0:0:
448,192,64433,128,0,64733:0:0:0:0:
64,192,64433,1,0,0:0:0:0:
64,192,64733,1,4,0:0:0:0:
192,192,64733,1,0,0:0:0:0:
320,192,64883,1,0,0:0:0:0:
192,192,65033,1,8,0:0:0:0:
448,192,65033,1,0,0:0:0:0:
320,192,65183,1,0,0:0:0:0:
192,192,65333,1,8,0:0:0:0:
64,192,65333,1,0,0:0:0:0:
320,192,65483,1,0,0:0:0:0:
192,192,65633,1,8,0:0:0:0:
448,192,65633,1,0,0:0:0:0:
64,192,65783,1,0,0:0:0:0:
320,192,65933,1,8,0:0:0:0:
448,192,65933,1,0,0:0:0:0:
192,192,66083,1,0,0:0:0:0:
64,192,66233,1,8,0:0:0:0:
448,192,66233,1,0,0:0:0:0:
320,192,66383,1,0,0:0:0:0:
192,192,66533,1,8,0:0:0:0:
64,192,66533,1,0,0:0:0:0:
320,192,66683,1,0,0:0:0:0:
448,192,66833,1,8,0:0:0:0:
64,192,66833,1,0,0:0:0:0:
192,192,66983,1,0,0:0:0:0:
64,192,67133,1,8,0:0:0:0:
320,192,67133,1,0,0:0:0:0:
448,192,67283,1,0,0:0:0:0:
320,192,67433,1,8,0:0:0:0:
64,192,67433,1,0,0:0:0:0:
192,192,67583,1,0,0:0:0:0:
64,192,67733,1,8,0:0:0:0:
320,192,67733,1,0,0:0:0:0:
448,192,67883,1,0,0:0:0:0:
64,192,68033,1,8,0:0:0:0:
192,192,68033,1,0,0:0:0:0:
320,192,68183,1,0,0:0:0:0:
448,192,68333,1,8,0:0:0:0:
192,192,68333,1,0,0:0:0:0:
320,192,68483,1,0,0:0:0:0:
192,192,68633,1,8,0:0:0:0:
64,192,68633,1,0,0:0:0:0:
320,192,68783,1,0,0:0:0:0:
448,192,68933,1,8,0:0:0:0:
192,192,68933,1,0,0:0:0:0:
320,192,69083,1,0,0:0:0:0:
448,192,69233,1,8,0:0:0:0:
192,192,69233,1,0,0:0:0:0:
192,192,69383,1,8,0:0:0:0:
320,192,69383,1,0,0:0:0:0:
192,192,69533,1,4,0:0:0:0:
64,192,69533,1,0,0:0:0:0:
448,192,69533,1,0,0:0:0:0:
320,192,69608,1,0,0:0:0:0:
192,192,69683,1,0,0:0:0:0:
64,192,69758,1,0,0:0:0:0:
192,192,69833,1,8,0:0:0:0:
320,192,69908,1,0,0:0:0:0:
448,192,69983,1,0,0:0:0:0:
320,192,70058,1,0,0:0:0:0:
192,192,70133,1,8,0:0:0:0:
64,192,70208,1,0,0:0:0:0:
192,192,70283,1,0,0:0:0:0:
320,192,70358,1,0,0:0:0:0:
448,192,70433,1,8,0:0:0:0:
64,192,70508,1,0,0:0:0:0:
192,192,70583,1,0,0:0:0:0:
320,192,70658,1,0,0:0:0:0:
448,192,70733,1,4,0:0:0:0:
320,192,70808,1,0,0:0:0:0:
192,192,70883,1,0,0:0:0:0:
320,192,70958,1,0,0:0:0:0:
192,192,71033,1,8,0:0:0:0:
64,192,71108,1,0,0:0:0:0:
192,192,71183,1,0,0:0:0:0:
320,192,71258,1,0,0:0:0:0:
448,192,71333,1,8,0:0:0:0:
320,192,71408,1,0,0:0:0:0:
192,192,71483,1,0,0:0:0:0:
64,192,71558,1,0,0:0:0:0:
448,192,71633,1,8,0:0:0:0:
320,192,71708,1,0,0:0:0:0:
192,192,71783,1,0,0:0:0:0:
64,192,71858,1,0,0:0:0:0:
192,192,71933,1,4,0:0:0:0:
320,192,72008,1,0,0:0:0:0:
192,192,72083,1,0,0:0:0:0:
320,192,72158,1,0,0:0:0:0:
448,192,72233,1,4,0:0:0:0:
320,192,72308,1,0,0:0:0:0:
192,192,72383,1,4,0:0:0:0:
64,192,72458,1,0,0:0:0:0:
448,192,72533,1,0,0:0:0:0:
320,192,72608,1,0,0:0:0:0:
192,192,72683,1,4,0:0:0:0:
64,192,72758,1,0,0:0:0:0:
448,192,72833,1,0,0:0:0:0:
320,192,72908,1,0,0:0:0:0:
192,192,72983,1,0,0:0:0:0:
320,192,73058,1,0,0:0:0:0:
448,192,73133,1,4,0:0:0:0:
64,192,73133,1,0,0:0:0:0:
64,192,73733,1,0,0:0:0:0:
192,192,73808,1,0,0:0:0:0:
320,192,73883,1,0,0:0:0:0:
64,192,74033,1,8,0:0:0:0:
448,192,74033,128,0,74333:0:0:0:0:
64,192,74333,1,4,0:0:0:0:
320,192,74333,1,0,0:0:0:0:
64,192,74633,1,0,0:0:0:0:
320,192,74933,1,4,0:0:0:0:
320,192,75233,1,0,0:0:0:0:
192,192,75533,1,4,0:0:0:0:
192,192,75683,1,0,0:0:0:0:
64,192,75833,1,4,0:0:0:0:
64,192,75983,1,0,0:0:0:0:
448,192,76133,1,4,0:0:0:0:
320,192,76208,1,0,0:0:0:0:
192,192,76283,1,0,0:0:0:0:
320,192,76358,1,0,0:0:0:0:
448,192,76433,1,0,0:0:0:0:
64,192,76433,128,0,76733:0:0:0:0:
192,192,76733,1,4,0:0:0:0:
320,192,76733,1,0,0:0:0:0:
64,192,77033,1,8,0:0:0:0:
448,192,77333,1,8,0:0:0:0:
320,192,77483,1,0,0:0:0:0:
192,192,77633,1,8,0:0:0:0:
64,192,77783,1,0,0:0:0:0:
320,192,78083,1,0,0:0:0:0:
448,192,78383,1,0,0:0:0:0:
64,192,78533,128,8,78683:0:0:0:0:
320,192,78683,128,0,78833:0:0:0:0:
64,192,78833,128,8,78983:0:0:0:0:
320,192,78983,128,0,79133:0:0:0:0:
64,192,79133,1,8,0:0:0:0:
320,192,79433,1,8,0:0:0:0:
64,192,79733,1,8,0:0:0:0:
192,192,79883,1,0,0:0:0:0:
320,192,80033,1,8,0:0:0:0:
192,192,80183,1,0,0:0:0:0:
320,192,80483,1,0,0:0:0:0:
448,192,80783,1,0,0:0:0:0:
64,192,80933,1,8,0:0:0:0:
192,192,81008,1,0,0:0:0:0:
320,192,81083,1,0,0:0:0:0:
192,192,81158,1,0,0:0:0:0:
64,192,81233,1,8,0:0:0:0:
192,192,81383,1,8,0:0:0:0:
448,192,81383,1,0,0:0:0:0:
320,192,81533,1,4,0:0:0:0:
64,192,81533,1,0,0:0:0:0:
448,192,81608,1,0,0:0:0:0:
320,192,81683,1,0,0:0:0:0:
192,192,81758,1,0,0:0:0:0:
64,192,81833,1,8,0:0:0:0:
448,192,81908,1,0,0:0:0:0:
320,192,81983,1,0,0:0:0:0:
192,192,82058,1,0,0:0:0:0:
64,192,82133,1,8,0:0:0:0:
448,192,82208,1,0,0:0:0:0:
320,192,82283,1,0,0:0:0:0:
192,192,82358,1,0,0:0:0:0:
64,192,82433,1,8,0:0:0:0:
192,192,82508,1,0,0:0:0:0:
320,192,82583,1,0,0:0:0:0:
448,192,82658,1,0,0:0:0:0:
320,192,82733,1,4,0:0:0:0:
192,192,82808,1,0,0:0:0:0:
64,192,82883,1,0,0:0:0:0:
192,192,82958,1,0,0:0:0:0:
320,192,83033,1,8,0:0:0:0:
448,192,83108,1,0,0:0:0:0:
64,192,83183,1,0,0:0:0:0:
192,192,83258,1,0,0:0:0:0:
320,192,83333,1,8,0:0:0:0:
448,192,83408,1,0,0:0:0:0:
64,192,83483,1,0,0:0:0:0:
192,192,83558,1,0,0:0:0:0:
320,192,83633,1,8,0:0:0:0:
448,192,83708,1,0,0:0:0:0:
320,192,83783,1,0,0:0:0:0:
192,192,83858,1,0,0:0:0:0:
64,192,83933,1,4,0:0:0:0:
192,192,84008,1,0,0:0:0:0:
320,192,84083,1,0,0:0:0:0:
448,192,84158,1,0,0:0:0:0:
320,192,84233,1,4,0:0:0:0:
192,192,84308,1,0,0:0:0:0:
64,192,84383,1,4,0:0:0:0:
448,192,84458,1,0,0:0:0:0:
320,192,84533,1,0,0:0:0:0:
192,192,84608,1,0,0:0:0:0:
64,192,84683,1,4,0:0:0:0:
448,192,84758,1,0,0:0:0:0:
320,192,84833,1,0,0:0:0:0:
192,192,84908,1,0,0:0:0:0:
64,192,84983,1,4,0:0:0:0:
192,192,85058,1,0,0:0:0:0:
320,192,85133,1,4,0:0:0:0:
448,192,85133,1,0,0:0:0:0:
448,192,85733,1,0,0:0:0:0:
320,192,85808,1,0,0:0:0:0:
192,192,85883,1,0,0:0:0:0:
64,192,86033,1,0,0:0:0:0:
448,192,86033,1,0,0:0:0:0:
320,192,86333,1,8,0:0:0:0:
192,192,86783,1,0,0:0:0:0:
448,192,87383,1,0,0:0:0:0:
64,192,87533,1,0,0:0:0:0:
192,192,87683,1,0,0:0:0:0:
320,192,87833,1,0,0:0:0:0:
192,192,87983,1,0,0:0:0:0:
320,192,88133,1,0,0:0:0:0:
448,192,88283,1,0,0:0:0:0:
64,192,88583,1,0,0:0:0:0:
320,192,88733,1,0,0:0:0:0:
192,192,89183,1,0,0:0:0:0:
448,192,89333,1,0,0:0:0:0:
448,192,90383,1,0,0:0:0:0:
320,192,90433,1,0,0:0:0:0:
192,192,90483,1,0,0:0:0:0:
64,192,90533,1,0,0:0:0:0:
448,192,90608,1,0,0:0:0:0:
320,192,90758,1,0,0:0:0:0:
192,192,90908,1,0,0:0:0:0:
64,192,91133,1,4,0:0:0:0:
320,192,91133,1,0,0:0:0:0:
448,192,91133,1,0,0:0:0:0:
192,192,91433,1,0,0:0:0:0:
320,192,91733,1,0,0:0:0:0:
448,192,92033,1,0,0:0:0:0:
64,192,92183,1,0,0:0:0:0:
320,192,92183,1,4,0:0:0:0:
192,192,92333,1,0,0:0:0:0:
64,192,92633,1,0,0:0:0:0:
192,192,92933,1,0,0:0:0:0:
320,192,93083,1,0,0:0:0:0:
448,192,93233,1,0,0:0:0:0:
320,192,93383,1,0,0:0:0:0:
192,192,93533,1,4,0:0:0:0:
64,192,93533,1,0,0:0:0:0:
64,192,93983,1,4,0:0:0:0:
448,192,93983,1,0,0:0:0:0:
192,192,94283,1,4,0:0:0:0:
320,192,94283,1,0,0:0:0:0:
64,192,94583,1,4,0:0:0:0:
448,192,94583,1,0,0:0:0:0:
192,192,95333,1,0,0:0:0:0:
320,192,95408,1,0,0:0:0:0:
192,192,95483,1,0,0:0:0:0:
64,192,95633,1,0,0:0:0:0:
448,192,95633,1,0,0:0:0:0:
192,192,95933,1,4,0:0:0:0:
448,192,95933,1,0,0:0:0:0:
320,192,96083,1,0,0:0:0:0:
192,192,96233,1,8,0:0:0:0:
64,192,96233,1,0,0:0:0:0:
320,192,96383,1,0,0:0:0:0:
192,192,96533,1,8,0:0:0:0:
448,192,96533,1,0,0:0:0:0:
320,192,96683,1,0,0:0:0:0:
192,192,96833,1,8,0:0:0:0:
64,192,96833,1,0,0:0:0:0:
448,192,96983,1,0,0:0:0:0:
320,192,97133,1,8,0:0:0:0:
64,192,97133,1,0,0:0:0:0:
192,192,97283,1,0,0:0:0:0:
320,192,97433,1,8,0:0:0:0:
448,192,97433,1,0,0:0:0:0:
192,192,97583,1,0,0:0:0:0:
64,192,97733,1,8,0:0:0:0:
448,192,97733,1,0,0:0:0:0:
320,192,97883,1,0,0:0:0:0:
192,192,98033,1,8,0:0:0:0:
64,192,98033,1,0,0:0:0:0:
320,192,98183,1,0,0:0:0:0:
192,192,98333,1,8,0:0:0:0:
448,192,98333,1,0,0:0:0:0:
64,192,98483,1,0,0:0:0:0:
192,192,98633,1,8,0:0:0:0:
448,192,98633,1,0,0:0:0:0:
320,192,98783,1,0,0:0:0:0:
192,192,98933,1,8,0:0:0:0:
64,192,98933,1,0,0:0:0:0:
320,192,99083,1,0,0:0:0:0:
192,192,99233,1,8,0:0:0:0:
448,192,99233,1,0,0:0:0:0:
320,192,99383,1,0,0:0:0:0:
192,192,99533,1,8,0:0:0:0:
64,192,99533,1,0,0:0:0:0:
320,192,99683,1,0,0:0:0:0:
64,192,99833,1,8,0:0:0:0:
448,192,99833,1,0,0:0:0:0:
192,192,99983,1,0,0:0:0:0:
320,192,100133,1,8,0:0:0:0:
448,192,100133,1,0,0:0:0:0:
192,192,100283,1,0,0:0:0:0:
64,192,100433,1,8,0:0:0:0:
448,192,100433,1,0,0:0:0:0:
64,192,100583,1,8,0:0:0:0:
448,192,100583,1,0,0:0:0:0:
448,192,100733,1,4,0:0:0:0:
64,192,100733,1,0,0:0:0:0:
192,192,100733,1,0,0:0:0:0:
192,192,101033,1,8,0:0:0:0:
448,192,101033,1,0,0:0:0:0:
192,192,101333,1,8,0:0:0:0:
320,192,101333,1,0,0:0:0:0:
64,192,101633,1,8,0:0:0:0:
192,192,101633,1,0,0:0:0:0:
64,192,101933,1,4,0:0:0:0:
320,192,101933,1,0,0:0:0:0:
448,192,101933,1,0,0:0:0:0:
320,192,102233,1,8,0:0:0:0:
192,192,102233,1,0,0:0:0:0:
192,192,102533,1,8,0:0:0:0:
448,192,102533,1,0,0:0:0:0:
64,192,102833,1,8,0:0:0:0:
192,192,102833,1,0,0:0:0:0:
192,192,103133,1,4,0:0:0:0:
448,192,103133,1,0,0:0:0:0:
320,192,103133,1,0,0:0:0:0:
64,192,103433,1,4,0:0:0:0:
192,192,103433,1,0,0:0:0:0:
320,192,103433,1,0,0:0:0:0:
192,192,103583,1,4,0:0:0:0:
320,192,103583,1,0,0:0:0:0:
448,192,103583,1,0,0:0:0:0:
64,192,103883,1,4,0:0:0:0:
320,192,103883,1,0,0:0:0:0:
448,192,103883,1,0,0:0:0:0:
192,192,104183,1,4,0:0:0:0:
448,192,104183,1,0,0:0:0:0:
64,192,104183,1,0,0:0:0:0:
64,192,104333,1,4,0:0:0:0:
192,192,104333,1,0,0:0:0:0:
448,192,104333,1,0,0:0:0:0:
64,192,104633,1,4,0:0:0:0:
448,192,104633,1,0,0:0:0:0:
320,192,104633,1,0,0:0:0:0:
64,192,104783,1,4,0:0:0:0:
320,192,104783,1,0,0:0:0:0:
448,192,104783,1,0,0:0:0:0:
64,192,105083,1,4,0:0:0:0:
192,192,105083,1,0,0:0:0:0:
320,192,105083,1,0,0:0:0:0:
64,192,105383,1,4,0:0:0:0:
320,192,105383,1,0,0:0:0:0:
448,192,105383,1,0,0:0:0:0:
448,192,105533,1,4,0:0:0:0:
320,192,105533,1,0,0:0:0:0:
64,192,105533,1,0,0:0:0:0:
192,192,105683,1,8,0:0:0:0:
320,192,105833,1,4,0:0:0:0:
320,192,105983,1,8,0:0:0:0:
192,192,106133,1,4,0:0:0:0:
192,192,106283,1,8,0:0:0:0:
64,192,106433,1,4,0:0:0:0:
64,192,106583,1,4,0:0:0:0:
320,192,107333,1,0,0:0:0:0:
192,192,107408,1,0,0:0:0:0:
320,192,107483,1,0,0:0:0:0:
64,192,107633,1,0,0:0:0:0:
448,192,107633,1,0,0:0:0:0:
64,192,107933,1,8,0:0:0:0:
192,192,108083,1,0,0:0:0:0:
320,192,108233,1,8,0:0:0:0:
64,192,108233,1,0,0:0:0:0:
448,192,108383,128,0,108683:0:0:0:0:
320,192,108683,1,0,0:0:0:0:
192,192,108833,1,8,0:0:0:0:
64,192,108833,1,0,0:0:0:0:
320,192,108983,1,0,0:0:0:0:
448,192,109133,1,8,0:0:0:0:
320,192,109283,1,0,0:0:0:0:
192,192,109433,128,8,110033:0:0:0:0:
64,192,109433,1,0,0:0:0:0:
448,192,109883,1,0,0:0:0:0:
448,192,110033,1,8,0:0:0:0:
64,192,110183,1,0,0:0:0:0:
192,192,110258,1,0,0:0:0:0:
448,192,110333,1,8,0:0:0:0:
320,192,110483,1,0,0:0:0:0:
192,192,110633,1,8,0:0:0:0:
448,192,110633,1,0,0:0:0:0:
64,192,110783,128,0,111083:0:0:0:0:
448,192,111083,1,0,0:0:0:0:
320,192,111233,1,8,0:0:0:0:
64,192,111233,1,0,0:0:0:0:
192,192,111383,1,8,0:0:0:0:
320,192,111533,1,4,0:0:0:0:
448,192,111533,128,0,111833:0:0:0:0:
192,192,111833,1,4,0:0:0:0:
320,192,111833,128,0,112133:0:0:0:0:
192,192,112133,128,4,112433:0:0:0:0:
64,192,112133,1,0,0:0:0:0:
448,192,112283,1,0,0:0:0:0:
448,192,112433,1,0,0:0:0:0:
64,192,112733,1,4,0:0:0:0:
192,192,112883,1,0,0:0:0:0:
320,192,113033,1,8,0:0:0:0:
64,192,113033,1,0,0:0:0:0:
448,192,113183,128,0,113483:0:0:0:0:
64,192,113483,1,0,0:0:0:0:
64,192,113633,1,8,0:0:0:0:
320,192,113783,1,0,0:0:0:0:
192,192,113933,1,4,0:0:0:0:
64,192,113933,1,0,0:0:0:0:
320,192,114083,1,0,0:0:0:0:
448,192,114083,1,0,0:0:0:0:
64,192,114233,1,8,0:0:0:0:
192,192,114233,1,0,0:0:0:0:
320,192,114383,1,0,0:0:0:0:
448,192,114383,1,0,0:0:0:0:
64,192,114533,1,8,0:0:0:0:
192,192,114533,1,0,0:0:0:0:
320,192,114683,1,0,0:0:0:0:
448,192,114683,1,0,0:0:0:0:
64,192,114833,1,8,0:0:0:0:
192,192,114833,1,0,0:0:0:0:
320,192,114983,1,0,0:0:0:0:
448,192,114983,128,0,116333:0:0:0:0:
64,192,115433,1,8,0:0:0:0:
64,192,115733,128,8,116333:0:0:0:0:
320,192,116033,1,8,0:0:0:0:
192,192,116183,1,0,0:0:0:0:
64,192,116483,1,4,0:0:0:0:
448,192,116483,1,0,0:0:0:0:
192,192,116633,1,4,0:0:0:0:
320,192,116633,1,0,0:0:0:0:
448,192,116783,1,4,0:0:0:0:
64,192,116783,1,0,0:0:0:0:
320,192,116933,1,4,0:0:0:0:
192,192,116933,1,0,0:0:0:0:
64,192,117083,1,4,0:0:0:0:
192,192,117083,1,0,0:0:0:0:
64,192,117233,1,4,0:0:0:0:
320,192,117233,1,0,0:0:0:0:
448,192,117383,1,4,0:0:0:0:
64,192,117383,1,0,0:0:0:0:
