osu file format v14

[General]
AudioFilename: homeneko.mp3
AudioLeadIn: 0
PreviewTime: 54759
Countdown: 0
SampleSet: Soft
StackLeniency: 0.7
Mode: 3
LetterboxInBreaks: 0
SpecialStyle: 0
WidescreenStoryboard: 0

[Editor]
DistanceSpacing: 0.6
BeatDivisor: 8
GridSize: 8
TimelineZoom: 1.02

[Metadata]
Title:Homeneko sensation
TitleUnicode:ホメ猫☆センセーション
Artist:P*Light feat. mow*2
ArtistUnicode:P*Light feat. mow*2
Creator:[ ikka ]
Version:EXHAUST
Source:SOUND VOLTEX III GRAVITY WARS
Tags:東方 P*Light KONAMI SDVX BeatStream jubeat REFLECBEAT DanceDanceRevolution
BeatmapID:692470
BeatmapSetID:309793

[Difficulty]
HPDrainRate:8
CircleSize:4
OverallDifficulty:7
ApproachRate:5
SliderMultiplier:1.4
SliderTickRate:1

[Events]
//Background and Video events
0,0,"687474703a2f2f692e696d6775722e636f6d2f6d6272324a33522e706e67.png",0,0
//Break Periods
//Storyboard Layer 0 (Background)
//Storyboard Layer 1 (Fail)
//Storyboard Layer 2 (Pass)
//Storyboard Layer 3 (Foreground)
//Storyboard Sound Samples

[TimingPoints]
-66,300,4,2,0,100,1,0
55134,-100,4,2,0,100,0,1
74334,-100,4,2,0,100,0,0
95934,-100,4,2,0,100,0,1
107934,-100,4,2,0,100,0,0
116484,-100,4,2,0,100,0,1
117384,-100,4,2,0,100,0,0

[HitObjects]
64,192,2034,5,0,0:0:0:0:
192,192,2034,1,0,0:0:0:0:
320,192,2334,1,0,0:0:0:0:
448,192,2334,1,0,0:0:0:0:
64,192,2784,128,0,3384:0:0:0:0:
448,192,2784,128,0,3384:0:0:0:0:
192,192,3384,1,0,0:0:0:0:
320,192,3534,1,0,0:0:0:0:
448,192,3684,1,0,0:0:0:0:
64,192,3834,1,0,0:0:0:0:
192,192,3984,1,0,0:0:0:0:
320,192,4134,1,0,0:0:0:0:
64,192,4284,1,0,0:0:0:0:
192,192,4284,1,0,0:0:0:0:
192,192,4434,1,0,0:0:0:0:
320,192,4434,1,0,0:0:0:0:
320,192,4584,1,0,0:0:0:0:
448,192,4584,1,0,0:0:0:0:
64,192,4734,1,0,0:0:0:0:
192,192,4734,1,0,0:0:0:0:
64,192,5184,1,0,0:0:0:0:
192,192,5184,1,0,0:0:0:0:
320,192,5184,1,0,0:0:0:0:
448,192,5184,1,0,0:0:0:0:
64,192,5334,1,0,0:0:0:0:
448,192,5334,1,0,0:0:0:0:
192,192,5334,128,0,6384:0:0:0:0:
320,192,5334,128,0,6384:0:0:0:0:
448,192,5934,128,0,6384:0:0:0:0:
64,192,6384,1,0,0:0:0:0:
192,192,6434,1,0,0:0:0:0:
320,192,6484,1,0,0:0:0:0:
448,192,6534,1,0,0:0:0:0:
64,192,6634,1,0,0:0:0:0:
192,192,6634,1,0,0:0:0:0:
320,192,6759,1,0,0:0:0:0:
448,192,6759,1,0,0:0:0:0:
64,192,6909,1,0,0:0:0:0:
192,192,6909,1,0,0:0:0:0:
192,192,7134,1,0,0:0:0:0:
320,192,7134,1,0,0:0:0:0:
448,192,7134,1,0,0:0:0:0:
64,192,7134,128,0,8184:0:0:0:0:
448,192,7434,1,0,0:0:0:0:
320,192,7584,1,0,0:0:0:0:
320,192,7884,1,0,0:0:0:0:
448,192,7884,1,0,0:0:0:0:
192,192,8184,1,0,0:0:0:0:
320,192,8184,1,0,0:0:0:0:
448,192,8184,128,0,9534:0:0:0:0:
64,192,8484,1,0,0:0:0:0:
320,192,8634,1,0,0:0:0:0:
64,192,8784,1,0,0:0:0:0:
64,192,9084,1,0,0:0:0:0:
192,192,9084,1,0,0:0:0:0:
64,192,9234,1,0,0:0:0:0:
320,192,9234,1,0,0:0:0:0:
192,192,9384,1,0,0:0:0:0:
320,192,9384,1,0,0:0:0:0:
320,192,9534,1,0,0:0:0:0:
64,192,9534,1,0,0:0:0:0:
192,192,9534,128,0,10734:0:0:0:0:
64,192,9684,1,0,0:0:0:0:
320,192,9684,1,0,0:0:0:0:
448,192,9984,1,0,0:0:0:0:
64,192,10434,1,0,0:0:0:0:
64,192,10734,1,0,0:0:0:0:
320,192,10734,1,0,0:0:0:0:
448,192,10734,1,0,0:0:0:0:
64,192,10884,1,0,0:0:0:0:
320,192,10884,128,0,11184:0:0:0:0:
192,192,11184,1,0,0:0:0:0:
448,192,11184,1,0,0:0:0:0:
448,192,11334,1,0,0:0:0:0:
64,192,11334,1,0,0:0:0:0:
192,192,11409,1,0,0:0:0:0:
448,192,11484,1,0,0:0:0:0:
64,192,11484,1,0,0:0:0:0:
64,192,11634,1,0,0:0:0:0:
320,192,11634,1,0,0:0:0:0:
64,192,11784,1,0,0:0:0:0:
448,192,11784,1,0,0:0:0:0:
192,192,11934,1,0,0:0:0:0:
320,192,11934,1,0,0:0:0:0:
320,192,12084,1,0,0:0:0:0:
448,192,12234,1,0,0:0:0:0:
64,192,12234,1,0,0:0:0:0:
192,192,12384,128,0,12684:0:0:0:0:
64,192,12534,1,0,0:0:0:0:
320,192,12534,1,0,0:0:0:0:
448,192,12684,1,0,0:0:0:0:
320,192,12759,1,0,0:0:0:0:
448,192,12834,1,0,0:0:0:0:
64,192,12834,1,0,0:0:0:0:
320,192,12984,1,0,0:0:0:0:
64,192,13134,1,0,0:0:0:0:
192,192,13134,1,0,0:0:0:0:
192,192,13284,1,0,0:0:0:0:
64,192,13434,1,0,0:0:0:0:
448,192,13434,1,0,0:0:0:0:
320,192,13584,128,0,14034:0:0:0:0:
192,192,13734,1,0,0:0:0:0:
64,192,13734,1,0,0:0:0:0:
448,192,13884,1,0,0:0:0:0:
448,192,14034,1,0,0:0:0:0:
64,192,14034,1,0,0:0:0:0:
320,192,14184,128,0,14484:0:0:0:0:
448,192,14334,1,0,0:0:0:0:
64,192,14334,1,0,0:0:0:0:
192,192,14484,1,0,0:0:0:0:
192,192,14634,1,0,0:0:0:0:
448,192,14634,1,0,0:0:0:0:
64,192,14784,128,0,15084:0:0:0:0:
320,192,14934,1,0,0:0:0:0:
448,192,14934,1,0,0:0:0:0:
192,192,15084,1,0,0:0:0:0:
64,192,15159,1,0,0:0:0:0:
192,192,15234,1,0,0:0:0:0:
448,192,15234,1,0,0:0:0:0:
64,192,15384,1,0,0:0:0:0:
320,192,15534,1,0,0:0:0:0:
448,192,15534,1,0,0:0:0:0:
192,192,15834,1,0,0:0:0:0:
320,192,15834,1,0,0:0:0:0:
448,192,15834,1,0,0:0:0:0:
448,192,16134,1,0,0:0:0:0:
192,192,16134,1,0,0:0:0:0:
64,192,16134,1,0,0:0:0:0:
320,192,16134,1,0,0:0:0:0:
320,192,16434,128,0,16509:0:0:0:0:
448,192,16434,128,0,16509:0:0:0:0:
64,192,16509,128,0,16584:0:0:0:0:
192,192,16509,128,0,16584:0:0:0:0:
320,192,16584,128,0,16659:0:0:0:0:
448,192,16584,128,0,16659:0:0:0:0:
192,192,16659,128,0,16734:0:0:0:0:
64,192,16659,128,0,16734:0:0:0:0:
320,192,16734,1,0,0:0:0:0:
448,192,16734,1,0,0:0:0:0:
64,192,16884,1,0,0:0:0:0:
64,192,17034,1,0,0:0:0:0:
448,192,17034,1,0,0:0:0:0:
192,192,17184,128,0,17484:0:0:0:0:
64,192,17334,1,0,0:0:0:0:
320,192,17334,1,0,0:0:0:0:
448,192,17484,1,0,0:0:0:0:
320,192,17559,1,0,0:0:0:0:
448,192,17634,1,0,0:0:0:0:
64,192,17634,1,0,0:0:0:0:
448,192,17784,1,0,0:0:0:0:
64,192,17934,128,0,18084:0:0:0:0:
192,192,17934,128,0,18084:0:0:0:0:
320,192,18084,128,0,18234:0:0:0:0:
448,192,18084,128,0,18234:0:0:0:0:
64,192,18234,128,0,18384:0:0:0:0:
192,192,18234,128,0,18384:0:0:0:0:
320,192,18384,128,0,18534:0:0:0:0:
448,192,18384,128,0,18534:0:0:0:0:
64,192,18534,128,0,18684:0:0:0:0:
192,192,18534,128,0,18684:0:0:0:0:
320,192,18684,128,0,18834:0:0:0:0:
448,192,18684,128,0,18834:0:0:0:0:
192,192,18834,1,0,0:0:0:0:
64,192,18834,1,0,0:0:0:0:
192,192,18984,1,0,0:0:0:0:
320,192,19134,128,0,19734:0:0:0:0:
64,192,19134,1,0,0:0:0:0:
64,192,19284,1,0,0:0:0:0:
64,192,19434,1,0,0:0:0:0:
64,192,19584,1,0,0:0:0:0:
192,192,19734,128,0,20334:0:0:0:0:
448,192,19734,1,0,0:0:0:0:
448,192,19884,1,0,0:0:0:0:
448,192,20034,1,0,0:0:0:0:
448,192,20184,1,0,0:0:0:0:
320,192,20334,1,0,0:0:0:0:
64,192,20334,1,0,0:0:0:0:
64,192,20484,1,0,0:0:0:0:
192,192,20634,1,0,0:0:0:0:
448,192,20634,1,0,0:0:0:0:
192,192,20784,1,0,0:0:0:0:
320,192,20934,1,0,0:0:0:0:
64,192,20934,1,0,0:0:0:0:
64,192,21084,1,0,0:0:0:0:
192,192,21084,1,0,0:0:0:0:
448,192,21084,1,0,0:0:0:0:
320,192,21084,1,0,0:0:0:0:
448,192,21234,1,0,0:0:0:0:
320,192,21234,1,0,0:0:0:0:
192,192,21234,1,0,0:0:0:0:
64,192,21234,1,0,0:0:0:0:
64,192,21534,1,0,0:0:0:0:
64,192,21834,1,0,0:0:0:0:
320,192,21834,1,0,0:0:0:0:
192,192,21984,1,0,0:0:0:0:
320,192,22134,1,0,0:0:0:0:
64,192,22134,1,0,0:0:0:0:
448,192,22284,128,0,22584:0:0:0:0:
64,192,22434,1,0,0:0:0:0:
320,192,22584,128,0,22884:0:0:0:0:
64,192,22734,1,0,0:0:0:0:
192,192,22884,1,0,0:0:0:0:
320,192,23034,1,0,0:0:0:0:
64,192,23034,1,0,0:0:0:0:
320,192,23184,128,0,23634:0:0:0:0:
64,192,23334,1,0,0:0:0:0:
64,192,23634,1,0,0:0:0:0:
448,192,23634,1,0,0:0:0:0:
192,192,23934,1,0,0:0:0:0:
320,192,23934,1,0,0:0:0:0:
64,192,24234,1,0,0:0:0:0:
448,192,24234,1,0,0:0:0:0:
192,192,24534,1,0,0:0:0:0:
320,192,24534,1,0,0:0:0:0:
64,192,24684,128,0,24984:0:0:0:0:
448,192,24684,128,0,24984:0:0:0:0:
320,192,24984,1,0,0:0:0:0:
192,192,24984,1,0,0:0:0:0:
64,192,25134,1,0,0:0:0:0:
192,192,25209,1,0,0:0:0:0:
320,192,25284,1,0,0:0:0:0:
448,192,25359,1,0,0:0:0:0:
64,192,25434,1,0,0:0:0:0:
192,192,25509,1,0,0:0:0:0:
320,192,25584,1,0,0:0:0:0:
448,192,25659,1,0,0:0:0:0:
192,192,25734,128,0,26034:0:0:0:0:
64,192,25734,1,0,0:0:0:0:
64,192,25884,1,0,0:0:0:0:
320,192,26034,128,0,26334:0:0:0:0:
448,192,26034,1,0,0:0:0:0:
448,192,26184,1,0,0:0:0:0:
64,192,26334,1,0,0:0:0:0:
64,192,26634,1,0,0:0:0:0:
448,192,26634,128,0,26784:0:0:0:0:
320,192,26784,1,0,0:0:0:0:
64,192,26934,1,0,0:0:0:0:
448,192,26934,128,0,27084:0:0:0:0:
320,192,27084,1,0,0:0:0:0:
448,192,27234,1,0,0:0:0:0:
64,192,27234,1,0,0:0:0:0:
320,192,27384,1,0,0:0:0:0:
448,192,27534,1,0,0:0:0:0:
192,192,27534,128,0,27834:0:0:0:0:
64,192,27834,1,0,0:0:0:0:
448,192,27834,1,0,0:0:0:0:
192,192,27984,1,0,0:0:0:0:
320,192,28134,1,0,0:0:0:0:
448,192,28134,1,0,0:0:0:0:
192,192,28284,1,0,0:0:0:0:
64,192,28434,1,0,0:0:0:0:
448,192,28434,1,0,0:0:0:0:
192,192,28584,1,0,0:0:0:0:
320,192,28734,1,0,0:0:0:0:
448,192,28734,128,0,29634:0:0:0:0:
192,192,28809,1,0,0:0:0:0:
64,192,28884,1,0,0:0:0:0:
320,192,29034,1,0,0:0:0:0:
192,192,29109,1,0,0:0:0:0:
64,192,29184,1,0,0:0:0:0:
320,192,29334,1,0,0:0:0:0:
192,192,29409,1,0,0:0:0:0:
64,192,29484,1,0,0:0:0:0:
192,192,29634,1,0,0:0:0:0:
64,192,29784,1,0,0:0:0:0:
448,192,29784,1,0,0:0:0:0:
192,192,29934,1,0,0:0:0:0:
448,192,29934,1,0,0:0:0:0:
192,192,30084,1,0,0:0:0:0:
320,192,30234,1,0,0:0:0:0:
64,192,30234,1,0,0:0:0:0:
320,192,30384,1,0,0:0:0:0:
448,192,30534,1,0,0:0:0:0:
64,192,30534,1,0,0:0:0:0:
192,192,30684,128,0,31134:0:0:0:0:
320,192,30684,128,0,31134:0:0:0:0:
448,192,30834,1,0,0:0:0:0:
64,192,30909,1,0,0:0:0:0:
448,192,30984,1,0,0:0:0:0:
64,192,31059,1,0,0:0:0:0:
448,192,31134,1,0,0:0:0:0:
192,192,31434,1,0,0:0:0:0:
448,192,31434,1,0,0:0:0:0:
320,192,31584,1,0,0:0:0:0:
192,192,31734,1,0,0:0:0:0:
448,192,31734,1,0,0:0:0:0:
64,192,31884,128,0,32184:0:0:0:0:
448,192,32034,1,0,0:0:0:0:
192,192,32184,1,0,0:0:0:0:
448,192,32334,1,0,0:0:0:0:
320,192,32334,1,0,0:0:0:0:
320,192,32484,1,0,0:0:0:0:
320,192,32634,1,0,0:0:0:0:
192,192,32634,1,0,0:0:0:0:
192,192,32784,128,0,33084:0:0:0:0:
320,192,32934,1,0,0:0:0:0:
64,192,33084,1,0,0:0:0:0:
64,192,33234,1,0,0:0:0:0:
448,192,33234,1,0,0:0:0:0:
192,192,33384,1,0,0:0:0:0:
320,192,33384,1,0,0:0:0:0:
448,192,33534,1,0,0:0:0:0:
64,192,33534,1,0,0:0:0:0:
192,192,33684,1,0,0:0:0:0:
320,192,33834,1,0,0:0:0:0:
192,192,33984,1,0,0:0:0:0:
64,192,34134,1,0,0:0:0:0:
448,192,34134,1,0,0:0:0:0:
320,192,34284,1,0,0:0:0:0:
192,192,34284,1,0,0:0:0:0:
320,192,34584,128,0,34884:0:0:0:0:
448,192,34734,1,0,0:0:0:0:
64,192,34884,1,0,0:0:0:0:
192,192,34884,128,0,35184:0:0:0:0:
448,192,35034,1,0,0:0:0:0:
64,192,35184,1,0,0:0:0:0:
448,192,35334,1,0,0:0:0:0:
320,192,35409,1,0,0:0:0:0:
192,192,35484,1,0,0:0:0:0:
64,192,35559,1,0,0:0:0:0:
192,192,35634,128,0,35934:0:0:0:0:
64,192,35934,1,0,0:0:0:0:
448,192,35934,128,0,36384:0:0:0:0:
64,192,36234,1,0,0:0:0:0:
192,192,36384,1,0,0:0:0:0:
320,192,36534,1,0,0:0:0:0:
64,192,36534,1,0,0:0:0:0:
448,192,36684,128,0,36984:0:0:0:0:
64,192,36834,1,0,0:0:0:0:
320,192,36984,128,0,37434:0:0:0:0:
64,192,37134,1,0,0:0:0:0:
64,192,37434,1,0,0:0:0:0:
448,192,37434,1,0,0:0:0:0:
192,192,37584,1,0,0:0:0:0:
320,192,37734,1,0,0:0:0:0:
64,192,37734,1,0,0:0:0:0:
448,192,37884,128,0,38184:0:0:0:0:
64,192,38034,1,0,0:0:0:0:
320,192,38184,1,0,0:0:0:0:
64,192,38334,1,0,0:0:0:0:
448,192,38334,1,0,0:0:0:0:
192,192,38409,1,0,0:0:0:0:
320,192,38484,1,0,0:0:0:0:
448,192,38559,1,0,0:0:0:0:
64,192,38634,1,0,0:0:0:0:
192,192,38709,1,0,0:0:0:0:
320,192,38784,1,0,0:0:0:0:
448,192,38859,1,0,0:0:0:0:
64,192,38934,1,0,0:0:0:0:
320,192,38934,1,0,0:0:0:0:
192,192,39009,1,0,0:0:0:0:
320,192,39084,1,0,0:0:0:0:
448,192,39159,1,0,0:0:0:0:
64,192,39234,1,0,0:0:0:0:
192,192,39309,1,0,0:0:0:0:
320,192,39384,1,0,0:0:0:0:
448,192,39459,1,0,0:0:0:0:
192,192,39534,1,0,0:0:0:0:
64,192,39534,1,0,0:0:0:0:
320,192,39609,1,0,0:0:0:0:
192,192,39684,1,0,0:0:0:0:
64,192,39759,1,0,0:0:0:0:
448,192,39834,1,0,0:0:0:0:
192,192,39834,1,0,0:0:0:0:
320,192,39909,1,0,0:0:0:0:
192,192,39984,1,0,0:0:0:0:
64,192,40059,1,0,0:0:0:0:
320,192,40134,1,0,0:0:0:0:
448,192,40134,1,0,0:0:0:0:
448,192,40434,1,0,0:0:0:0:
320,192,40434,1,0,0:0:0:0:
192,192,40434,1,0,0:0:0:0:
64,192,40434,1,0,0:0:0:0:
320,192,40734,128,0,41334:0:0:0:0:
448,192,40734,128,0,41334:0:0:0:0:
192,192,41034,1,0,0:0:0:0:
192,192,41184,1,0,0:0:0:0:
64,192,41334,128,0,41934:0:0:0:0:
192,192,41559,128,0,41934:0:0:0:0:
320,192,41784,128,0,41934:0:0:0:0:
448,192,41934,128,0,42234:0:0:0:0:
320,192,42084,1,0,0:0:0:0:
192,192,42084,1,0,0:0:0:0:
192,192,42234,1,0,0:0:0:0:
64,192,42234,1,0,0:0:0:0:
320,192,42534,1,0,0:0:0:0:
448,192,42534,1,0,0:0:0:0:
192,192,42684,1,0,0:0:0:0:
320,192,42684,1,0,0:0:0:0:
192,192,42984,1,0,0:0:0:0:
64,192,42984,1,0,0:0:0:0:
192,192,43134,128,0,43734:0:0:0:0:
64,192,43284,1,0,0:0:0:0:
320,192,43434,1,0,0:0:0:0:
448,192,43584,1,0,0:0:0:0:
64,192,43734,1,0,0:0:0:0:
192,192,43884,1,0,0:0:0:0:
320,192,44034,1,0,0:0:0:0:
448,192,44184,1,0,0:0:0:0:
192,192,44334,1,0,0:0:0:0:
64,192,44334,1,0,0:0:0:0:
320,192,44634,1,0,0:0:0:0:
448,192,44634,1,0,0:0:0:0:
448,192,44934,1,0,0:0:0:0:
320,192,44934,1,0,0:0:0:0:
192,192,44934,1,0,0:0:0:0:
64,192,44934,1,0,0:0:0:0:
64,192,45234,128,0,45309:0:0:0:0:
448,192,45234,128,0,45309:0:0:0:0:
192,192,45309,128,0,45384:0:0:0:0:
320,192,45309,128,0,45384:0:0:0:0:
64,192,45384,128,0,45459:0:0:0:0:
448,192,45384,128,0,45459:0:0:0:0:
192,192,45459,128,0,45534:0:0:0:0:
320,192,45459,128,0,45534:0:0:0:0:
64,192,45534,1,0,0:0:0:0:
448,192,45534,1,0,0:0:0:0:
192,192,45684,1,0,0:0:0:0:
320,192,45834,1,0,0:0:0:0:
448,192,45984,1,0,0:0:0:0:
192,192,46134,1,0,0:0:0:0:
64,192,46134,1,0,0:0:0:0:
320,192,46284,128,0,46584:0:0:0:0:
448,192,46284,128,0,46584:0:0:0:0:
192,192,46584,1,0,0:0:0:0:
64,192,46584,1,0,0:0:0:0:
448,192,46734,1,0,0:0:0:0:
320,192,46884,1,0,0:0:0:0:
192,192,47034,1,0,0:0:0:0:
64,192,47184,1,0,0:0:0:0:
192,192,47334,128,0,47634:0:0:0:0:
320,192,47334,128,0,47634:0:0:0:0:
448,192,47484,1,0,0:0:0:0:
64,192,47634,1,0,0:0:0:0:
448,192,47784,1,0,0:0:0:0:
64,192,47784,128,0,48834:0:0:0:0:
192,192,48234,1,0,0:0:0:0:
192,192,48534,1,0,0:0:0:0:
320,192,48534,1,0,0:0:0:0:
192,192,48834,1,0,0:0:0:0:
320,192,48834,1,0,0:0:0:0:
448,192,48834,1,0,0:0:0:0:
64,192,49134,1,0,0:0:0:0:
448,192,49134,128,0,50034:0:0:0:0:
320,192,49434,1,0,0:0:0:0:
320,192,49734,1,0,0:0:0:0:
192,192,49734,1,0,0:0:0:0:
320,192,50034,1,0,0:0:0:0:
192,192,50034,1,0,0:0:0:0:
64,192,50034,1,0,0:0:0:0:
64,192,50334,1,0,0:0:0:0:
320,192,50334,1,0,0:0:0:0:
448,192,50334,1,0,0:0:0:0:
448,192,50634,1,0,0:0:0:0:
192,192,50634,1,0,0:0:0:0:
64,192,50634,1,0,0:0:0:0:
64,192,50934,1,0,0:0:0:0:
192,192,50934,1,0,0:0:0:0:
320,192,50934,1,0,0:0:0:0:
192,192,51234,1,0,0:0:0:0:
320,192,51234,1,0,0:0:0:0:
448,192,51234,1,0,0:0:0:0:
320,192,51534,1,0,0:0:0:0:
192,192,51534,1,0,0:0:0:0:
64,192,51534,1,0,0:0:0:0:
192,192,51834,1,0,0:0:0:0:
320,192,51834,1,0,0:0:0:0:
448,192,51834,1,0,0:0:0:0:
448,192,52134,1,0,0:0:0:0:
320,192,52134,1,0,0:0:0:0:
64,192,52134,1,0,0:0:0:0:
64,192,52434,1,0,0:0:0:0:
192,192,52434,1,0,0:0:0:0:
448,192,52434,1,0,0:0:0:0:
64,192,52734,1,0,0:0:0:0:
192,192,52734,128,0,53034:0:0:0:0:
320,192,52734,128,0,53034:0:0:0:0:
448,192,52734,1,0,0:0:0:0:
448,192,53034,1,0,0:0:0:0:
64,192,53034,1,0,0:0:0:0:
448,192,53334,128,0,53784:0:0:0:0:
64,192,53334,128,0,53784:0:0:0:0:
192,192,53484,1,0,0:0:0:0:
320,192,53484,1,0,0:0:0:0:
192,192,53784,1,0,0:0:0:0:
320,192,53784,1,0,0:0:0:0:
64,192,53934,1,0,0:0:0:0:
192,192,54084,1,0,0:0:0:0:
320,192,54234,1,0,0:0:0:0:
448,192,54384,1,0,0:0:0:0:
192,192,54534,1,0,0:0:0:0:
320,192,54684,1,0,0:0:0:0:
64,192,54834,1,0,0:0:0:0:
448,192,54834,128,0,55134:0:0:0:0:
192,192,55134,128,0,55584:0:0:0:0:
64,192,55134,1,0,0:0:0:0:
64,192,55434,1,0,0:0:0:0:
320,192,55584,128,0,56034:0:0:0:0:
448,192,55734,1,0,0:0:0:0:
64,192,55734,1,0,0:0:0:0:
64,192,56034,1,0,0:0:0:0:
192,192,56184,1,0,0:0:0:0:
64,192,56334,1,0,0:0:0:0:
448,192,56334,1,0,0:0:0:0:
320,192,56484,1,0,0:0:0:0:
64,192,56634,1,0,0:0:0:0:
192,192,56634,1,0,0:0:0:0:
320,192,56784,1,0,0:0:0:0:
64,192,56934,1,0,0:0:0:0:
448,192,56934,1,0,0:0:0:0:
320,192,57084,1,0,0:0:0:0:
64,192,57234,1,0,0:0:0:0:
192,192,57234,1,0,0:0:0:0:
320,192,57384,1,0,0:0:0:0:
320,192,57534,1,0,0:0:0:0:
448,192,57534,128,0,57984:0:0:0:0:
64,192,57534,128,0,57984:0:0:0:0:
192,192,57834,1,0,0:0:0:0:
192,192,57984,1,0,0:0:0:0:
320,192,57984,1,0,0:0:0:0:
192,192,58134,128,0,58734:0:0:0:0:
320,192,58134,128,0,58734:0:0:0:0:
64,192,58134,1,0,0:0:0:0:
448,192,58134,1,0,0:0:0:0:
64,192,58434,1,0,0:0:0:0:
448,192,58434,1,0,0:0:0:0:
448,192,58734,1,0,0:0:0:0:
192,192,58809,1,0,0:0:0:0:
448,192,58884,1,0,0:0:0:0:
192,192,58959,1,0,0:0:0:0:
320,192,59034,1,0,0:0:0:0:
64,192,59109,1,0,0:0:0:0:
320,192,59184,1,0,0:0:0:0:
64,192,59259,1,0,0:0:0:0:
448,192,59334,1,0,0:0:0:0:
320,192,59409,1,0,0:0:0:0:
192,192,59484,1,0,0:0:0:0:
64,192,59559,1,0,0:0:0:0:
192,192,59634,1,0,0:0:0:0:
320,192,59709,1,0,0:0:0:0:
192,192,59784,1,0,0:0:0:0:
320,192,59859,1,0,0:0:0:0:
448,192,59934,128,0,60234:0:0:0:0:
64,192,59934,1,0,0:0:0:0:
192,192,60234,1,0,0:0:0:0:
64,192,60234,1,0,0:0:0:0:
320,192,60384,128,0,60684:0:0:0:0:
192,192,60534,1,0,0:0:0:0:
64,192,60534,1,0,0:0:0:0:
448,192,60684,1,0,0:0:0:0:
64,192,60834,1,0,0:0:0:0:
192,192,60984,128,0,61284:0:0:0:0:
448,192,60984,1,0,0:0:0:0:
320,192,61284,1,0,0:0:0:0:
64,192,61434,1,0,0:0:0:0:
448,192,61434,1,0,0:0:0:0:
320,192,61584,128,0,61884:0:0:0:0:
64,192,61734,1,0,0:0:0:0:
192,192,61884,1,0,0:0:0:0:
448,192,62034,1,0,0:0:0:0:
64,192,62034,1,0,0:0:0:0:
320,192,62184,1,0,0:0:0:0:
448,192,62334,1,0,0:0:0:0:
64,192,62334,1,0,0:0:0:0:
192,192,62334,128,0,62634:0:0:0:0:
64,192,62634,1,0,0:0:0:0:
320,192,62634,1,0,0:0:0:0:
448,192,62634,1,0,0:0:0:0:
64,192,62784,1,0,0:0:0:0:
320,192,62784,1,0,0:0:0:0:
448,192,62784,1,0,0:0:0:0:
320,192,63084,1,0,0:0:0:0:
192,192,63084,1,0,0:0:0:0:
64,192,63084,1,0,0:0:0:0:
192,192,63384,1,0,0:0:0:0:
320,192,63384,1,0,0:0:0:0:
448,192,63384,1,0,0:0:0:0:
448,192,63684,1,0,0:0:0:0:
192,192,63684,1,0,0:0:0:0:
64,192,63684,1,0,0:0:0:0:
64,192,63834,1,0,0:0:0:0:
192,192,63834,1,0,0:0:0:0:
448,192,63834,1,0,0:0:0:0:
320,192,63834,128,0,64134:0:0:0:0:
64,192,64134,1,0,0:0:0:0:
192,192,64209,1,0,0:0:0:0:
320,192,64284,1,0,0:0:0:0:
192,192,64359,1,0,0:0:0:0:
448,192,64434,1,0,0:0:0:0:
64,192,64434,128,0,64734:0:0:0:0:
320,192,64734,128,0,65184:0:0:0:0:
448,192,64734,1,0,0:0:0:0:
448,192,65034,1,0,0:0:0:0:
192,192,65184,128,0,65634:0:0:0:0:
448,192,65334,1,0,0:0:0:0:
64,192,65334,1,0,0:0:0:0:
448,192,65634,1,0,0:0:0:0:
320,192,65784,1,0,0:0:0:0:
448,192,65934,1,0,0:0:0:0:
64,192,65934,1,0,0:0:0:0:
192,192,66084,1,0,0:0:0:0:
320,192,66234,1,0,0:0:0:0:
448,192,66234,1,0,0:0:0:0:
192,192,66384,1,0,0:0:0:0:
64,192,66534,1,0,0:0:0:0:
448,192,66534,1,0,0:0:0:0:
192,192,66684,1,0,0:0:0:0:
448,192,66834,1,0,0:0:0:0:
320,192,66834,1,0,0:0:0:0:
192,192,66984,1,0,0:0:0:0:
320,192,67134,1,0,0:0:0:0:
448,192,67134,128,0,67434:0:0:0:0:
64,192,67134,128,0,67434:0:0:0:0:
192,192,67434,1,0,0:0:0:0:
320,192,67434,1,0,0:0:0:0:
192,192,67584,1,0,0:0:0:0:
320,192,67584,1,0,0:0:0:0:
448,192,67884,128,0,68184:0:0:0:0:
64,192,67884,128,0,68184:0:0:0:0:
192,192,67884,1,0,0:0:0:0:
192,192,68184,1,0,0:0:0:0:
320,192,68184,1,0,0:0:0:0:
64,192,68334,1,0,0:0:0:0:
320,192,68409,1,0,0:0:0:0:
64,192,68484,1,0,0:0:0:0:
320,192,68559,1,0,0:0:0:0:
192,192,68634,1,0,0:0:0:0:
448,192,68709,1,0,0:0:0:0:
192,192,68784,1,0,0:0:0:0:
448,192,68859,1,0,0:0:0:0:
64,192,68934,1,0,0:0:0:0:
192,192,69009,1,0,0:0:0:0:
320,192,69084,1,0,0:0:0:0:
448,192,69159,1,0,0:0:0:0:
320,192,69234,1,0,0:0:0:0:
192,192,69309,1,0,0:0:0:0:
320,192,69384,1,0,0:0:0:0:
192,192,69459,1,0,0:0:0:0:
64,192,69534,1,0,0:0:0:0:
448,192,69534,1,0,0:0:0:0:
320,192,69609,1,0,0:0:0:0:
448,192,69684,1,0,0:0:0:0:
320,192,69759,1,0,0:0:0:0:
448,192,69834,1,0,0:0:0:0:
64,192,69834,1,0,0:0:0:0:
320,192,69909,1,0,0:0:0:0:
448,192,69984,1,0,0:0:0:0:
192,192,69984,1,0,0:0:0:0:
320,192,70059,1,0,0:0:0:0:
64,192,70134,128,0,70434:0:0:0:0:
448,192,70134,1,0,0:0:0:0:
320,192,70209,1,0,0:0:0:0:
448,192,70284,1,0,0:0:0:0:
320,192,70359,1,0,0:0:0:0:
448,192,70434,1,0,0:0:0:0:
320,192,70509,1,0,0:0:0:0:
192,192,70584,1,0,0:0:0:0:
448,192,70584,1,0,0:0:0:0:
320,192,70659,1,0,0:0:0:0:
448,192,70734,1,0,0:0:0:0:
64,192,70734,1,0,0:0:0:0:
192,192,70809,1,0,0:0:0:0:
64,192,70884,1,0,0:0:0:0:
192,192,70959,1,0,0:0:0:0:
64,192,71034,1,0,0:0:0:0:
320,192,71034,1,0,0:0:0:0:
192,192,71109,1,0,0:0:0:0:
64,192,71184,1,0,0:0:0:0:
448,192,71184,128,0,71484:0:0:0:0:
192,192,71259,1,0,0:0:0:0:
64,192,71334,1,0,0:0:0:0:
192,192,71409,1,0,0:0:0:0:
64,192,71484,1,0,0:0:0:0:
320,192,71484,1,0,0:0:0:0:
192,192,71559,1,0,0:0:0:0:
64,192,71634,1,0,0:0:0:0:
448,192,71634,1,0,0:0:0:0:
192,192,71709,1,0,0:0:0:0:
64,192,71784,1,0,0:0:0:0:
320,192,71784,1,0,0:0:0:0:
192,192,71859,1,0,0:0:0:0:
64,192,71934,1,0,0:0:0:0:
448,192,71934,1,0,0:0:0:0:
64,192,72234,1,0,0:0:0:0:
192,192,72234,1,0,0:0:0:0:
448,192,72234,1,0,0:0:0:0:
320,192,72234,1,0,0:0:0:0:
448,192,72384,1,0,0:0:0:0:
320,192,72384,1,0,0:0:0:0:
192,192,72384,1,0,0:0:0:0:
64,192,72384,1,0,0:0:0:0:
64,192,72684,1,0,0:0:0:0:
192,192,72684,1,0,0:0:0:0:
448,192,72684,1,0,0:0:0:0:
320,192,72684,1,0,0:0:0:0:
64,192,72984,1,0,0:0:0:0:
192,192,72984,1,0,0:0:0:0:
320,192,72984,1,0,0:0:0:0:
448,192,72984,1,0,0:0:0:0:
320,192,73284,1,0,0:0:0:0:
448,192,73284,1,0,0:0:0:0:
192,192,73434,1,0,0:0:0:0:
320,192,73434,1,0,0:0:0:0:
64,192,73584,1,0,0:0:0:0:
192,192,73584,1,0,0:0:0:0:
64,192,73734,1,0,0:0:0:0:
320,192,73734,1,0,0:0:0:0:
192,192,73809,1,0,0:0:0:0:
448,192,73809,1,0,0:0:0:0:
320,192,73884,1,0,0:0:0:0:
64,192,73884,1,0,0:0:0:0:
192,192,74034,1,0,0:0:0:0:
448,192,74034,1,0,0:0:0:0:
448,192,74334,1,0,0:0:0:0:
64,192,74334,128,0,74634:0:0:0:0:
320,192,74634,1,0,0:0:0:0:
448,192,74634,1,0,0:0:0:0:
448,192,74934,128,0,75234:0:0:0:0:
64,192,74934,1,0,0:0:0:0:
64,192,75234,1,0,0:0:0:0:
192,192,75234,1,0,0:0:0:0:
320,192,75534,1,0,0:0:0:0:
64,192,75534,1,0,0:0:0:0:
320,192,75684,1,0,0:0:0:0:
192,192,75834,1,0,0:0:0:0:
448,192,75834,1,0,0:0:0:0:
192,192,75984,1,0,0:0:0:0:
448,192,76134,1,0,0:0:0:0:
320,192,76209,1,0,0:0:0:0:
192,192,76284,1,0,0:0:0:0:
320,192,76359,1,0,0:0:0:0:
448,192,76434,1,0,0:0:0:0:
64,192,76434,1,0,0:0:0:0:
448,192,76734,1,0,0:0:0:0:
64,192,76734,1,0,0:0:0:0:
192,192,77034,1,0,0:0:0:0:
320,192,77034,1,0,0:0:0:0:
64,192,77184,1,0,0:0:0:0:
448,192,77184,1,0,0:0:0:0:
192,192,77184,128,0,77484:0:0:0:0:
320,192,77184,1,0,0:0:0:0:
320,192,77484,1,0,0:0:0:0:
448,192,77634,1,0,0:0:0:0:
64,192,77634,1,0,0:0:0:0:
192,192,77784,1,0,0:0:0:0:
64,192,77934,128,0,78084:0:0:0:0:
320,192,77934,128,0,78084:0:0:0:0:
192,192,78084,1,0,0:0:0:0:
448,192,78084,1,0,0:0:0:0:
64,192,78234,128,0,78384:0:0:0:0:
320,192,78234,128,0,78384:0:0:0:0:
192,192,78384,1,0,0:0:0:0:
448,192,78384,1,0,0:0:0:0:
192,192,78534,1,0,0:0:0:0:
320,192,78534,1,0,0:0:0:0:
448,192,78609,1,0,0:0:0:0:
64,192,78609,1,0,0:0:0:0:
192,192,78684,1,0,0:0:0:0:
320,192,78684,1,0,0:0:0:0:
64,192,78834,1,0,0:0:0:0:
192,192,78984,1,0,0:0:0:0:
320,192,78984,1,0,0:0:0:0:
64,192,79134,1,0,0:0:0:0:
448,192,79134,1,0,0:0:0:0:
192,192,79434,1,0,0:0:0:0:
320,192,79434,1,0,0:0:0:0:
64,192,79584,1,0,0:0:0:0:
192,192,79584,1,0,0:0:0:0:
448,192,79584,1,0,0:0:0:0:
320,192,79584,128,0,79884:0:0:0:0:
192,192,79884,1,0,0:0:0:0:
64,192,80034,1,0,0:0:0:0:
448,192,80034,1,0,0:0:0:0:
320,192,80184,1,0,0:0:0:0:
192,192,80334,128,0,80484:0:0:0:0:
448,192,80334,128,0,80484:0:0:0:0:
320,192,80484,1,0,0:0:0:0:
64,192,80484,1,0,0:0:0:0:
192,192,80634,128,0,80784:0:0:0:0:
448,192,80634,128,0,80784:0:0:0:0:
320,192,80784,1,0,0:0:0:0:
64,192,80784,1,0,0:0:0:0:
192,192,80934,1,0,0:0:0:0:
320,192,80934,1,0,0:0:0:0:
448,192,81009,1,0,0:0:0:0:
64,192,81009,1,0,0:0:0:0:
192,192,81084,1,0,0:0:0:0:
320,192,81084,1,0,0:0:0:0:
448,192,81234,1,0,0:0:0:0:
64,192,81234,1,0,0:0:0:0:
192,192,81384,1,0,0:0:0:0:
448,192,81534,1,0,0:0:0:0:
64,192,81609,1,0,0:0:0:0:
448,192,81684,1,0,0:0:0:0:
64,192,81759,1,0,0:0:0:0:
448,192,81834,1,0,0:0:0:0:
64,192,81909,1,0,0:0:0:0:
448,192,81984,1,0,0:0:0:0:
64,192,82059,1,0,0:0:0:0:
448,192,82134,1,0,0:0:0:0:
64,192,82209,1,0,0:0:0:0:
448,192,82284,1,0,0:0:0:0:
64,192,82359,1,0,0:0:0:0:
448,192,82434,1,0,0:0:0:0:
64,192,82509,1,0,0:0:0:0:
448,192,82584,1,0,0:0:0:0:
64,192,82659,1,0,0:0:0:0:
320,192,82734,1,0,0:0:0:0:
192,192,82809,1,0,0:0:0:0:
320,192,82884,1,0,0:0:0:0:
192,192,82959,1,0,0:0:0:0:
320,192,83034,1,0,0:0:0:0:
192,192,83109,1,0,0:0:0:0:
320,192,83184,1,0,0:0:0:0:
192,192,83259,1,0,0:0:0:0:
320,192,83334,1,0,0:0:0:0:
192,192,83409,1,0,0:0:0:0:
320,192,83484,1,0,0:0:0:0:
192,192,83559,1,0,0:0:0:0:
320,192,83634,1,0,0:0:0:0:
192,192,83709,1,0,0:0:0:0:
320,192,83784,1,0,0:0:0:0:
192,192,83859,1,0,0:0:0:0:
64,192,83934,128,0,84234:0:0:0:0:
448,192,83934,128,0,84234:0:0:0:0:
320,192,84234,1,0,0:0:0:0:
192,192,84234,1,0,0:0:0:0:
64,192,84384,1,0,0:0:0:0:
448,192,84384,1,0,0:0:0:0:
64,192,84684,1,0,0:0:0:0:
192,192,84684,1,0,0:0:0:0:
320,192,84684,1,0,0:0:0:0:
448,192,84684,1,0,0:0:0:0:
64,192,84984,1,0,0:0:0:0:
192,192,84984,1,0,0:0:0:0:
320,192,84984,1,0,0:0:0:0:
448,192,84984,1,0,0:0:0:0:
448,192,85134,1,0,0:0:0:0:
320,192,85134,1,0,0:0:0:0:
192,192,85134,1,0,0:0:0:0:
64,192,85134,1,0,0:0:0:0:
64,192,85734,1,0,0:0:0:0:
192,192,85809,1,0,0:0:0:0:
320,192,85884,1,0,0:0:0:0:
448,192,86034,1,0,0:0:0:0:
64,192,86034,128,0,86334:0:0:0:0:
192,192,86334,1,0,0:0:0:0:
320,192,86334,128,0,86784:0:0:0:0:
448,192,86334,128,0,87534:0:0:0:0:
192,192,86784,128,0,87384:0:0:0:0:
64,192,87384,1,0,0:0:0:0:
192,192,87534,1,0,0:0:0:0:
320,192,87534,128,0,88734:0:0:0:0:
448,192,87684,1,0,0:0:0:0:
64,192,87834,1,0,0:0:0:0:
192,192,87984,1,0,0:0:0:0:
448,192,88134,1,0,0:0:0:0:
64,192,88284,1,0,0:0:0:0:
192,192,88434,1,0,0:0:0:0:
448,192,88584,1,0,0:0:0:0:
64,192,88734,1,0,0:0:0:0:
192,192,88734,128,0,89934:0:0:0:0:
448,192,89184,1,0,0:0:0:0:
448,192,89334,128,0,89934:0:0:0:0:
64,192,89334,1,0,0:0:0:0:
320,192,89934,1,0,0:0:0:0:
64,192,89934,128,0,90384:0:0:0:0:
448,192,90384,1,0,0:0:0:0:
320,192,90434,1,0,0:0:0:0:
192,192,90484,1,0,0:0:0:0:
64,192,90534,1,0,0:0:0:0:
192,192,90634,1,0,0:0:0:0:
448,192,90634,1,0,0:0:0:0:
320,192,90759,1,0,0:0:0:0:
64,192,90759,1,0,0:0:0:0:
192,192,90909,1,0,0:0:0:0:
448,192,90909,1,0,0:0:0:0:
64,192,91134,1,0,0:0:0:0:
320,192,91134,1,0,0:0:0:0:
64,192,91434,1,0,0:0:0:0:
320,192,91434,1,0,0:0:0:0:
448,192,91584,128,0,92034:0:0:0:0:
64,192,91734,1,0,0:0:0:0:
192,192,91884,1,0,0:0:0:0:
320,192,92034,1,0,0:0:0:0:
448,192,92184,1,0,0:0:0:0:
192,192,92184,128,0,92484:0:0:0:0:
64,192,92484,1,0,0:0:0:0:
448,192,92634,1,0,0:0:0:0:
64,192,92784,1,0,0:0:0:0:
320,192,92934,1,0,0:0:0:0:
448,192,92934,1,0,0:0:0:0:
192,192,93084,1,0,0:0:0:0:
320,192,93084,1,0,0:0:0:0:
320,192,93234,1,0,0:0:0:0:
448,192,93234,1,0,0:0:0:0:
192,192,93384,1,0,0:0:0:0:
320,192,93384,1,0,0:0:0:0:
192,192,93534,1,0,0:0:0:0:
320,192,93534,1,0,0:0:0:0:
448,192,93534,1,0,0:0:0:0:
64,192,93534,128,0,93984:0:0:0:0:
320,192,93984,128,0,94284:0:0:0:0:
192,192,93984,1,0,0:0:0:0:
448,192,93984,1,0,0:0:0:0:
448,192,94284,1,0,0:0:0:0:
64,192,94284,1,0,0:0:0:0:
192,192,94284,128,0,94584:0:0:0:0:
64,192,94584,1,0,0:0:0:0:
320,192,94584,1,0,0:0:0:0:
448,192,94584,128,0,94884:0:0:0:0:
320,192,94884,1,0,0:0:0:0:
192,192,94884,1,0,0:0:0:0:
64,192,94884,1,0,0:0:0:0:
64,192,95034,1,0,0:0:0:0:
192,192,95034,1,0,0:0:0:0:
320,192,95034,1,0,0:0:0:0:
448,192,95034,1,0,0:0:0:0:
64,192,95334,1,0,0:0:0:0:
192,192,95334,1,0,0:0:0:0:
320,192,95409,1,0,0:0:0:0:
448,192,95409,1,0,0:0:0:0:
64,192,95484,1,0,0:0:0:0:
192,192,95484,1,0,0:0:0:0:
64,192,95634,1,0,0:0:0:0:
192,192,95634,1,0,0:0:0:0:
448,192,95634,1,0,0:0:0:0:
320,192,95634,128,0,95934:0:0:0:0:
192,192,95934,128,0,96384:0:0:0:0:
64,192,95934,1,0,0:0:0:0:
448,192,95934,1,0,0:0:0:0:
320,192,96234,1,0,0:0:0:0:
64,192,96234,1,0,0:0:0:0:
448,192,96384,128,0,96834:0:0:0:0:
64,192,96534,1,0,0:0:0:0:
64,192,96834,1,0,0:0:0:0:
192,192,96834,1,0,0:0:0:0:
320,192,96984,1,0,0:0:0:0:
448,192,96984,1,0,0:0:0:0:
64,192,97134,1,0,0:0:0:0:
192,192,97134,1,0,0:0:0:0:
192,192,97284,1,0,0:0:0:0:
320,192,97284,1,0,0:0:0:0:
64,192,97434,1,0,0:0:0:0:
448,192,97434,1,0,0:0:0:0:
320,192,97584,1,0,0:0:0:0:
448,192,97584,1,0,0:0:0:0:
64,192,97734,1,0,0:0:0:0:
192,192,97734,1,0,0:0:0:0:
192,192,97884,1,0,0:0:0:0:
320,192,97884,1,0,0:0:0:0:
64,192,98034,1,0,0:0:0:0:
448,192,98034,1,0,0:0:0:0:
320,192,98184,1,0,0:0:0:0:
192,192,98334,128,0,98634:0:0:0:0:
64,192,98334,1,0,0:0:0:0:
448,192,98334,1,0,0:0:0:0:
448,192,98634,1,0,0:0:0:0:
64,192,98634,1,0,0:0:0:0:
64,192,98784,1,0,0:0:0:0:
448,192,98934,1,0,0:0:0:0:
192,192,99084,1,0,0:0:0:0:
448,192,99234,1,0,0:0:0:0:
64,192,99234,1,0,0:0:0:0:
192,192,99384,1,0,0:0:0:0:
320,192,99384,1,0,0:0:0:0:
448,192,99534,1,0,0:0:0:0:
192,192,99609,1,0,0:0:0:0:
448,192,99684,1,0,0:0:0:0:
192,192,99759,1,0,0:0:0:0:
320,192,99834,1,0,0:0:0:0:
64,192,99909,1,0,0:0:0:0:
320,192,99984,1,0,0:0:0:0:
64,192,100059,1,0,0:0:0:0:
448,192,100134,1,0,0:0:0:0:
320,192,100209,1,0,0:0:0:0:
192,192,100284,1,0,0:0:0:0:
64,192,100359,1,0,0:0:0:0:
192,192,100434,1,0,0:0:0:0:
448,192,100434,1,0,0:0:0:0:
192,192,100584,1,0,0:0:0:0:
320,192,100584,1,0,0:0:0:0:
64,192,100734,1,0,0:0:0:0:
448,192,100734,1,0,0:0:0:0:
320,192,100809,1,0,0:0:0:0:
192,192,100884,1,0,0:0:0:0:
64,192,100959,1,0,0:0:0:0:
448,192,101034,1,0,0:0:0:0:
320,192,101109,1,0,0:0:0:0:
192,192,101184,1,0,0:0:0:0:
64,192,101259,1,0,0:0:0:0:
448,192,101334,1,0,0:0:0:0:
320,192,101409,1,0,0:0:0:0:
192,192,101484,1,0,0:0:0:0:
64,192,101559,1,0,0:0:0:0:
448,192,101634,1,0,0:0:0:0:
320,192,101709,1,0,0:0:0:0:
192,192,101784,1,0,0:0:0:0:
320,192,101859,1,0,0:0:0:0:
448,192,101934,1,0,0:0:0:0:
64,192,101934,1,0,0:0:0:0:
192,192,102009,1,0,0:0:0:0:
320,192,102084,1,0,0:0:0:0:
448,192,102159,1,0,0:0:0:0:
64,192,102234,1,0,0:0:0:0:
192,192,102309,1,0,0:0:0:0:
320,192,102384,1,0,0:0:0:0:
448,192,102459,1,0,0:0:0:0:
64,192,102534,1,0,0:0:0:0:
192,192,102609,1,0,0:0:0:0:
320,192,102684,1,0,0:0:0:0:
448,192,102759,1,0,0:0:0:0:
64,192,102834,1,0,0:0:0:0:
192,192,102909,1,0,0:0:0:0:
320,192,102984,1,0,0:0:0:0:
448,192,103059,1,0,0:0:0:0:
192,192,103134,1,0,0:0:0:0:
320,192,103134,1,0,0:0:0:0:
64,192,103134,128,0,103434:0:0:0:0:
192,192,103434,1,0,0:0:0:0:
320,192,103434,1,0,0:0:0:0:
448,192,103434,1,0,0:0:0:0:
320,192,103584,128,0,103884:0:0:0:0:
448,192,103584,1,0,0:0:0:0:
192,192,103584,1,0,0:0:0:0:
64,192,103584,1,0,0:0:0:0:
64,192,103884,1,0,0:0:0:0:
448,192,103884,1,0,0:0:0:0:
192,192,103884,128,0,104184:0:0:0:0:
64,192,104184,1,0,0:0:0:0:
320,192,104184,1,0,0:0:0:0:
448,192,104184,1,0,0:0:0:0:
192,192,104334,1,0,0:0:0:0:
320,192,104334,1,0,0:0:0:0:
448,192,104334,128,0,104634:0:0:0:0:
320,192,104634,1,0,0:0:0:0:
192,192,104634,1,0,0:0:0:0:
64,192,104634,1,0,0:0:0:0:
64,192,104784,1,0,0:0:0:0:
320,192,104784,1,0,0:0:0:0:
448,192,104784,1,0,0:0:0:0:
192,192,104784,128,0,105084:0:0:0:0:
320,192,105084,1,0,0:0:0:0:
448,192,105084,1,0,0:0:0:0:
64,192,105084,128,0,105384:0:0:0:0:
192,192,105384,1,0,0:0:0:0:
320,192,105384,1,0,0:0:0:0:
448,192,105384,1,0,0:0:0:0:
64,192,105534,1,0,0:0:0:0:
192,192,105534,1,0,0:0:0:0:
320,192,105534,1,0,0:0:0:0:
448,192,105534,1,0,0:0:0:0:
64,192,105684,1,0,0:0:0:0:
448,192,105684,1,0,0:0:0:0:
320,192,105684,1,0,0:0:0:0:
192,192,105684,1,0,0:0:0:0:
64,192,105834,1,0,0:0:0:0:
320,192,105834,1,0,0:0:0:0:
192,192,105834,1,0,0:0:0:0:
448,192,105834,1,0,0:0:0:0:
64,192,105984,1,0,0:0:0:0:
192,192,105984,1,0,0:0:0:0:
320,192,105984,1,0,0:0:0:0:
448,192,105984,1,0,0:0:0:0:
64,192,106134,1,0,0:0:0:0:
192,192,106134,1,0,0:0:0:0:
448,192,106134,1,0,0:0:0:0:
320,192,106134,1,0,0:0:0:0:
64,192,106284,1,0,0:0:0:0:
192,192,106284,1,0,0:0:0:0:
320,192,106284,1,0,0:0:0:0:
448,192,106284,1,0,0:0:0:0:
64,192,106434,1,0,0:0:0:0:
448,192,106434,1,0,0:0:0:0:
320,192,106434,1,0,0:0:0:0:
192,192,106434,1,0,0:0:0:0:
64,192,106584,1,0,0:0:0:0:
192,192,106584,1,0,0:0:0:0:
320,192,106584,1,0,0:0:0:0:
448,192,106584,1,0,0:0:0:0:
192,192,106884,1,0,0:0:0:0:
320,192,106884,1,0,0:0:0:0:
192,192,107034,1,0,0:0:0:0:
320,192,107034,1,0,0:0:0:0:
192,192,107184,1,0,0:0:0:0:
320,192,107184,1,0,0:0:0:0:
448,192,107334,1,0,0:0:0:0:
320,192,107409,1,0,0:0:0:0:
192,192,107484,1,0,0:0:0:0:
448,192,107634,1,0,0:0:0:0:
64,192,107634,1,0,0:0:0:0:
192,192,107934,1,0,0:0:0:0:
448,192,107934,1,0,0:0:0:0:
320,192,108084,1,0,0:0:0:0:
448,192,108234,1,0,0:0:0:0:
64,192,108234,1,0,0:0:0:0:
64,192,108384,128,0,108684:0:0:0:0:
192,192,108534,1,0,0:0:0:0:
448,192,108534,1,0,0:0:0:0:
320,192,108684,1,0,0:0:0:0:
192,192,108759,1,0,0:0:0:0:
64,192,108834,1,0,0:0:0:0:
448,192,108834,1,0,0:0:0:0:
320,192,108984,1,0,0:0:0:0:
448,192,109134,1,0,0:0:0:0:
64,192,109134,1,0,0:0:0:0:
320,192,109284,1,0,0:0:0:0:
192,192,109434,1,0,0:0:0:0:
448,192,109434,1,0,0:0:0:0:
64,192,109584,128,0,110034:0:0:0:0:
320,192,109734,1,0,0:0:0:0:
448,192,109734,1,0,0:0:0:0:
192,192,109884,1,0,0:0:0:0:
320,192,109884,1,0,0:0:0:0:
192,192,110034,1,0,0:0:0:0:
320,192,110034,1,0,0:0:0:0:
448,192,110034,1,0,0:0:0:0:
192,192,110184,128,0,110484:0:0:0:0:
64,192,110334,1,0,0:0:0:0:
320,192,110334,1,0,0:0:0:0:
320,192,110484,1,0,0:0:0:0:
64,192,110634,1,0,0:0:0:0:
448,192,110634,1,0,0:0:0:0:
320,192,110784,128,0,111084:0:0:0:0:
192,192,110934,1,0,0:0:0:0:
64,192,110934,1,0,0:0:0:0:
192,192,111084,1,0,0:0:0:0:
320,192,111159,1,0,0:0:0:0:
448,192,111234,1,0,0:0:0:0:
64,192,111234,1,0,0:0:0:0:
192,192,111384,1,0,0:0:0:0:
320,192,111384,1,0,0:0:0:0:
320,192,111534,1,0,0:0:0:0:
64,192,111534,1,0,0:0:0:0:
192,192,111534,1,0,0:0:0:0:
448,192,111534,128,0,111834:0:0:0:0:
320,192,111834,1,0,0:0:0:0:
192,192,111834,128,0,112134:0:0:0:0:
320,192,112134,128,0,112434:0:0:0:0:
448,192,112134,1,0,0:0:0:0:
192,192,112434,128,0,112509:0:0:0:0:
64,192,112434,128,0,112509:0:0:0:0:
320,192,112509,128,0,112584:0:0:0:0:
448,192,112509,128,0,112584:0:0:0:0:
64,192,112584,128,0,112659:0:0:0:0:
192,192,112584,128,0,112659:0:0:0:0:
320,192,112659,128,0,112734:0:0:0:0:
448,192,112659,128,0,112734:0:0:0:0:
192,192,112734,1,0,0:0:0:0:
64,192,112734,1,0,0:0:0:0:
192,192,112884,1,0,0:0:0:0:
64,192,113034,1,0,0:0:0:0:
448,192,113034,1,0,0:0:0:0:
320,192,113184,128,0,113484:0:0:0:0:
192,192,113334,1,0,0:0:0:0:
64,192,113334,1,0,0:0:0:0:
448,192,113484,1,0,0:0:0:0:
320,192,113634,1,0,0:0:0:0:
64,192,113634,1,0,0:0:0:0:
448,192,113784,1,0,0:0:0:0:
64,192,113934,1,0,0:0:0:0:
320,192,114009,1,0,0:0:0:0:
192,192,114084,1,0,0:0:0:0:
448,192,114159,1,0,0:0:0:0:
64,192,114234,1,0,0:0:0:0:
320,192,114309,1,0,0:0:0:0:
192,192,114384,1,0,0:0:0:0:
448,192,114459,1,0,0:0:0:0:
64,192,114534,1,0,0:0:0:0:
192,192,114534,1,0,0:0:0:0:
64,192,114684,1,0,0:0:0:0:
320,192,114684,1,0,0:0:0:0:
192,192,114834,1,0,0:0:0:0:
320,192,114834,1,0,0:0:0:0:
448,192,114984,1,0,0:0:0:0:
192,192,114984,1,0,0:0:0:0:
448,192,115134,128,0,115734:0:0:0:0:
320,192,115134,1,0,0:0:0:0:
192,192,115209,1,0,0:0:0:0:
320,192,115284,1,0,0:0:0:0:
192,192,115359,1,0,0:0:0:0:
320,192,115434,1,0,0:0:0:0:
192,192,115509,1,0,0:0:0:0:
320,192,115584,1,0,0:0:0:0:
192,192,115659,1,0,0:0:0:0:
320,192,115734,1,0,0:0:0:0:
64,192,115734,128,0,116259:0:0:0:0:
192,192,115809,1,0,0:0:0:0:
320,192,115884,1,0,0:0:0:0:
192,192,115959,1,0,0:0:0:0:
320,192,116034,1,0,0:0:0:0:
192,192,116109,1,0,0:0:0:0:
320,192,116184,1,0,0:0:0:0:
192,192,116259,1,0,0:0:0:0:
320,192,116484,1,0,0:0:0:0:
448,192,116484,1,0,0:0:0:0:
448,192,116634,1,0,0:0:0:0:
192,192,116634,1,0,0:0:0:0:
320,192,116784,1,0,0:0:0:0:
192,192,116784,1,0,0:0:0:0:
64,192,116934,1,0,0:0:0:0:
320,192,116934,1,0,0:0:0:0:
64,192,117084,1,0,0:0:0:0:
192,192,117084,1,0,0:0:0:0:
448,192,117234,1,0,0:0:0:0:
320,192,117234,1,0,0:0:0:0:
192,192,117234,1,0,0:0:0:0:
64,192,117234,1,0,0:0:0:0:
448,192,117384,1,0,0:0:0:0:
320,192,117384,1,0,0:0:0:0:
64,192,117384,1,0,0:0:0:0:
192,192,117384,1,0,0:0:0:0:
