osu file format v13

[General]
AudioFilename: PLight feat. mow2 - BOOM! BOOM!! BOOM!!! (REDALiCE Remix).mp3
AudioLeadIn: 0
PreviewTime: 175494
Countdown: 1
SampleSet: Normal
StackLeniency: 0.8
Mode: 3
LetterboxInBreaks: 1
SpecialStyle: 0
WidescreenStoryboard: 0

[Editor]
DistanceSpacing: 1
BeatDivisor: 4
GridSize: 8
TimelineZoom: 0.9000001

[Metadata]
Title:BOOM! BOOM!! BOOM!!! (REDALiCE Remix)
TitleUnicode:BOOM! BOOM!! BOOM!!! (REDALiCE Remix)
Artist:P*Light feat. mow*2
ArtistUnicode:P*Light feat. mow*2
Creator:-Sandy Corzeta-
Version:4K BOOM! TRAP!!
Source:
Tags:BREAKIN'★STAR pichnopop C87
BeatmapID:589051
BeatmapSetID:257285

[Difficulty]
HPDrainRate:8
CircleSize:4
OverallDifficulty:9
ApproachRate:5
SliderMultiplier:1.4
SliderTickRate:1

[Events]
//Background and Video events
0,0,"Konachan.com - 42275 animal boota cat flowers garter_belt nia_teppelin rose tengen_toppa_gurren_lagann thighhighs.jpg",0,0
//Break Periods
//Storyboard Layer 0 (Background)
//Storyboard Layer 1 (Fail)
//Storyboard Layer 2 (Pass)
//Storyboard Layer 3 (Foreground)
//Storyboard Sound Samples

[TimingPoints]
975,352.920416446091,4,1,0,100,1,0

[HitObjects]
192,192,1327,5,0,0:0:0:0:
320,192,1327,1,0,0:0:0:0:
192,192,2739,1,0,0:0:0:0:
320,192,2739,1,0,0:0:0:0:
192,192,4151,1,0,0:0:0:0:
320,192,4151,1,0,0:0:0:0:
64,192,5386,1,0,0:0:0:0:
448,192,5386,1,0,0:0:0:0:
64,192,5739,1,0,0:0:0:0:
448,192,5739,1,0,0:0:0:0:
64,192,6092,1,0,0:0:0:0:
448,192,6092,1,0,0:0:0:0:
64,192,6268,1,0,0:0:0:0:
448,192,6268,1,0,0:0:0:0:
192,192,6268,1,0,0:0:0:0:
320,192,6268,1,0,0:0:0:0:
64,192,6974,1,0,0:0:0:0:
448,192,6974,1,0,0:0:0:0:
64,192,8386,1,0,0:0:0:0:
448,192,8386,1,0,0:0:0:0:
448,192,9798,1,0,0:0:0:0:
64,192,9798,1,0,0:0:0:0:
64,192,10856,1,0,0:0:0:0:
320,192,10856,1,0,0:0:0:0:
448,192,11209,1,0,0:0:0:0:
192,192,11209,1,0,0:0:0:0:
64,192,11562,1,0,0:0:0:0:
320,192,11562,1,0,0:0:0:0:
64,192,11915,1,0,0:0:0:0:
448,192,11915,1,0,0:0:0:0:
192,192,11915,1,0,0:0:0:0:
320,192,11915,1,0,0:0:0:0:
320,192,12268,1,0,0:0:0:0:
320,192,12621,1,0,0:0:0:0:
64,192,12621,1,0,0:0:0:0:
448,192,12621,1,0,0:0:0:0:
320,192,12974,1,0,0:0:0:0:
320,192,13327,1,0,0:0:0:0:
192,192,13680,1,0,0:0:0:0:
192,192,14033,1,0,0:0:0:0:
64,192,14033,1,0,0:0:0:0:
448,192,14033,1,0,0:0:0:0:
192,192,14385,1,0,0:0:0:0:
192,192,14738,1,0,0:0:0:0:
64,192,15091,1,0,0:0:0:0:
64,192,15444,1,0,0:0:0:0:
320,192,15444,1,0,0:0:0:0:
448,192,15444,1,0,0:0:0:0:
64,192,15797,1,0,0:0:0:0:
64,192,16150,1,0,0:0:0:0:
192,192,16503,1,0,0:0:0:0:
64,192,16679,1,0,0:0:0:0:
448,192,16679,1,0,0:0:0:0:
192,192,16856,1,0,0:0:0:0:
64,192,17032,1,0,0:0:0:0:
448,192,17032,1,0,0:0:0:0:
192,192,17209,1,0,0:0:0:0:
64,192,17385,1,0,0:0:0:0:
448,192,17385,1,0,0:0:0:0:
192,192,17562,1,0,0:0:0:0:
64,192,17562,1,0,0:0:0:0:
448,192,17562,1,0,0:0:0:0:
320,192,17562,1,0,0:0:0:0:
64,192,17915,1,0,0:0:0:0:
448,192,17915,1,0,0:0:0:0:
64,192,18268,1,0,0:0:0:0:
448,192,18268,1,0,0:0:0:0:
192,192,18268,1,0,0:0:0:0:
64,192,18621,1,0,0:0:0:0:
448,192,18621,1,0,0:0:0:0:
448,192,18973,1,0,0:0:0:0:
64,192,18973,1,0,0:0:0:0:
192,192,19326,1,0,0:0:0:0:
320,192,19326,1,0,0:0:0:0:
64,192,19503,1,0,0:0:0:0:
192,192,19679,1,0,0:0:0:0:
448,192,19856,1,0,0:0:0:0:
320,192,20032,1,0,0:0:0:0:
64,192,20209,1,0,0:0:0:0:
192,192,20385,1,0,0:0:0:0:
448,192,20562,1,0,0:0:0:0:
320,192,20738,1,0,0:0:0:0:
64,192,20915,1,0,0:0:0:0:
192,192,21091,1,0,0:0:0:0:
448,192,21267,1,0,0:0:0:0:
320,192,21444,1,0,0:0:0:0:
64,192,21620,1,0,0:0:0:0:
192,192,21797,1,0,0:0:0:0:
448,192,21973,1,0,0:0:0:0:
320,192,22150,1,0,0:0:0:0:
192,192,22150,1,0,0:0:0:0:
192,192,22503,1,0,0:0:0:0:
320,192,22503,1,0,0:0:0:0:
320,192,22856,1,0,0:0:0:0:
192,192,22856,1,0,0:0:0:0:
64,192,23208,1,0,0:0:0:0:
448,192,23208,1,0,0:0:0:0:
192,192,23208,1,0,0:0:0:0:
320,192,23208,1,0,0:0:0:0:
192,192,23561,128,0,26385:0:0:0:0:
448,192,24267,1,0,0:0:0:0:
448,192,24355,1,0,0:0:0:0:
320,192,24444,1,0,0:0:0:0:
320,192,24532,1,0,0:0:0:0:
64,192,24620,128,0,26385:0:0:0:0:
448,192,26385,128,0,26738:0:0:0:0:
320,192,26738,1,0,0:0:0:0:
448,192,27091,128,0,27444:0:0:0:0:
192,192,27444,1,0,0:0:0:0:
448,192,27796,128,0,28149:0:0:0:0:
64,192,28149,1,0,0:0:0:0:
320,192,28502,128,0,28855:0:0:0:0:
192,192,28855,1,0,0:0:0:0:
320,192,29208,128,0,29561:0:0:0:0:
64,192,29561,1,0,0:0:0:0:
192,192,29914,128,0,30267:0:0:0:0:
448,192,30267,1,0,0:0:0:0:
192,192,30620,128,0,30973:0:0:0:0:
320,192,30973,1,0,0:0:0:0:
64,192,31326,128,0,31679:0:0:0:0:
448,192,31679,1,0,0:0:0:0:
64,192,32031,128,0,32384:0:0:0:0:
320,192,32384,1,0,0:0:0:0:
64,192,32737,128,0,33090:0:0:0:0:
192,192,33090,1,0,0:0:0:0:
320,192,33443,128,0,33796:0:0:0:0:
448,192,33796,1,0,0:0:0:0:
192,192,34149,128,0,34502:0:0:0:0:
64,192,34502,1,0,0:0:0:0:
320,192,34855,128,0,35208:0:0:0:0:
192,192,35208,1,0,0:0:0:0:
448,192,35208,1,0,0:0:0:0:
192,192,35561,128,0,35914:0:0:0:0:
64,192,35914,1,0,0:0:0:0:
320,192,35914,1,0,0:0:0:0:
64,192,36267,128,0,36619:0:0:0:0:
192,192,36619,1,0,0:0:0:0:
320,192,36619,1,0,0:0:0:0:
192,192,36972,128,0,37325:0:0:0:0:
448,192,36972,1,0,0:0:0:0:
448,192,37061,1,0,0:0:0:0:
320,192,37149,1,0,0:0:0:0:
320,192,37237,1,0,0:0:0:0:
448,192,37325,1,0,0:0:0:0:
64,192,37325,128,0,39090:0:0:0:0:
320,192,37855,1,0,0:0:0:0:
192,192,38031,1,0,0:0:0:0:
448,192,38208,1,0,0:0:0:0:
320,192,38384,128,0,38737:0:0:0:0:
192,192,38737,1,0,0:0:0:0:
448,192,38737,1,0,0:0:0:0:
448,192,39090,1,0,0:0:0:0:
320,192,39266,1,0,0:0:0:0:
192,192,39443,1,0,0:0:0:0:
320,192,39619,1,0,0:0:0:0:
192,192,39796,128,0,40149:0:0:0:0:
64,192,40149,1,0,0:0:0:0:
448,192,40149,1,0,0:0:0:0:
320,192,40502,128,0,40855:0:0:0:0:
192,192,40855,1,0,0:0:0:0:
448,192,40855,1,0,0:0:0:0:
192,192,41207,128,0,41560:0:0:0:0:
64,192,41560,1,0,0:0:0:0:
320,192,41560,1,0,0:0:0:0:
448,192,41913,128,0,42266:0:0:0:0:
64,192,42266,1,0,0:0:0:0:
320,192,42266,1,0,0:0:0:0:
64,192,42619,128,0,42972:0:0:0:0:
192,192,42972,1,0,0:0:0:0:
448,192,42972,1,0,0:0:0:0:
320,192,43207,1,0,0:0:0:0:
192,192,43325,1,0,0:0:0:0:
320,192,43501,1,0,0:0:0:0:
448,192,43678,1,0,0:0:0:0:
192,192,43854,1,0,0:0:0:0:
320,192,44031,128,0,44384:0:0:0:0:
448,192,44384,1,0,0:0:0:0:
64,192,44384,1,0,0:0:0:0:
192,192,44560,1,0,0:0:0:0:
320,192,44737,1,0,0:0:0:0:
192,192,44913,1,0,0:0:0:0:
64,192,45090,1,0,0:0:0:0:
448,192,45090,1,0,0:0:0:0:
320,192,45266,1,0,0:0:0:0:
192,192,45442,128,0,45795:0:0:0:0:
64,192,45795,1,0,0:0:0:0:
448,192,45795,1,0,0:0:0:0:
64,192,46148,128,0,46501:0:0:0:0:
448,192,46148,128,0,46501:0:0:0:0:
192,192,46501,1,0,0:0:0:0:
320,192,46501,1,0,0:0:0:0:
64,192,46854,128,0,47207:0:0:0:0:
448,192,46854,128,0,47207:0:0:0:0:
192,192,47207,1,0,0:0:0:0:
320,192,47207,1,0,0:0:0:0:
192,192,47560,128,0,47913:0:0:0:0:
320,192,47560,128,0,47913:0:0:0:0:
64,192,47913,1,0,0:0:0:0:
448,192,47913,1,0,0:0:0:0:
192,192,48266,128,0,48619:0:0:0:0:
320,192,48266,128,0,48619:0:0:0:0:
64,192,48619,1,0,0:0:0:0:
448,192,48619,1,0,0:0:0:0:
64,192,48795,1,0,0:0:0:0:
448,192,48795,1,0,0:0:0:0:
192,192,48972,1,0,0:0:0:0:
319,233,48972,1,0,0:0:0:0:
448,192,49148,1,0,0:0:0:0:
320,192,49325,1,0,0:0:0:0:
192,192,49501,1,0,0:0:0:0:
320,192,49678,128,0,50030:0:0:0:0:
192,192,50030,128,0,50207:0:0:0:0:
64,192,50207,1,0,0:0:0:0:
320,192,50560,1,0,0:0:0:0:
192,192,50736,1,0,0:0:0:0:
320,192,50913,1,0,0:0:0:0:
64,192,51089,1,0,0:0:0:0:
192,192,51266,1,0,0:0:0:0:
320,192,51442,128,0,51795:0:0:0:0:
64,192,51972,1,0,0:0:0:0:
192,192,52148,1,0,0:0:0:0:
192,192,52324,1,0,0:0:0:0:
448,192,52501,128,0,52766:0:0:0:0:
320,192,52766,128,0,53030:0:0:0:0:
192,192,53030,1,0,0:0:0:0:
64,192,53207,1,0,0:0:0:0:
320,192,53383,1,0,0:0:0:0:
192,192,53560,1,0,0:0:0:0:
448,192,53736,1,0,0:0:0:0:
320,192,53913,128,0,54265:0:0:0:0:
448,192,54265,1,0,0:0:0:0:
64,192,54442,1,0,0:0:0:0:
64,192,54618,1,0,0:0:0:0:
448,192,54618,1,0,0:0:0:0:
320,192,54618,1,0,0:0:0:0:
192,192,54795,1,0,0:0:0:0:
320,192,54971,1,0,0:0:0:0:
448,192,55148,1,0,0:0:0:0:
64,192,55324,1,0,0:0:0:0:
192,192,55501,1,0,0:0:0:0:
64,192,55677,1,0,0:0:0:0:
448,192,55677,1,0,0:0:0:0:
320,192,55854,1,0,0:0:0:0:
192,192,56207,1,0,0:0:0:0:
448,192,56383,1,0,0:0:0:0:
320,192,56559,1,0,0:0:0:0:
192,192,56736,1,0,0:0:0:0:
320,192,56912,1,0,0:0:0:0:
192,192,57001,1,0,0:0:0:0:
64,192,57089,1,0,0:0:0:0:
192,192,57265,1,0,0:0:0:0:
320,192,57442,128,0,57618:0:0:0:0:
448,192,57618,128,0,57795:0:0:0:0:
320,192,57795,1,0,0:0:0:0:
192,192,57971,1,0,0:0:0:0:
64,192,58148,1,0,0:0:0:0:
320,192,58324,1,0,0:0:0:0:
192,192,58501,1,0,0:0:0:0:
192,192,58853,1,0,0:0:0:0:
448,192,58853,1,0,0:0:0:0:
64,192,59118,1,0,0:0:0:0:
320,192,59118,1,0,0:0:0:0:
192,192,59383,128,0,59736:0:0:0:0:
448,192,59383,128,0,59736:0:0:0:0:
320,192,59736,128,0,60265:0:0:0:0:
64,192,60089,1,0,0:0:0:0:
192,192,60265,1,0,0:0:0:0:
320,192,60442,1,0,0:0:0:0:
192,192,60618,1,0,0:0:0:0:
64,192,60795,1,0,0:0:0:0:
448,192,60971,1,0,0:0:0:0:
320,192,61147,128,0,61324:0:0:0:0:
192,192,61324,128,0,61500:0:0:0:0:
320,192,61500,128,0,61677:0:0:0:0:
64,192,61677,1,0,0:0:0:0:
192,192,61942,1,0,0:0:0:0:
64,192,62206,128,0,62559:0:0:0:0:
320,192,62206,128,0,62559:0:0:0:0:
192,192,62912,128,0,63088:0:0:0:0:
320,192,63088,128,0,63265:0:0:0:0:
448,192,63265,1,0,0:0:0:0:
192,192,63441,1,0,0:0:0:0:
64,192,63618,1,0,0:0:0:0:
192,192,63794,1,0,0:0:0:0:
320,192,63971,1,0,0:0:0:0:
192,192,64147,1,0,0:0:0:0:
320,192,64324,1,0,0:0:0:0:
448,192,64500,128,0,64765:0:0:0:0:
320,192,64765,128,0,65030:0:0:0:0:
192,192,65030,128,0,65559:0:0:0:0:
64,192,65559,1,0,0:0:0:0:
320,192,65559,1,0,0:0:0:0:
192,192,65912,1,0,0:0:0:0:
448,192,65912,1,0,0:0:0:0:
320,192,66088,1,0,0:0:0:0:
320,192,66441,1,0,0:0:0:0:
64,192,66441,1,0,0:0:0:0:
448,192,66441,1,0,0:0:0:0:
320,192,66794,1,0,0:0:0:0:
192,192,66971,1,0,0:0:0:0:
64,192,67147,1,0,0:0:0:0:
320,192,67324,128,0,67588:0:0:0:0:
192,192,67324,1,0,0:0:0:0:
192,192,67588,128,0,67853:0:0:0:0:
64,192,67853,1,0,0:0:0:0:
448,192,67853,128,0,68206:0:0:0:0:
64,192,68206,1,0,0:0:0:0:
320,192,68206,1,0,0:0:0:0:
64,192,68382,1,0,0:0:0:0:
320,192,68382,1,0,0:0:0:0:
64,192,68735,1,0,0:0:0:0:
320,192,68735,1,0,0:0:0:0:
64,192,68912,1,0,0:0:0:0:
320,192,68912,1,0,0:0:0:0:
64,192,69000,1,0,0:0:0:0:
320,192,69000,1,0,0:0:0:0:
192,192,69441,1,0,0:0:0:0:
448,192,69441,1,0,0:0:0:0:
192,192,69618,1,0,0:0:0:0:
448,192,69618,1,0,0:0:0:0:
192,192,69706,1,0,0:0:0:0:
448,192,69706,1,0,0:0:0:0:
448,192,70147,1,0,0:0:0:0:
320,192,70265,1,0,0:0:0:0:
448,192,70382,1,0,0:0:0:0:
320,192,70500,1,0,0:0:0:0:
192,192,70617,1,0,0:0:0:0:
64,192,70735,128,0,71559:0:0:0:0:
320,192,70735,1,0,0:0:0:0:
448,192,70853,1,0,0:0:0:0:
448,192,70970,1,0,0:0:0:0:
448,192,71088,1,0,0:0:0:0:
448,192,71206,1,0,0:0:0:0:
448,192,71323,1,0,0:0:0:0:
448,192,71441,1,0,0:0:0:0:
192,192,71559,1,0,0:0:0:0:
320,192,71559,1,0,0:0:0:0:
192,192,71823,1,0,0:0:0:0:
64,192,71823,1,0,0:0:0:0:
320,192,71823,1,0,0:0:0:0:
192,192,72088,1,0,0:0:0:0:
320,192,72088,1,0,0:0:0:0:
448,192,72088,1,0,0:0:0:0:
192,192,72264,1,0,0:0:0:0:
320,192,72264,1,0,0:0:0:0:
448,192,72264,1,0,0:0:0:0:
64,192,72441,1,0,0:0:0:0:
64,192,72617,1,0,0:0:0:0:
64,192,72794,1,0,0:0:0:0:
64,192,72970,128,0,74205:0:0:0:0:
448,192,72970,1,0,0:0:0:0:
320,192,73147,1,0,0:0:0:0:
192,192,73323,1,0,0:0:0:0:
192,192,73500,1,0,0:0:0:0:
320,192,73676,1,0,0:0:0:0:
448,192,73676,1,0,0:0:0:0:
448,192,74205,128,0,75264:0:0:0:0:
320,192,74205,1,0,0:0:0:0:
192,192,74382,1,0,0:0:0:0:
64,192,74558,1,0,0:0:0:0:
320,192,74735,1,0,0:0:0:0:
192,192,74911,1,0,0:0:0:0:
64,192,75088,1,0,0:0:0:0:
320,192,75088,1,0,0:0:0:0:
192,192,75264,128,0,75794:0:0:0:0:
64,192,75264,1,0,0:0:0:0:
320,192,75794,128,0,77029:0:0:0:0:
64,192,75794,1,0,0:0:0:0:
448,192,75794,1,0,0:0:0:0:
192,192,75970,1,0,0:0:0:0:
64,192,76147,1,0,0:0:0:0:
192,192,76323,1,0,0:0:0:0:
192,192,76499,1,0,0:0:0:0:
448,192,76499,1,0,0:0:0:0:
64,192,77029,128,0,78088:0:0:0:0:
192,192,77029,1,0,0:0:0:0:
320,192,77205,1,0,0:0:0:0:
448,192,77382,1,0,0:0:0:0:
192,192,77558,1,0,0:0:0:0:
320,192,77735,1,0,0:0:0:0:
192,192,77911,1,0,0:0:0:0:
448,192,77911,1,0,0:0:0:0:
320,192,78088,128,0,78617:0:0:0:0:
192,192,78088,1,0,0:0:0:0:
192,192,78617,128,0,79852:0:0:0:0:
64,192,78617,1,0,0:0:0:0:
448,192,78617,1,0,0:0:0:0:
320,192,78793,1,0,0:0:0:0:
64,192,78970,1,0,0:0:0:0:
448,192,79146,1,0,0:0:0:0:
320,192,79323,1,0,0:0:0:0:
64,192,79323,1,0,0:0:0:0:
64,192,79852,128,0,80911:0:0:0:0:
448,192,79852,1,0,0:0:0:0:
320,192,80029,1,0,0:0:0:0:
192,192,80205,1,0,0:0:0:0:
448,192,80382,1,0,0:0:0:0:
320,192,80558,1,0,0:0:0:0:
192,192,80735,1,0,0:0:0:0:
448,192,80735,1,0,0:0:0:0:
320,192,80911,128,0,81440:0:0:0:0:
192,192,80911,1,0,0:0:0:0:
448,192,81440,128,0,82676:0:0:0:0:
64,192,81440,1,0,0:0:0:0:
192,192,81617,1,0,0:0:0:0:
320,192,81793,1,0,0:0:0:0:
64,192,81970,1,0,0:0:0:0:
192,192,82146,1,0,0:0:0:0:
320,192,82323,1,0,0:0:0:0:
192,192,82499,1,0,0:0:0:0:
320,192,82676,128,0,83734:0:0:0:0:
64,192,82676,1,0,0:0:0:0:
64,192,82852,1,0,0:0:0:0:
448,192,82852,1,0,0:0:0:0:
64,192,83205,1,0,0:0:0:0:
448,192,83205,1,0,0:0:0:0:
64,192,83558,1,0,0:0:0:0:
448,192,83558,1,0,0:0:0:0:
448,192,83734,128,0,83999:0:0:0:0:
192,192,83734,1,0,0:0:0:0:
64,192,83999,1,0,0:0:0:0:
192,192,84087,1,0,0:0:0:0:
320,192,84175,1,0,0:0:0:0:
448,192,84264,1,0,0:0:0:0:
64,192,84264,128,0,84617:0:0:0:0:
192,192,84617,128,0,84970:0:0:0:0:
448,192,84617,1,0,0:0:0:0:
320,192,84970,1,0,0:0:0:0:
320,192,85146,1,0,0:0:0:0:
320,192,85322,1,0,0:0:0:0:
192,192,85499,1,0,0:0:0:0:
448,192,85499,1,0,0:0:0:0:
64,192,85499,128,0,86558:0:0:0:0:
320,192,85675,1,0,0:0:0:0:
192,192,85852,1,0,0:0:0:0:
448,192,86028,1,0,0:0:0:0:
320,192,86205,1,0,0:0:0:0:
192,192,86381,1,0,0:0:0:0:
448,192,86381,1,0,0:0:0:0:
320,192,86558,128,0,87087:0:0:0:0:
192,192,86558,1,0,0:0:0:0:
192,192,87087,128,0,88322:0:0:0:0:
448,192,87087,1,0,0:0:0:0:
320,192,87264,1,0,0:0:0:0:
64,192,87440,1,0,0:0:0:0:
448,192,87616,1,0,0:0:0:0:
320,192,87793,1,0,0:0:0:0:
448,192,87969,1,0,0:0:0:0:
320,192,88146,1,0,0:0:0:0:
64,192,88146,1,0,0:0:0:0:
448,192,88322,128,0,89381:0:0:0:0:
64,192,88322,1,0,0:0:0:0:
192,192,88499,1,0,0:0:0:0:
320,192,88675,1,0,0:0:0:0:
64,192,88852,1,0,0:0:0:0:
192,192,89028,1,0,0:0:0:0:
64,192,89205,1,0,0:0:0:0:
320,192,89205,1,0,0:0:0:0:
64,192,89381,128,0,89910:0:0:0:0:
192,192,89381,1,0,0:0:0:0:
192,192,89910,128,0,90263:0:0:0:0:
448,192,89910,1,0,0:0:0:0:
320,192,90263,128,0,90616:0:0:0:0:
64,192,90263,1,0,0:0:0:0:
448,192,90263,1,0,0:0:0:0:
448,192,90616,128,0,90969:0:0:0:0:
64,192,90616,1,0,0:0:0:0:
192,192,90969,128,0,91146:0:0:0:0:
320,192,90969,1,0,0:0:0:0:
64,192,91146,128,0,91322:0:0:0:0:
320,192,91146,1,0,0:0:0:0:
448,192,91499,128,0,91675:0:0:0:0:
320,192,91499,1,0,0:0:0:0:
320,192,91675,128,0,91852:0:0:0:0:
192,192,91675,1,0,0:0:0:0:
192,192,91852,128,0,92028:0:0:0:0:
64,192,91852,1,0,0:0:0:0:
448,192,91852,1,0,0:0:0:0:
64,192,92028,128,0,92381:0:0:0:0:
320,192,92028,1,0,0:0:0:0:
448,192,92381,128,0,92734:0:0:0:0:
192,192,92381,1,0,0:0:0:0:
320,192,92381,1,0,0:0:0:0:
192,192,92734,128,0,93969:0:0:0:0:
64,192,92734,1,0,0:0:0:0:
320,192,92910,1,0,0:0:0:0:
448,192,93087,1,0,0:0:0:0:
320,192,93263,1,0,0:0:0:0:
64,192,93440,1,0,0:0:0:0:
448,192,93440,1,0,0:0:0:0:
320,192,93616,1,0,0:0:0:0:
64,192,93793,1,0,0:0:0:0:
448,192,93969,128,0,95204:0:0:0:0:
320,192,93969,1,0,0:0:0:0:
64,192,94145,1,0,0:0:0:0:
320,192,94145,1,0,0:0:0:0:
64,192,94498,1,0,0:0:0:0:
320,192,94498,1,0,0:0:0:0:
64,192,94851,1,0,0:0:0:0:
320,192,94851,1,0,0:0:0:0:
64,192,95204,1,0,0:0:0:0:
192,192,95204,1,0,0:0:0:0:
320,192,95204,1,0,0:0:0:0:
64,192,95557,1,0,0:0:0:0:
64,192,95910,1,0,0:0:0:0:
192,192,96263,1,0,0:0:0:0:
192,192,96616,1,0,0:0:0:0:
320,192,96969,1,0,0:0:0:0:
320,192,97322,1,0,0:0:0:0:
448,192,97675,1,0,0:0:0:0:
448,192,98028,1,0,0:0:0:0:
64,192,98381,1,0,0:0:0:0:
320,192,98381,1,0,0:0:0:0:
64,192,98733,1,0,0:0:0:0:
320,192,98733,1,0,0:0:0:0:
192,192,99086,1,0,0:0:0:0:
448,192,99086,1,0,0:0:0:0:
192,192,99439,1,0,0:0:0:0:
448,192,99439,1,0,0:0:0:0:
64,192,99792,1,0,0:0:0:0:
320,192,99792,1,0,0:0:0:0:
448,192,99792,1,0,0:0:0:0:
64,192,100145,1,0,0:0:0:0:
320,192,100145,1,0,0:0:0:0:
448,192,100145,1,0,0:0:0:0:
64,192,100498,1,0,0:0:0:0:
192,192,100498,1,0,0:0:0:0:
448,192,100498,1,0,0:0:0:0:
64,192,100851,1,0,0:0:0:0:
192,192,100851,1,0,0:0:0:0:
448,192,100851,1,0,0:0:0:0:
64,192,101204,1,0,0:0:0:0:
192,192,101292,1,0,0:0:0:0:
320,192,101380,1,0,0:0:0:0:
448,192,101469,1,0,0:0:0:0:
64,192,101469,1,0,0:0:0:0:
192,192,101557,1,0,0:0:0:0:
320,192,101645,1,0,0:0:0:0:
448,192,101733,1,0,0:0:0:0:
64,192,101733,1,0,0:0:0:0:
192,192,101822,1,0,0:0:0:0:
320,192,101910,1,0,0:0:0:0:
448,192,101998,1,0,0:0:0:0:
64,192,101998,1,0,0:0:0:0:
192,192,102086,1,0,0:0:0:0:
320,192,102174,1,0,0:0:0:0:
448,192,102263,1,0,0:0:0:0:
64,192,102263,1,0,0:0:0:0:
192,192,102351,1,0,0:0:0:0:
320,192,102439,1,0,0:0:0:0:
448,192,102527,1,0,0:0:0:0:
64,192,102527,1,0,0:0:0:0:
192,192,102616,1,0,0:0:0:0:
320,192,102704,1,0,0:0:0:0:
448,192,102792,1,0,0:0:0:0:
320,192,102880,1,0,0:0:0:0:
192,192,102969,1,0,0:0:0:0:
64,192,103057,1,0,0:0:0:0:
192,192,103145,1,0,0:0:0:0:
320,192,103233,1,0,0:0:0:0:
448,192,103321,1,0,0:0:0:0:
320,192,103410,1,0,0:0:0:0:
192,192,103498,1,0,0:0:0:0:
64,192,103586,1,0,0:0:0:0:
192,192,103674,1,0,0:0:0:0:
320,192,103763,1,0,0:0:0:0:
448,192,103851,1,0,0:0:0:0:
320,192,103939,1,0,0:0:0:0:
192,192,104027,1,0,0:0:0:0:
64,192,104115,1,0,0:0:0:0:
448,192,104115,1,0,0:0:0:0:
320,192,104204,1,0,0:0:0:0:
192,192,104292,1,0,0:0:0:0:
64,192,104380,1,0,0:0:0:0:
448,192,104380,1,0,0:0:0:0:
320,192,104468,1,0,0:0:0:0:
192,192,104557,1,0,0:0:0:0:
64,192,104645,1,0,0:0:0:0:
448,192,104645,1,0,0:0:0:0:
320,192,104733,1,0,0:0:0:0:
192,192,104821,1,0,0:0:0:0:
64,192,104910,1,0,0:0:0:0:
448,192,104910,1,0,0:0:0:0:
320,192,104998,1,0,0:0:0:0:
192,192,105086,1,0,0:0:0:0:
64,192,105174,1,0,0:0:0:0:
448,192,105174,1,0,0:0:0:0:
320,192,105262,1,0,0:0:0:0:
192,192,105351,1,0,0:0:0:0:
64,192,105439,1,0,0:0:0:0:
448,192,105439,1,0,0:0:0:0:
64,192,105792,1,0,0:0:0:0:
320,192,105792,1,0,0:0:0:0:
192,192,106145,1,0,0:0:0:0:
448,192,106145,1,0,0:0:0:0:
64,192,106498,1,0,0:0:0:0:
192,192,106498,1,0,0:0:0:0:
320,192,106498,1,0,0:0:0:0:
448,192,106498,1,0,0:0:0:0:
192,192,106851,128,0,107204:0:0:0:0:
64,192,106851,1,0,0:0:0:0:
448,192,106851,1,0,0:0:0:0:
320,192,107204,128,0,107380:0:0:0:0:
64,192,107204,1,0,0:0:0:0:
64,192,107556,128,0,107733:0:0:0:0:
320,192,107556,1,0,0:0:0:0:
64,192,107909,1,0,0:0:0:0:
448,192,108027,1,0,0:0:0:0:
64,192,108145,1,0,0:0:0:0:
448,192,108262,1,0,0:0:0:0:
192,192,108262,1,0,0:0:0:0:
64,192,108380,1,0,0:0:0:0:
448,192,108498,1,0,0:0:0:0:
320,192,108615,1,0,0:0:0:0:
64,192,108615,1,0,0:0:0:0:
192,192,108733,1,0,0:0:0:0:
320,192,108851,1,0,0:0:0:0:
64,192,108968,1,0,0:0:0:0:
192,192,108968,1,0,0:0:0:0:
320,192,109086,1,0,0:0:0:0:
192,192,109203,1,0,0:0:0:0:
64,192,109321,1,0,0:0:0:0:
448,192,109321,1,0,0:0:0:0:
64,192,109674,1,0,0:0:0:0:
448,192,109674,1,0,0:0:0:0:
320,192,109674,128,0,110027:0:0:0:0:
448,192,110027,1,0,0:0:0:0:
192,192,110027,128,0,110203:0:0:0:0:
192,192,110380,1,0,0:0:0:0:
448,192,110380,128,0,110556:0:0:0:0:
448,192,110733,1,0,0:0:0:0:
64,192,110850,1,0,0:0:0:0:
448,192,110968,1,0,0:0:0:0:
320,192,111086,1,0,0:0:0:0:
64,192,111086,1,0,0:0:0:0:
448,192,111203,1,0,0:0:0:0:
64,192,111321,1,0,0:0:0:0:
448,192,111439,1,0,0:0:0:0:
192,192,111439,1,0,0:0:0:0:
320,192,111556,1,0,0:0:0:0:
192,192,111674,1,0,0:0:0:0:
448,192,111792,1,0,0:0:0:0:
320,192,111792,1,0,0:0:0:0:
192,192,111909,1,0,0:0:0:0:
320,192,112027,1,0,0:0:0:0:
448,192,112144,1,0,0:0:0:0:
64,192,112144,1,0,0:0:0:0:
64,192,112497,128,0,112850:0:0:0:0:
448,192,112497,128,0,112850:0:0:0:0:
320,192,112850,128,0,113027:0:0:0:0:
192,192,112850,1,0,0:0:0:0:
192,192,113203,128,0,113380:0:0:0:0:
320,192,113203,1,0,0:0:0:0:
448,192,113556,1,0,0:0:0:0:
64,192,113556,1,0,0:0:0:0:
448,192,113674,1,0,0:0:0:0:
192,192,113791,1,0,0:0:0:0:
320,192,113909,1,0,0:0:0:0:
64,192,113909,1,0,0:0:0:0:
192,192,114027,1,0,0:0:0:0:
64,192,114144,1,0,0:0:0:0:
448,192,114262,1,0,0:0:0:0:
192,192,114262,1,0,0:0:0:0:
320,192,114380,1,0,0:0:0:0:
192,192,114497,1,0,0:0:0:0:
320,192,114615,1,0,0:0:0:0:
64,192,114615,1,0,0:0:0:0:
192,192,114733,1,0,0:0:0:0:
320,192,114850,1,0,0:0:0:0:
64,192,114968,1,0,0:0:0:0:
192,192,114968,1,0,0:0:0:0:
448,192,114968,1,0,0:0:0:0:
192,192,115321,128,0,115497:0:0:0:0:
320,192,115497,1,0,0:0:0:0:
448,192,115674,128,0,115850:0:0:0:0:
320,192,115850,1,0,0:0:0:0:
192,192,116027,128,0,116203:0:0:0:0:
64,192,116203,1,0,0:0:0:0:
320,192,116379,128,0,116556:0:0:0:0:
192,192,116556,128,0,116732:0:0:0:0:
64,192,116732,1,0,0:0:0:0:
320,192,116732,1,0,0:0:0:0:
448,192,116732,1,0,0:0:0:0:
320,192,116909,128,0,117085:0:0:0:0:
192,192,117085,1,0,0:0:0:0:
448,192,117085,1,0,0:0:0:0:
192,192,117262,128,0,117438:0:0:0:0:
64,192,117438,1,0,0:0:0:0:
320,192,117438,1,0,0:0:0:0:
448,192,117615,1,0,0:0:0:0:
192,192,117615,1,0,0:0:0:0:
448,192,117791,1,0,0:0:0:0:
192,192,117791,1,0,0:0:0:0:
64,192,117791,1,0,0:0:0:0:
320,192,117791,1,0,0:0:0:0:
64,192,118144,128,0,118497:0:0:0:0:
320,192,118144,1,0,0:0:0:0:
448,192,118497,128,0,118673:0:0:0:0:
320,192,118497,1,0,0:0:0:0:
192,192,118850,128,0,119026:0:0:0:0:
320,192,118850,1,0,0:0:0:0:
448,192,119203,1,0,0:0:0:0:
64,192,119203,1,0,0:0:0:0:
320,192,119320,1,0,0:0:0:0:
192,192,119438,1,0,0:0:0:0:
448,192,119556,1,0,0:0:0:0:
64,192,119556,1,0,0:0:0:0:
320,192,119673,1,0,0:0:0:0:
192,192,119791,1,0,0:0:0:0:
320,192,119909,1,0,0:0:0:0:
64,192,119909,1,0,0:0:0:0:
192,192,120026,1,0,0:0:0:0:
64,192,120144,1,0,0:0:0:0:
448,192,120262,1,0,0:0:0:0:
192,192,120262,1,0,0:0:0:0:
320,192,120379,1,0,0:0:0:0:
448,192,120497,1,0,0:0:0:0:
64,192,120615,1,0,0:0:0:0:
320,192,120615,1,0,0:0:0:0:
192,192,120615,1,0,0:0:0:0:
448,192,120967,128,0,121320:0:0:0:0:
192,192,120967,1,0,0:0:0:0:
64,192,121320,128,0,121497:0:0:0:0:
192,192,121320,1,0,0:0:0:0:
320,192,121673,128,0,121850:0:0:0:0:
192,192,121673,1,0,0:0:0:0:
64,192,122026,1,0,0:0:0:0:
448,192,122026,1,0,0:0:0:0:
192,192,122144,1,0,0:0:0:0:
320,192,122261,1,0,0:0:0:0:
64,192,122379,1,0,0:0:0:0:
448,192,122379,1,0,0:0:0:0:
192,192,122497,1,0,0:0:0:0:
320,192,122614,1,0,0:0:0:0:
192,192,122732,1,0,0:0:0:0:
448,192,122732,1,0,0:0:0:0:
320,192,122850,1,0,0:0:0:0:
448,192,122967,1,0,0:0:0:0:
320,192,123085,1,0,0:0:0:0:
64,192,123085,1,0,0:0:0:0:
192,192,123203,1,0,0:0:0:0:
64,192,123320,1,0,0:0:0:0:
448,192,123438,1,0,0:0:0:0:
192,192,123438,1,0,0:0:0:0:
320,192,123438,1,0,0:0:0:0:
192,192,123791,128,0,124144:0:0:0:0:
320,192,123791,128,0,124144:0:0:0:0:
64,192,124144,128,0,124320:0:0:0:0:
448,192,124144,1,0,0:0:0:0:
448,192,124497,128,0,124673:0:0:0:0:
64,192,124497,1,0,0:0:0:0:
64,192,124850,1,0,0:0:0:0:
320,192,124850,1,0,0:0:0:0:
192,192,124967,1,0,0:0:0:0:
320,192,125085,1,0,0:0:0:0:
448,192,125202,1,0,0:0:0:0:
64,192,125202,1,0,0:0:0:0:
320,192,125320,1,0,0:0:0:0:
192,192,125438,1,0,0:0:0:0:
320,192,125555,1,0,0:0:0:0:
64,192,125555,1,0,0:0:0:0:
192,192,125673,1,0,0:0:0:0:
64,192,125791,1,0,0:0:0:0:
448,192,125908,1,0,0:0:0:0:
192,192,125908,1,0,0:0:0:0:
64,192,126026,1,0,0:0:0:0:
320,192,126144,1,0,0:0:0:0:
192,192,126261,1,0,0:0:0:0:
64,192,126261,1,0,0:0:0:0:
448,192,126261,1,0,0:0:0:0:
448,192,126614,128,0,126879:0:0:0:0:
320,192,126879,128,0,127144:0:0:0:0:
192,192,127144,128,0,127408:0:0:0:0:
320,192,127408,128,0,127673:0:0:0:0:
64,192,127673,128,0,127849:0:0:0:0:
192,192,127849,1,0,0:0:0:0:
320,192,127938,1,0,0:0:0:0:
448,192,128026,1,0,0:0:0:0:
64,192,128026,1,0,0:0:0:0:
64,192,128379,1,0,0:0:0:0:
320,192,128379,1,0,0:0:0:0:
192,192,128732,1,0,0:0:0:0:
448,192,128732,1,0,0:0:0:0:
320,192,128732,128,0,129085:0:0:0:0:
192,192,129085,128,0,129438:0:0:0:0:
64,192,129085,1,0,0:0:0:0:
448,192,129085,1,0,0:0:0:0:
448,192,129438,128,0,130673:0:0:0:0:
320,192,129438,1,0,0:0:0:0:
192,192,129614,1,0,0:0:0:0:
64,192,129790,1,0,0:0:0:0:
192,192,129967,1,0,0:0:0:0:
64,192,130143,1,0,0:0:0:0:
320,192,130143,1,0,0:0:0:0:
192,192,130673,128,0,131732:0:0:0:0:
320,192,130673,1,0,0:0:0:0:
448,192,130849,1,0,0:0:0:0:
64,192,131026,1,0,0:0:0:0:
448,192,131202,1,0,0:0:0:0:
320,192,131379,1,0,0:0:0:0:
64,192,131555,1,0,0:0:0:0:
448,192,131555,1,0,0:0:0:0:
320,192,131732,128,0,132261:0:0:0:0:
448,192,131732,1,0,0:0:0:0:
64,192,132261,128,0,133496:0:0:0:0:
192,192,132261,1,0,0:0:0:0:
320,192,132437,1,0,0:0:0:0:
448,192,132614,1,0,0:0:0:0:
320,192,132790,1,0,0:0:0:0:
192,192,132967,1,0,0:0:0:0:
448,192,132967,1,0,0:0:0:0:
320,192,133496,128,0,134555:0:0:0:0:
192,192,133496,1,0,0:0:0:0:
64,192,133673,1,0,0:0:0:0:
448,192,133849,1,0,0:0:0:0:
64,192,134025,1,0,0:0:0:0:
192,192,134202,1,0,0:0:0:0:
64,192,134378,1,0,0:0:0:0:
448,192,134378,1,0,0:0:0:0:
192,192,134555,128,0,135084:0:0:0:0:
448,192,134555,1,0,0:0:0:0:
448,192,135084,128,0,136319:0:0:0:0:
64,192,135084,1,0,0:0:0:0:
192,192,135261,1,0,0:0:0:0:
320,192,135437,1,0,0:0:0:0:
192,192,135614,1,0,0:0:0:0:
320,192,135790,1,0,0:0:0:0:
64,192,135790,1,0,0:0:0:0:
192,192,136319,128,0,137378:0:0:0:0:
64,192,136319,1,0,0:0:0:0:
320,192,136496,1,0,0:0:0:0:
448,192,136672,1,0,0:0:0:0:
64,192,136849,1,0,0:0:0:0:
320,192,137025,1,0,0:0:0:0:
64,192,137202,1,0,0:0:0:0:
448,192,137202,1,0,0:0:0:0:
448,192,137378,128,0,137908:0:0:0:0:
320,192,137378,1,0,0:0:0:0:
192,192,137908,128,0,139143:0:0:0:0:
320,192,137908,1,0,0:0:0:0:
320,192,138084,1,0,0:0:0:0:
448,192,138261,1,0,0:0:0:0:
320,192,138437,1,0,0:0:0:0:
64,192,138613,1,0,0:0:0:0:
448,192,138613,1,0,0:0:0:0:
320,192,139143,128,0,140731:0:0:0:0:
64,192,139143,1,0,0:0:0:0:
64,192,139496,1,0,0:0:0:0:
448,192,139496,1,0,0:0:0:0:
64,192,139849,1,0,0:0:0:0:
448,192,139849,1,0,0:0:0:0:
64,192,140202,1,0,0:0:0:0:
448,192,140202,1,0,0:0:0:0:
64,192,140378,1,0,0:0:0:0:
448,192,140378,1,0,0:0:0:0:
192,192,140731,128,0,141084:0:0:0:0:
320,192,141084,1,0,0:0:0:0:
64,192,141437,1,0,0:0:0:0:
192,192,141437,1,0,0:0:0:0:
448,192,141437,1,0,0:0:0:0:
64,192,141966,128,0,143025:0:0:0:0:
320,192,141966,1,0,0:0:0:0:
192,192,142143,1,0,0:0:0:0:
320,192,142319,1,0,0:0:0:0:
448,192,142496,1,0,0:0:0:0:
320,192,142672,1,0,0:0:0:0:
192,192,142849,1,0,0:0:0:0:
448,192,142849,1,0,0:0:0:0:
320,192,143025,128,0,143554:0:0:0:0:
192,192,143025,1,0,0:0:0:0:
192,192,143554,128,0,144790:0:0:0:0:
448,192,143554,1,0,0:0:0:0:
320,192,143731,1,0,0:0:0:0:
64,192,143907,1,0,0:0:0:0:
448,192,144084,1,0,0:0:0:0:
64,192,144260,1,0,0:0:0:0:
320,192,144260,1,0,0:0:0:0:
448,192,144790,128,0,145848:0:0:0:0:
320,192,144790,1,0,0:0:0:0:
192,192,144966,1,0,0:0:0:0:
64,192,145142,1,0,0:0:0:0:
192,192,145319,1,0,0:0:0:0:
320,192,145495,1,0,0:0:0:0:
64,192,145672,1,0,0:0:0:0:
192,192,145672,1,0,0:0:0:0:
320,192,145848,128,0,146378:0:0:0:0:
64,192,145848,1,0,0:0:0:0:
64,192,146378,128,0,146731:0:0:0:0:
192,192,146378,1,0,0:0:0:0:
192,192,146731,128,0,147084:0:0:0:0:
320,192,146731,1,0,0:0:0:0:
320,192,147084,128,0,147436:0:0:0:0:
448,192,147084,1,0,0:0:0:0:
64,192,147084,1,0,0:0:0:0:
448,192,147436,128,0,147613:0:0:0:0:
192,192,147436,1,0,0:0:0:0:
64,192,147613,128,0,147966:0:0:0:0:
320,192,147613,1,0,0:0:0:0:
192,192,147613,1,0,0:0:0:0:
192,192,147966,128,0,148142:0:0:0:0:
448,192,147966,1,0,0:0:0:0:
320,192,148142,128,0,148319:0:0:0:0:
64,192,148142,1,0,0:0:0:0:
192,192,148319,128,0,148495:0:0:0:0:
448,192,148319,1,0,0:0:0:0:
448,192,148495,128,0,148848:0:0:0:0:
320,192,148495,1,0,0:0:0:0:
64,192,148848,128,0,149201:0:0:0:0:
192,192,148848,1,0,0:0:0:0:
320,192,149201,128,0,150613:0:0:0:0:
448,192,149201,1,0,0:0:0:0:
64,192,150613,1,0,0:0:0:0:
192,192,150613,1,0,0:0:0:0:
448,192,150613,1,0,0:0:0:0:
64,192,150966,1,0,0:0:0:0:
192,192,150966,1,0,0:0:0:0:
448,192,150966,1,0,0:0:0:0:
64,192,151319,1,0,0:0:0:0:
192,192,151319,1,0,0:0:0:0:
448,192,151319,1,0,0:0:0:0:
192,192,151672,1,0,0:0:0:0:
320,192,151672,1,0,0:0:0:0:
192,192,152024,1,0,0:0:0:0:
448,192,152024,1,0,0:0:0:0:
64,192,152201,1,0,0:0:0:0:
192,192,152377,1,0,0:0:0:0:
320,192,152554,1,0,0:0:0:0:
192,192,152730,128,0,153083:0:0:0:0:
320,192,153083,128,0,153260:0:0:0:0:
448,192,153260,1,0,0:0:0:0:
192,192,153613,1,0,0:0:0:0:
320,192,153789,1,0,0:0:0:0:
192,192,153966,1,0,0:0:0:0:
448,192,154142,1,0,0:0:0:0:
320,192,154318,1,0,0:0:0:0:
192,192,154495,128,0,154848:0:0:0:0:
448,192,155024,1,0,0:0:0:0:
320,192,155201,1,0,0:0:0:0:
320,192,155377,1,0,0:0:0:0:
64,192,155554,128,0,155818:0:0:0:0:
192,192,155818,128,0,156083:0:0:0:0:
320,192,156083,1,0,0:0:0:0:
448,192,156259,1,0,0:0:0:0:
192,192,156436,1,0,0:0:0:0:
320,192,156612,1,0,0:0:0:0:
64,192,156789,1,0,0:0:0:0:
192,192,156965,128,0,157318:0:0:0:0:
64,192,157318,1,0,0:0:0:0:
320,192,157495,1,0,0:0:0:0:
192,192,157671,1,0,0:0:0:0:
64,192,157671,1,0,0:0:0:0:
448,192,157671,1,0,0:0:0:0:
320,192,157848,1,0,0:0:0:0:
192,192,158024,1,0,0:0:0:0:
64,192,158201,1,0,0:0:0:0:
448,192,158377,1,0,0:0:0:0:
320,192,158553,1,0,0:0:0:0:
448,192,158730,1,0,0:0:0:0:
64,192,158730,1,0,0:0:0:0:
192,192,158906,1,0,0:0:0:0:
320,192,159259,1,0,0:0:0:0:
64,192,159436,1,0,0:0:0:0:
192,192,159612,1,0,0:0:0:0:
320,192,159789,1,0,0:0:0:0:
192,192,159965,1,0,0:0:0:0:
320,192,160053,1,0,0:0:0:0:
448,192,160142,1,0,0:0:0:0:
320,192,160318,1,0,0:0:0:0:
192,192,160495,128,0,160671:0:0:0:0:
64,192,160671,128,0,160847:0:0:0:0:
192,192,160847,1,0,0:0:0:0:
320,192,161024,1,0,0:0:0:0:
448,192,161200,1,0,0:0:0:0:
192,192,161377,1,0,0:0:0:0:
320,192,161553,1,0,0:0:0:0:
320,192,161906,1,0,0:0:0:0:
64,192,161906,1,0,0:0:0:0:
192,192,162171,1,0,0:0:0:0:
448,192,162171,1,0,0:0:0:0:
320,192,162436,128,0,162789:0:0:0:0:
64,192,162436,128,0,162789:0:0:0:0:
192,192,162789,128,0,163318:0:0:0:0:
448,192,163141,1,0,0:0:0:0:
320,192,163318,1,0,0:0:0:0:
64,192,163318,1,0,0:0:0:0:
192,192,163494,1,0,0:0:0:0:
320,192,163671,1,0,0:0:0:0:
448,192,163847,1,0,0:0:0:0:
64,192,164024,1,0,0:0:0:0:
192,192,164200,128,0,164377:0:0:0:0:
320,192,164377,128,0,164553:0:0:0:0:
192,192,164553,128,0,164730:0:0:0:0:
448,192,164730,1,0,0:0:0:0:
320,192,164994,1,0,0:0:0:0:
192,192,165259,128,0,165612:0:0:0:0:
448,192,165259,128,0,165612:0:0:0:0:
320,192,165965,128,0,166141:0:0:0:0:
192,192,166141,128,0,166318:0:0:0:0:
64,192,166318,1,0,0:0:0:0:
320,192,166494,1,0,0:0:0:0:
448,192,166671,1,0,0:0:0:0:
320,192,166847,1,0,0:0:0:0:
192,192,167024,1,0,0:0:0:0:
320,192,167200,1,0,0:0:0:0:
192,192,167376,1,0,0:0:0:0:
64,192,167553,128,0,167818:0:0:0:0:
192,192,167818,128,0,168082:0:0:0:0:
320,192,168082,128,0,168612:0:0:0:0:
448,192,168612,1,0,0:0:0:0:
192,192,168612,1,0,0:0:0:0:
320,192,168965,1,0,0:0:0:0:
64,192,168965,1,0,0:0:0:0:
192,192,169141,1,0,0:0:0:0:
448,192,169494,1,0,0:0:0:0:
192,192,169494,1,0,0:0:0:0:
64,192,169494,1,0,0:0:0:0:
192,192,169847,1,0,0:0:0:0:
320,192,170023,1,0,0:0:0:0:
448,192,170200,1,0,0:0:0:0:
320,192,170376,1,0,0:0:0:0:
192,192,170376,128,0,170641:0:0:0:0:
320,192,170641,128,0,170906:0:0:0:0:
448,192,170906,1,0,0:0:0:0:
64,192,170906,128,0,171259:0:0:0:0:
192,192,171259,1,0,0:0:0:0:
448,192,171259,1,0,0:0:0:0:
448,192,171435,1,0,0:0:0:0:
192,192,171435,1,0,0:0:0:0:
192,192,171788,1,0,0:0:0:0:
448,192,171788,1,0,0:0:0:0:
192,192,171964,1,0,0:0:0:0:
448,192,171964,1,0,0:0:0:0:
448,192,172053,1,0,0:0:0:0:
192,192,172053,1,0,0:0:0:0:
64,192,172494,1,0,0:0:0:0:
320,192,172494,1,0,0:0:0:0:
64,192,172670,1,0,0:0:0:0:
320,192,172670,1,0,0:0:0:0:
64,192,172759,1,0,0:0:0:0:
320,192,172759,1,0,0:0:0:0:
64,192,173200,1,0,0:0:0:0:
192,192,173317,1,0,0:0:0:0:
64,192,173435,1,0,0:0:0:0:
192,192,173553,1,0,0:0:0:0:
320,192,173670,1,0,0:0:0:0:
192,192,173788,1,0,0:0:0:0:
448,192,173788,128,0,174611:0:0:0:0:
64,192,173906,1,0,0:0:0:0:
64,192,174023,1,0,0:0:0:0:
64,192,174141,1,0,0:0:0:0:
64,192,174258,1,0,0:0:0:0:
64,192,174376,1,0,0:0:0:0:
64,192,174494,1,0,0:0:0:0:
192,192,174611,1,0,0:0:0:0:
320,192,174611,1,0,0:0:0:0:
448,192,174876,1,0,0:0:0:0:
192,192,174876,1,0,0:0:0:0:
320,192,174876,1,0,0:0:0:0:
64,192,175141,1,0,0:0:0:0:
320,192,175141,1,0,0:0:0:0:
192,192,175141,1,0,0:0:0:0:
64,192,175317,1,0,0:0:0:0:
192,192,175317,1,0,0:0:0:0:
320,192,175317,1,0,0:0:0:0:
448,192,175494,1,0,0:0:0:0:
448,192,175670,1,0,0:0:0:0:
448,192,175847,1,0,0:0:0:0:
448,192,176023,128,0,177258:0:0:0:0:
64,192,176023,1,0,0:0:0:0:
192,192,176199,1,0,0:0:0:0:
320,192,176376,1,0,0:0:0:0:
320,192,176552,1,0,0:0:0:0:
192,192,176729,1,0,0:0:0:0:
64,192,176729,1,0,0:0:0:0:
192,192,177258,1,0,0:0:0:0:
64,192,177258,128,0,178317:0:0:0:0:
320,192,177435,1,0,0:0:0:0:
448,192,177611,1,0,0:0:0:0:
192,192,177788,1,0,0:0:0:0:
320,192,177964,1,0,0:0:0:0:
448,192,178141,1,0,0:0:0:0:
192,192,178141,1,0,0:0:0:0:
448,192,178317,1,0,0:0:0:0:
320,192,178317,128,0,178846:0:0:0:0:
192,192,178846,128,0,180082:0:0:0:0:
448,192,178846,1,0,0:0:0:0:
64,192,178846,1,0,0:0:0:0:
320,192,179023,1,0,0:0:0:0:
448,192,179199,1,0,0:0:0:0:
320,192,179376,1,0,0:0:0:0:
64,192,179552,1,0,0:0:0:0:
320,192,179552,1,0,0:0:0:0:
448,192,180082,128,0,181140:0:0:0:0:
320,192,180082,1,0,0:0:0:0:
192,192,180258,1,0,0:0:0:0:
64,192,180435,1,0,0:0:0:0:
320,192,180611,1,0,0:0:0:0:
192,192,180787,1,0,0:0:0:0:
64,192,180964,1,0,0:0:0:0:
320,192,180964,1,0,0:0:0:0:
320,192,181140,1,0,0:0:0:0:
192,192,181140,128,0,181670:0:0:0:0:
64,192,181670,1,0,0:0:0:0:
448,192,181670,1,0,0:0:0:0:
320,192,181670,128,0,182905:0:0:0:0:
192,192,181846,1,0,0:0:0:0:
448,192,182023,1,0,0:0:0:0:
64,192,182199,1,0,0:0:0:0:
448,192,182376,1,0,0:0:0:0:
192,192,182376,1,0,0:0:0:0:
448,192,182905,128,0,183964:0:0:0:0:
64,192,182905,1,0,0:0:0:0:
192,192,183081,1,0,0:0:0:0:
320,192,183258,1,0,0:0:0:0:
64,192,183434,1,0,0:0:0:0:
192,192,183611,1,0,0:0:0:0:
64,192,183787,1,0,0:0:0:0:
320,192,183787,1,0,0:0:0:0:
320,192,183964,1,0,0:0:0:0:
192,192,183964,128,0,184493:0:0:0:0:
64,192,184493,128,0,185728:0:0:0:0:
448,192,184493,1,0,0:0:0:0:
320,192,184670,1,0,0:0:0:0:
192,192,184846,1,0,0:0:0:0:
448,192,185022,1,0,0:0:0:0:
320,192,185199,1,0,0:0:0:0:
192,192,185375,1,0,0:0:0:0:
320,192,185552,1,0,0:0:0:0:
448,192,185728,1,0,0:0:0:0:
192,192,185728,128,0,186787:0:0:0:0:
64,192,185905,1,0,0:0:0:0:
448,192,185905,1,0,0:0:0:0:
448,192,186258,1,0,0:0:0:0:
64,192,186258,1,0,0:0:0:0:
448,192,186611,1,0,0:0:0:0:
64,192,186611,1,0,0:0:0:0:
64,192,186787,128,0,187052:0:0:0:0:
320,192,186787,1,0,0:0:0:0:
448,192,187052,1,0,0:0:0:0:
320,192,187140,1,0,0:0:0:0:
192,192,187228,1,0,0:0:0:0:
64,192,187316,1,0,0:0:0:0:
448,192,187316,128,0,187669:0:0:0:0:
64,192,187669,1,0,0:0:0:0:
320,192,187669,128,0,188022:0:0:0:0:
192,192,188022,1,0,0:0:0:0:
192,192,188199,1,0,0:0:0:0:
192,192,188375,1,0,0:0:0:0:
320,192,188552,1,0,0:0:0:0:
448,192,188552,128,0,189610:0:0:0:0:
64,192,188552,1,0,0:0:0:0:
192,192,188728,1,0,0:0:0:0:
320,192,188905,1,0,0:0:0:0:
64,192,189081,1,0,0:0:0:0:
192,192,189258,1,0,0:0:0:0:
64,192,189434,1,0,0:0:0:0:
320,192,189434,1,0,0:0:0:0:
192,192,189610,128,0,190140:0:0:0:0:
320,192,189610,1,0,0:0:0:0:
320,192,190140,128,0,191375:0:0:0:0:
64,192,190140,1,0,0:0:0:0:
192,192,190316,1,0,0:0:0:0:
448,192,190493,1,0,0:0:0:0:
64,192,190669,1,0,0:0:0:0:
192,192,190846,1,0,0:0:0:0:
64,192,191022,1,0,0:0:0:0:
192,192,191199,1,0,0:0:0:0:
448,192,191199,1,0,0:0:0:0:
448,192,191375,1,0,0:0:0:0:
64,192,191375,128,0,192434:0:0:0:0:
320,192,191552,1,0,0:0:0:0:
192,192,191728,1,0,0:0:0:0:
448,192,191904,1,0,0:0:0:0:
320,192,192081,1,0,0:0:0:0:
448,192,192257,1,0,0:0:0:0:
192,192,192257,1,0,0:0:0:0:
320,192,192434,1,0,0:0:0:0:
448,192,192434,128,0,192963:0:0:0:0:
64,192,192963,1,0,0:0:0:0:
320,192,192963,128,0,193316:0:0:0:0:
192,192,193316,128,0,193669:0:0:0:0:
64,192,193316,1,0,0:0:0:0:
448,192,193316,1,0,0:0:0:0:
448,192,193669,1,0,0:0:0:0:
64,192,193669,128,0,194022:0:0:0:0:
192,192,194022,1,0,0:0:0:0:
320,192,194022,128,0,194198:0:0:0:0:
448,192,194198,128,0,194375:0:0:0:0:
192,192,194198,1,0,0:0:0:0:
192,192,194551,1,0,0:0:0:0:
64,192,194551,128,0,194728:0:0:0:0:
320,192,194728,1,0,0:0:0:0:
192,192,194728,128,0,194904:0:0:0:0:
64,192,194904,1,0,0:0:0:0:
448,192,194904,1,0,0:0:0:0:
320,192,194904,128,0,195081:0:0:0:0:
192,192,195081,1,0,0:0:0:0:
448,192,195081,128,0,195434:0:0:0:0:
320,192,195434,1,0,0:0:0:0:
64,192,195434,128,0,195787:0:0:0:0:
192,192,195434,1,0,0:0:0:0:
320,192,195787,128,0,197022:0:0:0:0:
448,192,195787,1,0,0:0:0:0:
192,192,195963,1,0,0:0:0:0:
64,192,196139,1,0,0:0:0:0:
192,192,196316,1,0,0:0:0:0:
64,192,196492,1,0,0:0:0:0:
448,192,196492,1,0,0:0:0:0:
192,192,196669,1,0,0:0:0:0:
448,192,196845,1,0,0:0:0:0:
64,192,197022,128,0,198257:0:0:0:0:
192,192,197022,1,0,0:0:0:0:
448,192,197198,1,0,0:0:0:0:
192,192,197198,1,0,0:0:0:0:
192,192,197551,1,0,0:0:0:0:
448,192,197551,1,0,0:0:0:0:
192,192,197904,1,0,0:0:0:0:
448,192,197904,1,0,0:0:0:0:
448,192,198257,1,0,0:0:0:0:
320,192,198257,1,0,0:0:0:0:
192,192,198257,1,0,0:0:0:0:
448,192,198610,1,0,0:0:0:0:
448,192,198963,1,0,0:0:0:0:
320,192,199316,1,0,0:0:0:0:
320,192,199669,1,0,0:0:0:0:
192,192,200022,1,0,0:0:0:0:
192,192,200375,1,0,0:0:0:0:
64,192,200727,1,0,0:0:0:0:
64,192,201080,1,0,0:0:0:0:
448,192,201433,1,0,0:0:0:0:
192,192,201433,1,0,0:0:0:0:
448,192,201786,1,0,0:0:0:0:
192,192,201786,1,0,0:0:0:0:
320,192,202139,1,0,0:0:0:0:
64,192,202139,1,0,0:0:0:0:
64,192,202492,1,0,0:0:0:0:
320,192,202492,1,0,0:0:0:0:
448,192,202845,1,0,0:0:0:0:
192,192,202845,1,0,0:0:0:0:
64,192,202845,1,0,0:0:0:0:
448,192,203198,1,0,0:0:0:0:
192,192,203198,1,0,0:0:0:0:
64,192,203198,1,0,0:0:0:0:
64,192,203551,1,0,0:0:0:0:
320,192,203551,1,0,0:0:0:0:
448,192,203551,1,0,0:0:0:0:
448,192,203904,1,0,0:0:0:0:
64,192,203904,1,0,0:0:0:0:
320,192,203904,1,0,0:0:0:0:
448,192,204257,1,0,0:0:0:0:
320,192,204345,1,0,0:0:0:0:
192,192,204433,1,0,0:0:0:0:
448,192,204521,1,0,0:0:0:0:
64,192,204521,1,0,0:0:0:0:
320,192,204610,1,0,0:0:0:0:
192,192,204698,1,0,0:0:0:0:
64,192,204786,1,0,0:0:0:0:
448,192,204786,1,0,0:0:0:0:
320,192,204874,1,0,0:0:0:0:
192,192,204963,1,0,0:0:0:0:
64,192,205051,1,0,0:0:0:0:
448,192,205051,1,0,0:0:0:0:
320,192,205139,1,0,0:0:0:0:
192,192,205227,1,0,0:0:0:0:
448,192,205315,1,0,0:0:0:0:
64,192,205315,1,0,0:0:0:0:
320,192,205404,1,0,0:0:0:0:
192,192,205492,1,0,0:0:0:0:
64,192,205580,1,0,0:0:0:0:
448,192,205580,1,0,0:0:0:0:
320,192,205668,1,0,0:0:0:0:
192,192,205757,1,0,0:0:0:0:
64,192,205845,1,0,0:0:0:0:
192,192,205933,1,0,0:0:0:0:
320,192,206021,1,0,0:0:0:0:
448,192,206109,1,0,0:0:0:0:
320,192,206198,1,0,0:0:0:0:
192,192,206286,1,0,0:0:0:0:
64,192,206374,1,0,0:0:0:0:
192,192,206462,1,0,0:0:0:0:
320,192,206551,1,0,0:0:0:0:
448,192,206639,1,0,0:0:0:0:
320,192,206727,1,0,0:0:0:0:
192,192,206815,1,0,0:0:0:0:
64,192,206904,1,0,0:0:0:0:
192,192,206992,1,0,0:0:0:0:
320,192,207080,1,0,0:0:0:0:
448,192,207168,1,0,0:0:0:0:
64,192,207168,1,0,0:0:0:0:
192,192,207256,1,0,0:0:0:0:
320,192,207345,1,0,0:0:0:0:
64,192,207433,1,0,0:0:0:0:
448,192,207433,1,0,0:0:0:0:
192,192,207521,1,0,0:0:0:0:
320,192,207609,1,0,0:0:0:0:
64,192,207698,1,0,0:0:0:0:
448,192,207698,1,0,0:0:0:0:
192,192,207786,1,0,0:0:0:0:
320,192,207874,1,0,0:0:0:0:
64,192,207962,1,0,0:0:0:0:
448,192,207962,1,0,0:0:0:0:
192,192,208051,1,0,0:0:0:0:
320,192,208139,1,0,0:0:0:0:
448,192,208227,1,0,0:0:0:0:
64,192,208227,1,0,0:0:0:0:
192,192,208315,1,0,0:0:0:0:
320,192,208403,1,0,0:0:0:0:
448,192,208492,1,0,0:0:0:0:
64,192,208492,1,0,0:0:0:0:
192,192,208845,1,0,0:0:0:0:
448,192,208845,1,0,0:0:0:0:
64,192,209198,1,0,0:0:0:0:
320,192,209198,1,0,0:0:0:0:
192,192,209550,1,0,0:0:0:0:
64,192,209550,1,0,0:0:0:0:
320,192,209550,1,0,0:0:0:0:
448,192,209550,1,0,0:0:0:0:
320,192,209903,128,0,210256:0:0:0:0:
448,192,209903,1,0,0:0:0:0:
64,192,209903,1,0,0:0:0:0:
448,192,210256,1,0,0:0:0:0:
192,192,210256,128,0,210433:0:0:0:0:
192,192,210609,1,0,0:0:0:0:
448,192,210609,128,0,210786:0:0:0:0:
448,192,210962,1,0,0:0:0:0:
64,192,211080,1,0,0:0:0:0:
448,192,211197,1,0,0:0:0:0:
320,192,211315,1,0,0:0:0:0:
64,192,211315,1,0,0:0:0:0:
448,192,211433,1,0,0:0:0:0:
64,192,211550,1,0,0:0:0:0:
448,192,211668,1,0,0:0:0:0:
192,192,211668,1,0,0:0:0:0:
320,192,211786,1,0,0:0:0:0:
192,192,211903,1,0,0:0:0:0:
448,192,212021,1,0,0:0:0:0:
320,192,212021,1,0,0:0:0:0:
192,192,212139,1,0,0:0:0:0:
320,192,212256,1,0,0:0:0:0:
64,192,212374,1,0,0:0:0:0:
448,192,212374,1,0,0:0:0:0:
448,192,212727,1,0,0:0:0:0:
64,192,212727,1,0,0:0:0:0:
192,192,212727,128,0,213080:0:0:0:0:
320,192,213080,128,0,213256:0:0:0:0:
64,192,213080,1,0,0:0:0:0:
64,192,213433,128,0,213609:0:0:0:0:
320,192,213433,1,0,0:0:0:0:
64,192,213786,1,0,0:0:0:0:
448,192,213903,1,0,0:0:0:0:
64,192,214021,1,0,0:0:0:0:
448,192,214138,1,0,0:0:0:0:
192,192,214138,1,0,0:0:0:0:
64,192,214256,1,0,0:0:0:0:
448,192,214374,1,0,0:0:0:0:
320,192,214491,1,0,0:0:0:0:
64,192,214491,1,0,0:0:0:0:
192,192,214609,1,0,0:0:0:0:
320,192,214727,1,0,0:0:0:0:
192,192,214844,1,0,0:0:0:0:
64,192,214844,1,0,0:0:0:0:
320,192,214962,1,0,0:0:0:0:
192,192,215080,1,0,0:0:0:0:
64,192,215197,1,0,0:0:0:0:
448,192,215197,1,0,0:0:0:0:
448,192,215550,128,0,215903:0:0:0:0:
64,192,215550,128,0,215903:0:0:0:0:
320,192,215903,1,0,0:0:0:0:
192,192,215903,128,0,216079:0:0:0:0:
192,192,216256,1,0,0:0:0:0:
320,192,216256,128,0,216432:0:0:0:0:
448,192,216609,1,0,0:0:0:0:
64,192,216609,1,0,0:0:0:0:
192,192,216727,1,0,0:0:0:0:
320,192,216844,1,0,0:0:0:0:
192,192,216962,1,0,0:0:0:0:
448,192,216962,1,0,0:0:0:0:
320,192,217079,1,0,0:0:0:0:
448,192,217197,1,0,0:0:0:0:
64,192,217315,1,0,0:0:0:0:
320,192,217315,1,0,0:0:0:0:
192,192,217432,1,0,0:0:0:0:
320,192,217550,1,0,0:0:0:0:
192,192,217668,1,0,0:0:0:0:
448,192,217668,1,0,0:0:0:0:
320,192,217785,1,0,0:0:0:0:
192,192,217903,1,0,0:0:0:0:
448,192,218021,1,0,0:0:0:0:
64,192,218021,1,0,0:0:0:0:
320,192,218021,1,0,0:0:0:0:
320,192,218373,128,0,218550:0:0:0:0:
192,192,218550,1,0,0:0:0:0:
64,192,218726,128,0,218903:0:0:0:0:
192,192,218903,1,0,0:0:0:0:
320,192,219079,128,0,219256:0:0:0:0:
448,192,219256,1,0,0:0:0:0:
192,192,219432,128,0,219609:0:0:0:0:
320,192,219609,128,0,219785:0:0:0:0:
448,192,219785,1,0,0:0:0:0:
192,192,219785,1,0,0:0:0:0:
64,192,219785,1,0,0:0:0:0:
192,192,219962,128,0,220138:0:0:0:0:
64,192,220138,1,0,0:0:0:0:
320,192,220138,1,0,0:0:0:0:
320,192,220315,128,0,220491:0:0:0:0:
448,192,220491,1,0,0:0:0:0:
192,192,220491,1,0,0:0:0:0:
64,192,220667,1,0,0:0:0:0:
320,192,220667,1,0,0:0:0:0:
320,192,220844,1,0,0:0:0:0:
448,192,220844,1,0,0:0:0:0:
192,192,220844,1,0,0:0:0:0:
64,192,220844,1,0,0:0:0:0:
448,192,221197,128,0,221550:0:0:0:0:
192,192,221197,1,0,0:0:0:0:
192,192,221550,1,0,0:0:0:0:
64,192,221550,128,0,221726:0:0:0:0:
192,192,221903,1,0,0:0:0:0:
320,192,221903,128,0,222079:0:0:0:0:
64,192,222256,1,0,0:0:0:0:
448,192,222256,1,0,0:0:0:0:
192,192,222373,1,0,0:0:0:0:
320,192,222491,1,0,0:0:0:0:
64,192,222609,1,0,0:0:0:0:
448,192,222609,1,0,0:0:0:0:
192,192,222726,1,0,0:0:0:0:
320,192,222844,1,0,0:0:0:0:
448,192,222961,1,0,0:0:0:0:
192,192,222961,1,0,0:0:0:0:
320,192,223079,1,0,0:0:0:0:
448,192,223197,1,0,0:0:0:0:
64,192,223314,1,0,0:0:0:0:
320,192,223314,1,0,0:0:0:0:
192,192,223432,1,0,0:0:0:0:
64,192,223550,1,0,0:0:0:0:
320,192,223667,1,0,0:0:0:0:
448,192,223667,1,0,0:0:0:0:
192,192,223667,1,0,0:0:0:0:
320,192,224020,1,0,0:0:0:0:
64,192,224020,128,0,224373:0:0:0:0:
320,192,224373,1,0,0:0:0:0:
448,192,224373,128,0,224550:0:0:0:0:
192,192,224726,128,0,224903:0:0:0:0:
320,192,224726,1,0,0:0:0:0:
64,192,225079,1,0,0:0:0:0:
448,192,225079,1,0,0:0:0:0:
320,192,225197,1,0,0:0:0:0:
192,192,225314,1,0,0:0:0:0:
448,192,225432,1,0,0:0:0:0:
64,192,225432,1,0,0:0:0:0:
320,192,225550,1,0,0:0:0:0:
192,192,225667,1,0,0:0:0:0:
320,192,225785,1,0,0:0:0:0:
64,192,225785,1,0,0:0:0:0:
192,192,225902,1,0,0:0:0:0:
64,192,226020,1,0,0:0:0:0:
192,192,226138,1,0,0:0:0:0:
448,192,226138,1,0,0:0:0:0:
320,192,226255,1,0,0:0:0:0:
448,192,226373,1,0,0:0:0:0:
64,192,226491,1,0,0:0:0:0:
192,192,226491,1,0,0:0:0:0:
320,192,226491,1,0,0:0:0:0:
320,192,226844,128,0,227196:0:0:0:0:
192,192,226844,128,0,227196:0:0:0:0:
448,192,227196,128,0,227373:0:0:0:0:
64,192,227196,1,0,0:0:0:0:
448,192,227549,1,0,0:0:0:0:
64,192,227549,128,0,227726:0:0:0:0:
448,192,227902,1,0,0:0:0:0:
192,192,227902,1,0,0:0:0:0:
320,192,228020,1,0,0:0:0:0:
192,192,228138,1,0,0:0:0:0:
64,192,228255,1,0,0:0:0:0:
448,192,228255,1,0,0:0:0:0:
192,192,228373,1,0,0:0:0:0:
320,192,228491,1,0,0:0:0:0:
448,192,228608,1,0,0:0:0:0:
192,192,228608,1,0,0:0:0:0:
320,192,228726,1,0,0:0:0:0:
448,192,228843,1,0,0:0:0:0:
64,192,228961,1,0,0:0:0:0:
320,192,228961,1,0,0:0:0:0:
448,192,229079,1,0,0:0:0:0:
192,192,229196,1,0,0:0:0:0:
448,192,229314,1,0,0:0:0:0:
64,192,229314,1,0,0:0:0:0:
320,192,229314,1,0,0:0:0:0:
64,192,229667,128,0,229932:0:0:0:0:
192,192,229932,128,0,230196:0:0:0:0:
320,192,230196,128,0,230461:0:0:0:0:
192,192,230461,128,0,230726:0:0:0:0:
448,192,230726,128,0,230902:0:0:0:0:
320,192,230902,1,0,0:0:0:0:
192,192,230990,1,0,0:0:0:0:
448,192,231079,1,0,0:0:0:0:
64,192,231079,1,0,0:0:0:0:
192,192,231432,1,0,0:0:0:0:
448,192,231432,1,0,0:0:0:0:
192,192,231784,128,0,232137:0:0:0:0:
320,192,231784,1,0,0:0:0:0:
64,192,231784,1,0,0:0:0:0:
448,192,232137,1,0,0:0:0:0:
64,192,232137,1,0,0:0:0:0:
320,192,232137,128,0,232490:0:0:0:0:
192,192,232490,1,0,0:0:0:0:
448,192,232490,128,0,232726:0:0:0:0:
64,192,232726,128,0,232961:0:0:0:0:
320,192,232726,1,0,0:0:0:0:
192,192,232726,1,0,0:0:0:0:
192,192,232961,128,0,233196:0:0:0:0:
320,192,232961,1,0,0:0:0:0:
320,192,233196,128,0,233431:0:0:0:0:
64,192,233196,1,0,0:0:0:0:
448,192,233196,1,0,0:0:0:0:
448,192,233431,128,0,233667:0:0:0:0:
192,192,233431,1,0,0:0:0:0:
64,192,233667,128,0,233902:0:0:0:0:
320,192,233667,1,0,0:0:0:0:
192,192,233667,1,0,0:0:0:0:
192,192,233902,128,0,234137:0:0:0:0:
320,192,233902,1,0,0:0:0:0:
320,192,234137,128,0,234373:0:0:0:0:
64,192,234137,1,0,0:0:0:0:
448,192,234137,1,0,0:0:0:0:
448,192,234373,128,0,234608:0:0:0:0:
192,192,234373,1,0,0:0:0:0:
192,192,234608,128,0,234961:0:0:0:0:
320,192,234608,1,0,0:0:0:0:
64,192,234961,1,0,0:0:0:0:
320,192,234961,1,0,0:0:0:0:
448,192,234961,1,0,0:0:0:0:
448,192,235314,128,0,235667:0:0:0:0:
192,192,235314,1,0,0:0:0:0:
320,192,235667,1,0,0:0:0:0:
64,192,235667,128,0,235843:0:0:0:0:
64,192,236019,1,0,0:0:0:0:
320,192,236019,128,0,236196:0:0:0:0:
192,192,236372,1,0,0:0:0:0:
448,192,236372,1,0,0:0:0:0:
320,192,236490,1,0,0:0:0:0:
448,192,236608,1,0,0:0:0:0:
64,192,236725,1,0,0:0:0:0:
320,192,236725,1,0,0:0:0:0:
192,192,236843,1,0,0:0:0:0:
320,192,236961,1,0,0:0:0:0:
192,192,237078,1,0,0:0:0:0:
448,192,237078,1,0,0:0:0:0:
320,192,237196,1,0,0:0:0:0:
192,192,237314,1,0,0:0:0:0:
64,192,237431,1,0,0:0:0:0:
448,192,237431,1,0,0:0:0:0:
320,192,237549,1,0,0:0:0:0:
192,192,237666,1,0,0:0:0:0:
64,192,237784,1,0,0:0:0:0:
320,192,237784,1,0,0:0:0:0:
448,192,237784,1,0,0:0:0:0:
320,186,238137,1,0,0:0:0:0:
64,186,238137,128,0,238490:0:0:0:0:
192,186,238490,1,0,0:0:0:0:
448,186,238490,128,0,238666:0:0:0:0:
448,186,238843,1,0,0:0:0:0:
192,186,238843,128,0,239019:0:0:0:0:
320,186,239196,1,0,0:0:0:0:
64,186,239196,1,0,0:0:0:0:
192,186,239313,1,0,0:0:0:0:
64,186,239431,1,0,0:0:0:0:
192,186,239549,1,0,0:0:0:0:
448,186,239549,1,0,0:0:0:0:
320,186,239666,1,0,0:0:0:0:
192,186,239784,1,0,0:0:0:0:
64,186,239902,1,0,0:0:0:0:
320,186,239902,1,0,0:0:0:0:
192,186,240019,1,0,0:0:0:0:
320,186,240137,1,0,0:0:0:0:
448,186,240255,1,0,0:0:0:0:
64,186,240255,1,0,0:0:0:0:
192,186,240372,1,0,0:0:0:0:
320,186,240490,1,0,0:0:0:0:
64,186,240607,1,0,0:0:0:0:
448,186,240607,1,0,0:0:0:0:
192,186,240607,1,0,0:0:0:0:
192,192,240960,128,0,241137:0:0:0:0:
320,192,241137,1,0,0:0:0:0:
448,192,241313,128,0,241490:0:0:0:0:
320,192,241490,1,0,0:0:0:0:
192,192,241666,128,0,241843:0:0:0:0:
64,192,241843,1,0,0:0:0:0:
320,192,242019,128,0,242196:0:0:0:0:
192,192,242196,128,0,242372:0:0:0:0:
64,192,242372,1,0,0:0:0:0:
448,192,242372,1,0,0:0:0:0:
320,192,242372,1,0,0:0:0:0:
320,192,242549,128,0,242725:0:0:0:0:
448,192,242725,1,0,0:0:0:0:
192,192,242725,1,0,0:0:0:0:
192,192,242901,128,0,243078:0:0:0:0:
320,192,243078,1,0,0:0:0:0:
64,192,243078,1,0,0:0:0:0:
192,192,243254,1,0,0:0:0:0:
448,192,243254,1,0,0:0:0:0:
448,192,243431,1,0,0:0:0:0:
320,192,243431,1,0,0:0:0:0:
192,192,243431,1,0,0:0:0:0:
64,192,243431,1,0,0:0:0:0:
192,192,243784,128,0,244137:0:0:0:0:
64,192,244137,1,0,0:0:0:0:
320,192,244137,1,0,0:0:0:0:
192,192,244490,1,0,0:0:0:0:
448,192,244490,1,0,0:0:0:0:
448,192,244843,1,0,0:0:0:0:
64,192,244843,1,0,0:0:0:0:
320,192,244960,1,0,0:0:0:0:
192,192,245078,1,0,0:0:0:0:
64,192,245195,1,0,0:0:0:0:
448,192,245195,1,0,0:0:0:0:
320,192,245313,1,0,0:0:0:0:
192,192,245431,1,0,0:0:0:0:
320,192,245548,1,0,0:0:0:0:
64,192,245548,1,0,0:0:0:0:
448,192,245666,1,0,0:0:0:0:
320,192,245784,1,0,0:0:0:0:
448,192,245901,1,0,0:0:0:0:
64,192,245901,1,0,0:0:0:0:
320,192,246019,1,0,0:0:0:0:
192,192,246137,1,0,0:0:0:0:
64,192,246254,1,0,0:0:0:0:
320,192,246254,1,0,0:0:0:0:
448,192,246254,1,0,0:0:0:0:
320,192,246607,128,0,246960:0:0:0:0:
448,192,246960,1,0,0:0:0:0:
192,192,246960,1,0,0:0:0:0:
64,192,247313,1,0,0:0:0:0:
320,192,247313,1,0,0:0:0:0:
448,192,247666,1,0,0:0:0:0:
64,192,247666,1,0,0:0:0:0:
192,192,247784,1,0,0:0:0:0:
320,192,247901,1,0,0:0:0:0:
448,192,248019,1,0,0:0:0:0:
64,192,248019,1,0,0:0:0:0:
192,192,248136,1,0,0:0:0:0:
320,192,248254,1,0,0:0:0:0:
448,192,248372,1,0,0:0:0:0:
192,192,248372,1,0,0:0:0:0:
64,192,248489,1,0,0:0:0:0:
192,192,248607,1,0,0:0:0:0:
448,192,248725,1,0,0:0:0:0:
64,192,248725,1,0,0:0:0:0:
192,192,248842,1,0,0:0:0:0:
320,192,248960,1,0,0:0:0:0:
448,192,249078,1,0,0:0:0:0:
192,192,249078,1,0,0:0:0:0:
64,192,249078,1,0,0:0:0:0:
64,192,249430,128,0,249783:0:0:0:0:
448,192,249430,128,0,249783:0:0:0:0:
192,192,249430,1,0,0:0:0:0:
320,192,249783,1,0,0:0:0:0:
192,192,250136,1,0,0:0:0:0:
448,192,250136,1,0,0:0:0:0:
320,192,250489,1,0,0:0:0:0:
192,192,250607,1,0,0:0:0:0:
64,192,250725,1,0,0:0:0:0:
448,192,250842,1,0,0:0:0:0:
192,192,250842,1,0,0:0:0:0:
320,192,250960,1,0,0:0:0:0:
192,192,251077,1,0,0:0:0:0:
64,192,251195,1,0,0:0:0:0:
448,192,251195,1,0,0:0:0:0:
192,192,251313,1,0,0:0:0:0:
320,192,251430,1,0,0:0:0:0:
448,192,251548,1,0,0:0:0:0:
64,192,251548,1,0,0:0:0:0:
192,192,251666,1,0,0:0:0:0:
320,192,251783,1,0,0:0:0:0:
192,192,251901,1,0,0:0:0:0:
64,192,251901,1,0,0:0:0:0:
448,192,251901,1,0,0:0:0:0:
320,192,252254,128,0,252519:0:0:0:0:
192,192,252519,128,0,252783:0:0:0:0:
64,192,252783,128,0,253048:0:0:0:0:
320,192,253048,128,0,253313:0:0:0:0:
64,192,253313,128,0,253489:0:0:0:0:
448,192,253489,1,0,0:0:0:0:
320,192,253577,1,0,0:0:0:0:
192,192,253666,1,0,0:0:0:0:
64,192,253666,1,0,0:0:0:0:
448,192,253666,1,0,0:0:0:0:
192,192,254018,1,0,0:0:0:0:
64,192,254018,1,0,0:0:0:0:
448,192,254018,1,0,0:0:0:0:
320,192,254371,128,0,254724:0:0:0:0:
448,192,254371,1,0,0:0:0:0:
448,192,254724,128,0,255077:0:0:0:0:
192,192,254724,1,0,0:0:0:0:
64,192,254724,1,0,0:0:0:0:
192,192,255077,128,0,256312:0:0:0:0:
64,192,255077,1,0,0:0:0:0:
320,192,255254,1,0,0:0:0:0:
448,192,255430,1,0,0:0:0:0:
320,192,255607,1,0,0:0:0:0:
64,192,255783,1,0,0:0:0:0:
448,192,255783,1,0,0:0:0:0:
320,192,256312,128,0,257371:0:0:0:0:
448,192,256312,1,0,0:0:0:0:
192,192,256489,1,0,0:0:0:0:
64,192,256665,1,0,0:0:0:0:
448,192,256842,1,0,0:0:0:0:
64,192,257018,1,0,0:0:0:0:
192,192,257195,1,0,0:0:0:0:
448,192,257195,1,0,0:0:0:0:
64,192,257371,128,0,257901:0:0:0:0:
448,192,257371,1,0,0:0:0:0:
192,192,257901,128,0,259136:0:0:0:0:
320,192,257901,1,0,0:0:0:0:
448,192,258077,1,0,0:0:0:0:
320,192,258253,1,0,0:0:0:0:
64,192,258430,1,0,0:0:0:0:
64,192,258606,1,0,0:0:0:0:
320,192,258606,1,0,0:0:0:0:
448,192,259136,128,0,260195:0:0:0:0:
64,192,259136,1,0,0:0:0:0:
192,192,259312,1,0,0:0:0:0:
320,192,259489,1,0,0:0:0:0:
64,192,259665,1,0,0:0:0:0:
192,192,259842,1,0,0:0:0:0:
64,192,260018,1,0,0:0:0:0:
320,192,260018,1,0,0:0:0:0:
192,192,260195,128,0,260724:0:0:0:0:
320,192,260195,1,0,0:0:0:0:
320,192,260724,128,0,261959:0:0:0:0:
64,192,260724,1,0,0:0:0:0:
192,192,260900,1,0,0:0:0:0:
448,192,261077,1,0,0:0:0:0:
192,192,261253,1,0,0:0:0:0:
64,192,261430,1,0,0:0:0:0:
448,192,261430,1,0,0:0:0:0:
192,192,261959,128,0,263018:0:0:0:0:
64,192,261959,1,0,0:0:0:0:
320,192,262136,1,0,0:0:0:0:
448,192,262312,1,0,0:0:0:0:
64,192,262489,1,0,0:0:0:0:
448,192,262665,1,0,0:0:0:0:
64,192,262841,1,0,0:0:0:0:
320,192,262841,1,0,0:0:0:0:
448,192,263018,128,0,263547:0:0:0:0:
64,192,263018,1,0,0:0:0:0:
64,192,263547,128,0,264783:0:0:0:0:
192,192,263547,1,0,0:0:0:0:
320,192,263724,1,0,0:0:0:0:
448,192,263900,1,0,0:0:0:0:
320,192,264077,1,0,0:0:0:0:
192,192,264253,1,0,0:0:0:0:
448,192,264253,1,0,0:0:0:0:
320,192,264783,128,0,266371:0:0:0:0:
192,192,264783,1,0,0:0:0:0:
448,192,264783,1,0,0:0:0:0:
64,192,264959,1,0,0:0:0:0:
448,192,264959,1,0,0:0:0:0:
64,192,265312,1,0,0:0:0:0:
448,192,265312,1,0,0:0:0:0:
64,192,265665,1,0,0:0:0:0:
448,192,265665,1,0,0:0:0:0:
64,192,266018,1,0,0:0:0:0:
448,192,266018,1,0,0:0:0:0:
192,192,266371,128,0,266724:0:0:0:0:
448,192,266724,128,0,267076:0:0:0:0:
64,192,267076,1,0,0:0:0:0:
192,192,267253,1,0,0:0:0:0:
64,192,267429,1,0,0:0:0:0:
192,192,267606,1,0,0:0:0:0:
64,192,267782,1,0,0:0:0:0:
192,192,267959,1,0,0:0:0:0:
64,192,268135,1,0,0:0:0:0:
192,192,268312,1,0,0:0:0:0:
64,192,268488,1,0,0:0:0:0:
192,192,268665,1,0,0:0:0:0:
448,192,268753,1,0,0:0:0:0:
192,192,268841,1,0,0:0:0:0:
64,192,269018,1,0,0:0:0:0:
448,192,269194,1,0,0:0:0:0:
