osu file format v14

[General]
AudioFilename: YELLOW SPLASH!!.mp3
AudioLeadIn: 0
PreviewTime: 13126
Countdown: 0
SampleSet: Soft
StackLeniency: 0.7
Mode: 3
LetterboxInBreaks: 0
SpecialStyle: 0
WidescreenStoryboard: 0

[Editor]
Bookmarks: 14666,44423
DistanceSpacing: 2
BeatDivisor: 4
GridSize: 16
TimelineZoom: 2.2

[Metadata]
Title:YELLOW SPLASH!!
TitleUnicode:YELLOW SPLASH!!
Artist:P*Light
ArtistUnicode:P*Light
Creator:kanke07175
Version:HARD
Source:REFLEC BEAT groovin'!!
Tags:KONAMI BEMANI Reflec Shop 新生beatnation HAPPY HARDCORE
BeatmapID:468009
BeatmapSetID:196928

[Difficulty]
HPDrainRate:7
CircleSize:4
OverallDifficulty:8
ApproachRate:5
SliderMultiplier:1.4
SliderTickRate:1

[Events]
//Background and Video events
0,0,"BG.png",0,0
//Break Periods
//Storyboard Layer 0 (Background)
//Storyboard Layer 1 (Fail)
//Storyboard Layer 2 (Pass)
//Storyboard Layer 3 (Foreground)
//Storyboard Sound Samples

[TimingPoints]
2910,324.324324324324,4,2,0,30,1,0
13288,-100,4,2,0,30,0,1
34045,-100,4,2,0,30,0,0
88207,-100,4,2,0,30,0,1
108477,-100,4,2,0,30,0,0

[HitObjects]
448,192,2910,5,0,0:0:0:0:
64,192,2910,1,0,0:0:0:0:
192,192,3234,1,0,0:0:0:0:
448,192,3558,1,0,0:0:0:0:
192,192,3801,1,0,0:0:0:0:
448,192,4045,1,0,0:0:0:0:
320,192,4369,1,0,0:0:0:0:
192,192,4531,1,0,0:0:0:0:
64,192,4855,1,0,0:0:0:0:
320,192,5099,1,0,0:0:0:0:
64,192,5342,1,0,0:0:0:0:
320,192,5504,1,0,0:0:0:0:
448,192,5504,1,0,0:0:0:0:
192,192,5666,1,0,0:0:0:0:
192,192,5828,1,0,0:0:0:0:
448,192,6153,1,0,0:0:0:0:
192,192,6396,1,0,0:0:0:0:
448,192,6639,1,0,0:0:0:0:
192,192,6964,1,0,0:0:0:0:
320,192,7126,1,0,0:0:0:0:
64,192,7450,1,0,0:0:0:0:
320,192,7693,1,0,0:0:0:0:
448,192,7937,1,0,0:0:0:0:
320,192,8099,1,0,0:0:0:0:
192,192,8099,1,0,0:0:0:0:
64,192,8180,1,0,0:0:0:0:
192,192,8261,1,0,0:0:0:0:
320,192,8342,1,0,0:0:0:0:
448,192,8423,1,0,0:0:0:0:
320,192,8504,1,0,0:0:0:0:
192,192,8585,1,0,0:0:0:0:
64,192,8666,1,0,0:0:0:0:
192,192,8747,1,0,0:0:0:0:
320,192,8828,1,0,0:0:0:0:
448,192,8909,1,0,0:0:0:0:
320,192,8991,1,0,0:0:0:0:
192,192,9072,1,0,0:0:0:0:
64,192,9153,1,0,0:0:0:0:
192,192,9234,1,0,0:0:0:0:
320,192,9315,1,0,0:0:0:0:
448,192,9396,1,0,0:0:0:0:
64,192,9396,1,0,0:0:0:0:
192,192,9477,1,0,0:0:0:0:
320,192,9558,1,0,0:0:0:0:
192,192,9639,1,0,0:0:0:0:
64,192,9720,1,0,0:0:0:0:
448,192,9801,1,0,0:0:0:0:
320,192,9882,1,0,0:0:0:0:
192,192,9964,1,0,0:0:0:0:
448,192,10045,1,0,0:0:0:0:
64,192,10045,1,0,0:0:0:0:
320,192,10126,1,0,0:0:0:0:
192,192,10207,1,0,0:0:0:0:
320,192,10288,1,0,0:0:0:0:
448,192,10369,1,0,0:0:0:0:
64,192,10369,1,0,0:0:0:0:
192,192,10450,1,0,0:0:0:0:
320,192,10531,1,0,0:0:0:0:
448,192,10612,1,0,0:0:0:0:
64,192,10693,1,0,0:0:0:0:
192,192,10693,1,0,0:0:0:0:
320,192,10855,1,0,0:0:0:0:
192,192,11018,1,0,0:0:0:0:
448,192,11018,1,0,0:0:0:0:
64,192,11180,1,0,0:0:0:0:
192,192,11342,1,0,0:0:0:0:
64,192,11504,1,0,0:0:0:0:
192,192,11666,1,0,0:0:0:0:
320,192,11666,1,0,0:0:0:0:
448,192,11828,5,0,0:0:0:0:
320,192,11991,128,0,12639:0:0:0:0:
192,192,12153,1,0,0:0:0:0:
64,192,12315,1,0,0:0:0:0:
448,192,12477,1,0,0:0:0:0:
192,192,12639,1,0,0:0:0:0:
64,192,12639,1,0,0:0:0:0:
320,192,12801,1,0,0:0:0:0:
192,192,12882,1,0,0:0:0:0:
64,192,12964,1,0,0:0:0:0:
320,192,12964,1,0,0:0:0:0:
448,192,12964,1,0,0:0:0:0:
192,192,13126,1,0,0:0:0:0:
320,192,13207,1,0,0:0:0:0:
64,192,13288,1,0,0:0:0:0:
448,192,13288,1,4,0:0:0:0:
320,192,13450,1,0,0:0:0:0:
192,192,13612,1,0,0:0:0:0:
64,192,13612,1,8,0:0:0:0:
320,192,13774,1,0,0:0:0:0:
64,192,13937,1,0,0:0:0:0:
448,192,13937,1,0,0:0:0:0:
320,192,14099,1,0,0:0:0:0:
64,192,14261,1,8,0:0:0:0:
192,192,14261,1,0,0:0:0:0:
192,192,14423,1,0,0:0:0:0:
448,192,14585,1,0,0:0:0:0:
320,192,14585,1,0,0:0:0:0:
192,192,14747,1,0,0:0:0:0:
448,192,14909,1,8,0:0:0:0:
64,192,14909,1,0,0:0:0:0:
320,192,15072,1,0,0:0:0:0:
64,192,15234,1,0,0:0:0:0:
192,192,15234,1,0,0:0:0:0:
192,192,15396,1,8,0:0:0:0:
320,192,15558,1,8,0:0:0:0:
448,192,15558,1,0,0:0:0:0:
320,192,15720,1,8,0:0:0:0:
64,192,15882,1,0,0:0:0:0:
448,192,15882,1,0,0:0:0:0:
320,192,16045,1,0,0:0:0:0:
192,192,16126,1,0,0:0:0:0:
448,192,16207,1,0,0:0:0:0:
64,192,16207,1,8,0:0:0:0:
320,192,16369,1,0,0:0:0:0:
192,192,16531,1,0,0:0:0:0:
64,192,16531,1,0,0:0:0:0:
320,192,16693,1,0,0:0:0:0:
192,192,16855,1,0,0:0:0:0:
64,192,16855,1,8,0:0:0:0:
448,192,17018,1,0,0:0:0:0:
320,192,17180,1,0,0:0:0:0:
64,192,17180,1,0,0:0:0:0:
192,192,17342,1,8,0:0:0:0:
320,192,17423,1,0,0:0:0:0:
448,192,17504,1,0,0:0:0:0:
64,192,17504,1,0,0:0:0:0:
320,192,17666,1,8,0:0:0:0:
192,192,17747,1,0,0:0:0:0:
64,192,17828,1,0,0:0:0:0:
448,192,17828,1,0,0:0:0:0:
64,192,17991,1,8,0:0:0:0:
320,192,18153,1,0,0:0:0:0:
192,192,18153,1,8,0:0:0:0:
320,192,18315,1,0,0:0:0:0:
192,192,18315,1,8,0:0:0:0:
448,192,18477,1,4,0:0:0:0:
64,192,18477,1,0,0:0:0:0:
320,192,18639,1,0,0:0:0:0:
192,192,18801,1,0,0:0:0:0:
64,192,18801,1,8,0:0:0:0:
448,192,18964,1,0,0:0:0:0:
64,192,19126,1,0,0:0:0:0:
320,192,19126,1,0,0:0:0:0:
192,192,19288,1,0,0:0:0:0:
448,192,19450,1,0,0:0:0:0:
64,192,19450,1,8,0:0:0:0:
64,192,19612,1,0,0:0:0:0:
192,192,19774,1,0,0:0:0:0:
448,192,19774,1,4,0:0:0:0:
320,192,19937,1,0,0:0:0:0:
64,192,20099,1,8,0:0:0:0:
448,192,20099,1,0,0:0:0:0:
320,192,20261,1,0,0:0:0:0:
192,192,20423,1,8,0:0:0:0:
64,192,20423,1,0,0:0:0:0:
192,192,20585,1,8,0:0:0:0:
320,192,20747,1,8,0:0:0:0:
448,192,20747,1,0,0:0:0:0:
320,192,20909,1,8,0:0:0:0:
448,192,21072,1,4,0:0:0:0:
64,192,21072,1,4,0:0:0:0:
320,192,21153,1,0,0:0:0:0:
192,192,21234,1,0,0:0:0:0:
64,192,21315,1,0,0:0:0:0:
192,192,21396,1,0,0:0:0:0:
320,192,21477,1,0,0:0:0:0:
448,192,21558,1,0,0:0:0:0:
320,192,21639,1,0,0:0:0:0:
192,192,21720,1,0,0:0:0:0:
64,192,21720,1,4,0:0:0:0:
64,192,21882,1,0,0:0:0:0:
192,192,21882,1,0,0:0:0:0:
448,192,22045,128,0,22369:0:0:0:0:
320,192,22045,1,0,0:0:0:0:
192,192,22207,1,0,0:0:0:0:
320,192,22288,1,0,0:0:0:0:
64,192,22369,1,0,0:0:0:0:
192,192,22369,1,8,0:0:0:0:
320,192,22531,1,0,0:0:0:0:
192,192,22612,1,0,0:0:0:0:
320,192,22693,1,8,0:0:0:0:
448,192,22693,1,0,0:0:0:0:
192,192,22855,1,0,0:0:0:0:
320,192,22937,1,0,0:0:0:0:
192,192,23018,1,8,0:0:0:0:
64,192,23018,1,0,0:0:0:0:
320,192,23180,1,0,0:0:0:0:
448,192,23261,1,0,0:0:0:0:
64,192,23342,1,0,0:0:0:0:
192,192,23342,1,8,0:0:0:0:
320,192,23342,1,4,0:0:0:0:
192,192,23504,1,0,0:0:0:0:
320,192,23585,1,0,0:0:0:0:
448,192,23666,1,0,0:0:0:0:
64,192,23666,1,4,0:0:0:0:
192,192,23828,1,0,0:0:0:0:
64,192,23991,1,8,0:0:0:0:
320,192,23991,1,0,0:0:0:0:
192,192,24153,1,0,0:0:0:0:
320,192,24315,1,0,0:0:0:0:
448,192,24315,1,0,0:0:0:0:
192,192,24477,1,0,0:0:0:0:
320,192,24558,1,0,0:0:0:0:
64,192,24639,1,8,0:0:0:0:
448,192,24639,1,0,0:0:0:0:
448,192,24801,1,0,0:0:0:0:
64,192,24964,1,0,0:0:0:0:
320,192,24964,1,0,0:0:0:0:
192,192,25126,1,0,0:0:0:0:
64,192,25288,1,8,0:0:0:0:
448,192,25288,1,0,0:0:0:0:
192,192,25450,1,0,0:0:0:0:
448,192,25612,1,0,0:0:0:0:
320,192,25612,1,0,0:0:0:0:
320,192,25774,1,8,0:0:0:0:
192,192,25937,1,8,0:0:0:0:
64,192,25937,1,0,0:0:0:0:
192,192,26099,1,8,0:0:0:0:
64,192,26261,1,0,0:0:0:0:
320,192,26261,1,0,0:0:0:0:
192,192,26423,1,0,0:0:0:0:
320,192,26504,1,0,0:0:0:0:
448,192,26585,1,0,0:0:0:0:
64,192,26585,1,8,0:0:0:0:
320,192,26747,1,0,0:0:0:0:
192,192,26909,1,0,0:0:0:0:
64,192,26909,1,0,0:0:0:0:
320,192,27072,1,0,0:0:0:0:
64,192,27234,1,8,0:0:0:0:
192,192,27234,1,0,0:0:0:0:
320,192,27396,1,0,0:0:0:0:
192,192,27558,1,0,0:0:0:0:
448,192,27558,1,0,0:0:0:0:
320,192,27720,1,8,0:0:0:0:
448,192,27801,1,0,0:0:0:0:
64,192,27882,1,0,0:0:0:0:
320,192,27882,1,0,0:0:0:0:
192,192,28045,1,8,0:0:0:0:
64,192,28126,1,0,0:0:0:0:
448,192,28207,1,0,0:0:0:0:
192,192,28207,1,0,0:0:0:0:
320,192,28369,1,8,0:0:0:0:
192,192,28531,1,8,0:0:0:0:
64,192,28531,1,0,0:0:0:0:
192,192,28693,1,8,0:0:0:0:
64,192,28693,1,0,0:0:0:0:
64,192,28855,1,0,0:0:0:0:
448,192,28855,1,4,0:0:0:0:
320,192,28855,1,0,0:0:0:0:
192,192,29018,1,0,0:0:0:0:
64,192,29180,1,0,0:0:0:0:
320,192,29180,1,0,0:0:0:0:
448,192,29180,1,4,0:0:0:0:
192,192,29342,1,0,0:0:0:0:
320,192,29504,1,0,0:0:0:0:
64,192,29504,1,4,0:0:0:0:
64,192,29666,1,4,0:0:0:0:
320,192,29666,1,0,0:0:0:0:
448,192,29991,1,4,0:0:0:0:
64,192,29991,1,0,0:0:0:0:
192,192,29991,1,0,0:0:0:0:
64,192,30315,1,0,0:0:0:0:
192,192,30315,1,0,0:0:0:0:
448,192,30315,1,4,0:0:0:0:
320,192,30477,1,0,0:0:0:0:
192,192,30639,1,0,0:0:0:0:
448,192,30639,1,4,0:0:0:0:
64,192,30639,1,0,0:0:0:0:
192,192,30801,1,0,0:0:0:0:
448,192,30801,1,4,0:0:0:0:
448,192,30964,1,4,0:0:0:0:
192,192,30964,1,0,0:0:0:0:
320,192,31126,1,8,0:0:0:0:
448,192,31126,1,4,0:0:0:0:
192,192,31126,1,0,0:0:0:0:
448,192,31450,1,4,0:0:0:0:
64,192,31450,1,0,0:0:0:0:
320,192,31531,1,0,0:0:0:0:
192,192,31612,1,0,0:0:0:0:
64,192,31693,1,0,0:0:0:0:
192,192,31774,1,0,0:0:0:0:
320,192,31855,1,0,0:0:0:0:
448,192,31937,1,0,0:0:0:0:
320,192,32018,1,0,0:0:0:0:
192,192,32099,1,4,0:0:0:0:
64,192,32099,1,0,0:0:0:0:
448,192,32180,1,0,0:0:0:0:
192,192,32261,1,0,0:0:0:0:
320,192,32342,1,0,0:0:0:0:
64,192,32423,1,0,0:0:0:0:
448,192,32504,1,0,0:0:0:0:
192,192,32585,1,0,0:0:0:0:
320,192,32666,1,0,0:0:0:0:
64,192,32747,1,0,0:0:0:0:
192,192,32747,1,8,0:0:0:0:
320,192,32909,1,0,0:0:0:0:
192,192,32991,1,0,0:0:0:0:
448,192,33072,1,0,0:0:0:0:
320,192,33072,1,8,0:0:0:0:
192,192,33234,1,0,0:0:0:0:
320,192,33315,1,0,0:0:0:0:
192,192,33396,1,8,0:0:0:0:
64,192,33396,1,0,0:0:0:0:
448,192,33558,1,0,0:0:0:0:
320,192,33639,1,0,0:0:0:0:
192,192,33720,1,0,0:0:0:0:
448,192,34045,5,4,0:0:0:0:
64,192,34045,1,0,0:0:0:0:
320,192,34207,1,0,0:0:0:0:
192,192,34369,1,0,0:0:0:0:
448,192,34369,1,8,0:0:0:0:
320,192,34531,1,0,0:0:0:0:
64,192,34693,1,0,0:0:0:0:
448,192,34693,1,0,0:0:0:0:
448,192,35342,1,4,0:0:0:0:
64,192,35342,1,0,0:0:0:0:
320,192,35504,1,0,0:0:0:0:
192,192,35585,1,0,0:0:0:0:
64,192,35666,1,8,0:0:0:0:
320,192,35666,1,0,0:0:0:0:
192,192,35828,1,0,0:0:0:0:
64,192,35991,1,0,0:0:0:0:
448,192,35991,1,0,0:0:0:0:
448,192,36639,1,4,0:0:0:0:
64,192,36639,1,0,0:0:0:0:
320,192,36801,1,0,0:0:0:0:
192,192,36882,1,0,0:0:0:0:
64,192,36964,1,0,0:0:0:0:
448,192,36964,1,8,0:0:0:0:
320,192,37126,1,0,0:0:0:0:
64,192,37288,1,0,0:0:0:0:
192,192,37288,1,0,0:0:0:0:
192,192,37450,1,0,0:0:0:0:
320,192,37612,1,0,0:0:0:0:
448,192,37612,1,0,0:0:0:0:
320,192,37774,1,0,0:0:0:0:
448,192,37937,1,4,0:0:0:0:
64,192,37937,1,0,0:0:0:0:
320,192,38099,1,0,0:0:0:0:
192,192,38180,1,0,0:0:0:0:
64,192,38261,1,0,0:0:0:0:
448,192,38261,1,4,0:0:0:0:
192,192,38423,1,0,0:0:0:0:
64,192,38504,1,0,0:0:0:0:
448,192,38585,1,0,0:0:0:0:
320,192,38585,1,0,0:0:0:0:
448,192,39234,1,0,0:0:0:0:
64,192,39234,1,0,0:0:0:0:
192,192,39315,1,0,0:0:0:0:
320,192,39396,1,0,0:0:0:0:
448,192,39477,1,0,0:0:0:0:
320,192,39558,1,0,0:0:0:0:
192,192,39639,1,0,0:0:0:0:
64,192,39720,1,0,0:0:0:0:
192,192,39801,1,0,0:0:0:0:
320,192,39882,1,0,0:0:0:0:
448,192,39964,1,0,0:0:0:0:
320,192,40045,1,0,0:0:0:0:
192,192,40126,1,0,0:0:0:0:
64,192,40207,1,0,0:0:0:0:
192,192,40288,1,0,0:0:0:0:
320,192,40369,1,0,0:0:0:0:
192,192,40450,1,0,0:0:0:0:
448,192,40531,1,0,0:0:0:0:
64,192,40531,1,0,0:0:0:0:
320,192,40612,1,0,0:0:0:0:
192,192,40693,1,0,0:0:0:0:
64,192,40774,1,0,0:0:0:0:
192,192,40855,1,8,0:0:0:0:
320,192,40937,1,0,0:0:0:0:
448,192,41018,1,0,0:0:0:0:
320,192,41099,1,0,0:0:0:0:
192,192,41180,1,0,0:0:0:0:
64,192,41261,1,0,0:0:0:0:
192,192,41342,1,0,0:0:0:0:
320,192,41423,1,0,0:0:0:0:
448,192,41504,1,8,0:0:0:0:
320,192,41585,1,0,0:0:0:0:
192,192,41666,1,0,0:0:0:0:
64,192,41747,1,0,0:0:0:0:
448,192,41828,1,4,0:0:0:0:
320,192,41828,1,0,0:0:0:0:
192,192,41909,1,0,0:0:0:0:
320,192,41991,1,0,0:0:0:0:
64,192,42072,1,0,0:0:0:0:
448,192,42153,1,8,0:0:0:0:
192,192,42234,1,0,0:0:0:0:
320,192,42315,1,0,0:0:0:0:
64,192,42396,1,0,0:0:0:0:
448,192,42477,1,0,0:0:0:0:
320,192,42477,1,0,0:0:0:0:
64,192,42558,1,0,0:0:0:0:
192,192,42639,1,0,0:0:0:0:
320,192,42720,1,0,0:0:0:0:
448,192,42801,1,0,0:0:0:0:
320,192,42882,1,0,0:0:0:0:
192,192,42964,1,0,0:0:0:0:
64,192,43045,1,0,0:0:0:0:
320,192,43126,1,0,0:0:0:0:
448,192,43126,1,0,0:0:0:0:
448,192,43612,128,0,43937:0:0:0:0:
192,192,43937,1,0,0:0:0:0:
64,192,44018,1,0,0:0:0:0:
320,192,44099,1,0,0:0:0:0:
448,192,44099,1,0,0:0:0:0:
192,192,44099,1,0,0:0:0:0:
320,192,44261,1,0,0:0:0:0:
64,192,44423,128,0,44909:0:0:0:0:
448,192,44423,1,0,0:0:0:0:
192,192,44585,1,0,0:0:0:0:
448,192,44747,1,8,0:0:0:0:
192,192,44909,128,0,45558:0:0:0:0:
320,192,45072,1,0,0:0:0:0:
64,192,45234,1,0,0:0:0:0:
320,192,45396,1,8,0:0:0:0:
64,192,45558,1,0,0:0:0:0:
448,192,45720,1,0,0:0:0:0:
320,192,45882,1,0,0:0:0:0:
192,192,46045,1,8,0:0:0:0:
64,192,46207,128,0,46693:0:0:0:0:
448,192,46369,1,0,0:0:0:0:
192,192,46531,1,8,0:0:0:0:
192,192,46693,1,8,0:0:0:0:
192,192,46855,1,8,0:0:0:0:
448,192,46855,1,0,0:0:0:0:
64,192,47018,1,0,0:0:0:0:
320,192,47018,1,0,0:0:0:0:
448,192,47180,1,0,0:0:0:0:
192,192,47342,1,0,0:0:0:0:
320,192,47342,1,0,0:0:0:0:
64,192,47504,1,0,0:0:0:0:
448,192,47666,1,0,0:0:0:0:
320,192,47666,1,0,0:0:0:0:
192,192,47828,128,0,48153:0:0:0:0:
64,192,47828,1,0,0:0:0:0:
448,192,47991,1,8,0:0:0:0:
64,192,48153,1,0,0:0:0:0:
320,192,48315,1,0,0:0:0:0:
448,192,48477,1,8,0:0:0:0:
64,192,48477,128,0,48801:0:0:0:0:
320,192,48639,1,0,0:0:0:0:
448,192,48801,1,8,0:0:0:0:
192,192,48801,128,0,49126:0:0:0:0:
320,192,48964,1,0,0:0:0:0:
448,192,49126,1,8,0:0:0:0:
192,192,49288,1,8,0:0:0:0:
320,192,49288,1,0,0:0:0:0:
192,192,49450,1,8,0:0:0:0:
320,192,49450,1,0,0:0:0:0:
64,192,49612,128,0,50099:0:0:0:0:
448,192,49612,1,0,0:0:0:0:
192,192,49774,1,0,0:0:0:0:
448,192,49937,1,8,0:0:0:0:
192,192,50099,128,0,50747:0:0:0:0:
320,192,50261,1,0,0:0:0:0:
64,192,50423,1,0,0:0:0:0:
320,192,50585,1,8,0:0:0:0:
64,192,50747,1,0,0:0:0:0:
192,192,50909,1,0,0:0:0:0:
320,192,51072,1,0,0:0:0:0:
64,192,51234,1,0,0:0:0:0:
448,192,51234,1,8,0:0:0:0:
320,192,51396,128,0,51882:0:0:0:0:
192,192,51396,1,0,0:0:0:0:
448,192,51558,1,0,0:0:0:0:
192,192,51720,1,8,0:0:0:0:
192,192,51882,1,8,0:0:0:0:
192,192,52045,1,8,0:0:0:0:
448,192,52045,1,0,0:0:0:0:
64,192,52207,1,0,0:0:0:0:
320,192,52207,1,0,0:0:0:0:
448,192,52369,1,8,0:0:0:0:
64,192,52531,1,0,0:0:0:0:
320,192,52531,1,0,0:0:0:0:
448,192,52693,1,8,0:0:0:0:
64,192,52855,1,0,0:0:0:0:
320,192,52855,1,8,0:0:0:0:
320,192,53018,1,8,0:0:0:0:
64,192,53018,1,0,0:0:0:0:
448,192,53180,128,0,53504:0:0:0:0:
192,192,53180,1,0,0:0:0:0:
320,192,53342,1,0,0:0:0:0:
192,192,53423,1,0,0:0:0:0:
64,192,53504,1,0,0:0:0:0:
64,192,53666,1,0,0:0:0:0:
320,192,53828,1,0,0:0:0:0:
448,192,53828,1,0,0:0:0:0:
192,192,53991,1,0,0:0:0:0:
448,192,54153,1,0,0:0:0:0:
320,192,54234,1,0,0:0:0:0:
192,192,54315,1,0,0:0:0:0:
64,192,54396,1,0,0:0:0:0:
320,192,54477,1,0,0:0:0:0:
448,192,54477,1,0,0:0:0:0:
192,192,54639,1,0,0:0:0:0:
448,192,54801,1,0,0:0:0:0:
64,192,54801,1,0,0:0:0:0:
320,192,54964,1,0,0:0:0:0:
64,192,55126,1,0,0:0:0:0:
448,192,55126,1,8,0:0:0:0:
320,192,55288,1,0,0:0:0:0:
64,192,55450,1,0,0:0:0:0:
448,192,55450,1,0,0:0:0:0:
192,192,55612,1,0,0:0:0:0:
448,192,55774,1,8,0:0:0:0:
320,192,55774,1,0,0:0:0:0:
192,192,55937,1,0,0:0:0:0:
64,192,56099,1,0,0:0:0:0:
320,192,56099,1,0,0:0:0:0:
192,192,56261,1,0,0:0:0:0:
64,192,56423,1,0,0:0:0:0:
448,192,56423,1,8,0:0:0:0:
192,192,56585,1,0,0:0:0:0:
64,192,56747,1,0,0:0:0:0:
320,192,56747,1,0,0:0:0:0:
192,192,56909,1,0,0:0:0:0:
192,192,57072,1,0,0:0:0:0:
448,192,57072,1,0,0:0:0:0:
192,192,57234,1,0,0:0:0:0:
320,192,57396,1,0,0:0:0:0:
448,192,57396,1,0,0:0:0:0:
64,192,57558,1,0,0:0:0:0:
448,192,57720,1,8,0:0:0:0:
320,192,57720,1,0,0:0:0:0:
64,192,57882,1,0,0:0:0:0:
448,192,58045,1,0,0:0:0:0:
320,192,58045,1,0,0:0:0:0:
64,192,58207,128,0,58531:0:0:0:0:
192,192,58207,1,0,0:0:0:0:
320,192,58369,1,8,0:0:0:0:
448,192,58531,1,0,0:0:0:0:
192,192,58693,1,0,0:0:0:0:
320,192,58855,128,0,59180:0:0:0:0:
64,192,58855,1,8,0:0:0:0:
192,192,59018,1,0,0:0:0:0:
448,192,59180,128,0,59504:0:0:0:0:
64,192,59180,1,8,0:0:0:0:
192,192,59342,1,0,0:0:0:0:
64,192,59504,1,8,0:0:0:0:
320,192,59666,1,8,0:0:0:0:
192,192,59666,1,0,0:0:0:0:
320,192,59828,1,8,0:0:0:0:
192,192,59828,1,0,0:0:0:0:
448,192,59991,1,4,0:0:0:0:
64,192,59991,1,0,0:0:0:0:
320,192,60072,1,0,0:0:0:0:
192,192,60153,1,0,0:0:0:0:
64,192,60234,1,0,0:0:0:0:
192,192,60315,1,8,0:0:0:0:
320,192,60396,1,0,0:0:0:0:
448,192,60477,1,0,0:0:0:0:
320,192,60558,1,0,0:0:0:0:
192,192,60639,1,0,0:0:0:0:
64,192,60720,1,0,0:0:0:0:
192,192,60801,1,0,0:0:0:0:
320,192,60882,1,0,0:0:0:0:
448,192,60964,1,8,0:0:0:0:
320,192,61045,1,0,0:0:0:0:
192,192,61126,1,0,0:0:0:0:
320,192,61207,1,0,0:0:0:0:
448,192,61288,1,4,0:0:0:0:
64,192,61288,1,0,0:0:0:0:
320,192,61369,1,0,0:0:0:0:
64,192,61450,1,0,0:0:0:0:
320,192,61531,1,0,0:0:0:0:
192,192,61612,1,0,0:0:0:0:
448,192,61693,1,0,0:0:0:0:
64,192,61774,1,0,0:0:0:0:
320,192,61855,1,0,0:0:0:0:
192,192,61937,1,0,0:0:0:0:
448,192,62018,1,0,0:0:0:0:
64,192,62099,1,0,0:0:0:0:
320,192,62180,1,0,0:0:0:0:
192,192,62261,1,0,0:0:0:0:
448,192,62342,1,0,0:0:0:0:
64,192,62423,1,0,0:0:0:0:
320,192,62504,1,0,0:0:0:0:
64,192,62585,1,0,0:0:0:0:
448,192,62585,1,0,0:0:0:0:
192,192,62666,1,0,0:0:0:0:
320,192,62747,1,0,0:0:0:0:
448,192,62828,1,0,0:0:0:0:
320,192,62909,1,8,0:0:0:0:
192,192,62991,1,0,0:0:0:0:
64,192,63072,1,0,0:0:0:0:
192,192,63153,1,0,0:0:0:0:
320,192,63234,1,0,0:0:0:0:
448,192,63234,1,0,0:0:0:0:
448,192,63396,1,0,0:0:0:0:
320,192,63396,1,0,0:0:0:0:
192,192,63558,128,0,63882:0:0:0:0:
64,192,63558,1,0,0:0:0:0:
320,192,63720,1,0,0:0:0:0:
448,192,63801,1,0,0:0:0:0:
320,192,63882,128,0,64855:0:0:0:0:
64,192,63882,1,0,0:0:0:0:
192,192,64855,1,8,0:0:0:0:
64,192,64855,1,0,0:0:0:0:
64,192,65180,1,0,0:0:0:0:
448,192,65180,1,4,0:0:0:0:
64,192,65342,1,0,0:0:0:0:
320,192,65504,1,0,0:0:0:0:
448,192,65504,1,8,0:0:0:0:
192,192,65666,1,0,0:0:0:0:
448,192,65828,1,0,0:0:0:0:
320,192,65909,1,0,0:0:0:0:
448,192,65991,1,0,0:0:0:0:
192,192,66153,1,0,0:0:0:0:
320,192,66315,1,0,0:0:0:0:
64,192,66477,1,0,0:0:0:0:
448,192,66477,1,0,0:0:0:0:
320,192,66639,1,0,0:0:0:0:
64,192,66801,1,8,0:0:0:0:
192,192,66801,1,0,0:0:0:0:
320,192,66964,1,0,0:0:0:0:
192,192,67045,1,0,0:0:0:0:
448,192,67126,1,0,0:0:0:0:
64,192,67288,1,0,0:0:0:0:
448,192,67450,1,0,0:0:0:0:
320,192,67531,1,0,0:0:0:0:
192,192,67612,1,0,0:0:0:0:
64,192,67693,1,0,0:0:0:0:
320,192,67774,1,0,0:0:0:0:
320,192,67937,1,0,0:0:0:0:
64,192,68099,1,0,0:0:0:0:
192,192,68099,1,8,0:0:0:0:
320,192,68261,1,0,0:0:0:0:
64,192,68423,1,0,0:0:0:0:
192,192,68504,1,0,0:0:0:0:
320,192,68585,1,0,0:0:0:0:
448,192,68747,1,0,0:0:0:0:
320,192,68909,1,0,0:0:0:0:
448,192,69072,1,0,0:0:0:0:
64,192,69072,1,0,0:0:0:0:
320,192,69234,1,0,0:0:0:0:
192,192,69396,1,0,0:0:0:0:
448,192,69396,1,8,0:0:0:0:
64,192,69558,1,0,0:0:0:0:
192,192,69639,1,0,0:0:0:0:
64,192,69720,1,0,0:0:0:0:
320,192,69882,1,0,0:0:0:0:
64,192,70045,1,0,0:0:0:0:
192,192,70126,1,0,0:0:0:0:
320,192,70207,1,0,0:0:0:0:
448,192,70288,1,0,0:0:0:0:
192,192,70369,1,0,0:0:0:0:
192,192,70531,1,0,0:0:0:0:
64,192,70693,1,8,0:0:0:0:
448,192,70693,1,0,0:0:0:0:
320,192,70855,1,0,0:0:0:0:
448,192,71018,1,0,0:0:0:0:
192,192,71099,1,0,0:0:0:0:
320,192,71180,1,0,0:0:0:0:
64,192,71342,1,0,0:0:0:0:
320,192,71504,1,0,0:0:0:0:
64,192,71666,1,0,0:0:0:0:
192,192,71666,1,0,0:0:0:0:
320,192,71828,1,0,0:0:0:0:
448,192,71991,1,8,0:0:0:0:
192,192,71991,1,0,0:0:0:0:
320,192,72153,1,0,0:0:0:0:
64,192,72234,1,0,0:0:0:0:
448,192,72315,1,0,0:0:0:0:
320,192,72477,1,0,0:0:0:0:
448,192,72639,1,0,0:0:0:0:
320,192,72720,1,0,0:0:0:0:
192,192,72801,1,0,0:0:0:0:
64,192,72882,1,0,0:0:0:0:
320,192,72964,1,0,0:0:0:0:
320,192,73126,1,0,0:0:0:0:
448,192,73288,1,8,0:0:0:0:
64,192,73288,1,0,0:0:0:0:
192,192,73450,1,0,0:0:0:0:
320,192,73612,1,0,0:0:0:0:
448,192,73693,1,0,0:0:0:0:
192,192,73774,1,0,0:0:0:0:
64,192,73937,1,0,0:0:0:0:
192,192,74018,1,0,0:0:0:0:
320,192,74099,1,0,0:0:0:0:
448,192,74180,1,0,0:0:0:0:
320,192,74261,1,4,0:0:0:0:
192,192,74261,1,0,0:0:0:0:
448,192,74423,5,0,0:0:0:0:
320,192,74585,1,0,0:0:0:0:
448,192,74747,1,0,0:0:0:0:
320,192,74909,1,0,0:0:0:0:
192,192,75234,1,0,0:0:0:0:
448,192,75558,5,4,0:0:0:0:
64,192,75558,1,0,0:0:0:0:
320,192,75639,1,0,0:0:0:0:
192,192,75720,1,0,0:0:0:0:
64,192,75801,1,0,0:0:0:0:
192,192,75882,1,0,0:0:0:0:
320,192,75964,1,0,0:0:0:0:
448,192,76045,1,0,0:0:0:0:
320,192,76126,1,0,0:0:0:0:
192,192,76207,1,0,0:0:0:0:
64,192,76288,1,0,0:0:0:0:
192,192,76369,1,0,0:0:0:0:
320,192,76450,1,0,0:0:0:0:
448,192,76531,1,0,0:0:0:0:
320,192,76612,1,0,0:0:0:0:
192,192,76693,1,0,0:0:0:0:
320,192,76774,1,0,0:0:0:0:
448,192,76855,1,4,0:0:0:0:
64,192,76855,1,0,0:0:0:0:
320,192,76937,1,0,0:0:0:0:
192,192,77018,1,0,0:0:0:0:
64,192,77099,1,0,0:0:0:0:
192,192,77180,1,0,0:0:0:0:
320,192,77261,1,0,0:0:0:0:
448,192,77342,1,0,0:0:0:0:
320,192,77423,1,0,0:0:0:0:
192,192,77504,1,0,0:0:0:0:
64,192,77585,1,0,0:0:0:0:
192,192,77666,1,0,0:0:0:0:
320,192,77747,1,0,0:0:0:0:
192,192,77828,1,0,0:0:0:0:
64,192,77909,1,0,0:0:0:0:
192,192,77991,1,0,0:0:0:0:
320,192,78072,1,0,0:0:0:0:
448,192,78153,1,4,0:0:0:0:
64,192,78153,1,0,0:0:0:0:
320,192,78234,1,0,0:0:0:0:
64,192,78315,1,0,0:0:0:0:
320,192,78396,1,0,0:0:0:0:
192,192,78477,1,0,0:0:0:0:
448,192,78558,1,0,0:0:0:0:
192,192,78639,1,0,0:0:0:0:
320,192,78720,1,0,0:0:0:0:
64,192,78801,1,0,0:0:0:0:
192,192,78801,1,4,0:0:0:0:
448,192,78882,1,0,0:0:0:0:
192,192,78964,1,0,0:0:0:0:
320,192,79045,1,0,0:0:0:0:
64,192,79126,1,0,0:0:0:0:
448,192,79207,1,0,0:0:0:0:
192,192,79288,1,0,0:0:0:0:
320,192,79369,1,0,0:0:0:0:
64,192,79450,128,0,80423:0:0:0:0:
448,192,79450,1,4,0:0:0:0:
320,192,79531,1,0,0:0:0:0:
192,192,79612,1,0,0:0:0:0:
320,192,79693,1,0,0:0:0:0:
448,192,79774,1,4,0:0:0:0:
320,192,79855,1,0,0:0:0:0:
192,192,79937,1,0,0:0:0:0:
320,192,80018,1,0,0:0:0:0:
448,192,80099,1,0,0:0:0:0:
320,192,80180,1,0,0:0:0:0:
192,192,80261,1,0,0:0:0:0:
320,192,80342,1,0,0:0:0:0:
448,192,80423,1,4,0:0:0:0:
320,192,80504,1,0,0:0:0:0:
192,192,80585,1,0,0:0:0:0:
64,192,80666,1,0,0:0:0:0:
448,192,80747,128,0,83342:0:0:0:0:
320,192,80747,1,0,0:0:0:0:
320,192,82045,128,0,83342:0:0:0:0:
64,192,83342,1,0,0:0:0:0:
192,192,83504,1,0,0:0:0:0:
320,192,83666,1,0,0:0:0:0:
448,192,83666,1,0,0:0:0:0:
192,192,83828,1,0,0:0:0:0:
64,192,83991,1,0,0:0:0:0:
64,192,84153,1,0,0:0:0:0:
192,192,84315,1,0,0:0:0:0:
448,192,84315,1,0,0:0:0:0:
320,192,84477,1,0,0:0:0:0:
448,192,84639,1,4,0:0:0:0:
64,192,84639,1,0,0:0:0:0:
192,192,84639,1,0,0:0:0:0:
64,192,84801,1,0,0:0:0:0:
448,192,84801,1,0,0:0:0:0:
64,192,84964,1,0,0:0:0:0:
448,192,84964,1,0,0:0:0:0:
64,192,85126,1,0,0:0:0:0:
448,192,85126,1,0,0:0:0:0:
448,192,85288,1,4,0:0:0:0:
64,192,85288,1,0,0:0:0:0:
192,192,85288,1,0,0:0:0:0:
320,192,85450,1,0,0:0:0:0:
448,192,85531,1,0,0:0:0:0:
64,192,85612,1,0,0:0:0:0:
192,192,85612,1,8,0:0:0:0:
320,192,85612,1,4,0:0:0:0:
448,192,85937,1,4,0:0:0:0:
64,192,85937,1,0,0:0:0:0:
320,192,86261,1,0,0:0:0:0:
192,192,86585,1,0,0:0:0:0:
64,192,86909,1,4,0:0:0:0:
320,192,86909,1,0,0:0:0:0:
64,192,87072,1,4,0:0:0:0:
320,192,87072,1,0,0:0:0:0:
192,192,87396,1,0,0:0:0:0:
448,192,87396,1,4,0:0:0:0:
448,192,87558,1,4,0:0:0:0:
192,192,87558,1,0,0:0:0:0:
192,192,87720,1,0,0:0:0:0:
448,192,87720,1,4,0:0:0:0:
320,192,87882,1,0,0:0:0:0:
64,192,87882,1,0,0:0:0:0:
64,192,88207,1,0,0:0:0:0:
448,192,88207,1,0,0:0:0:0:
192,192,88207,1,0,0:0:0:0:
320,192,88369,1,0,0:0:0:0:
192,192,88450,1,0,0:0:0:0:
64,192,88531,1,0,0:0:0:0:
448,192,88531,1,0,0:0:0:0:
192,192,88693,1,0,0:0:0:0:
320,192,88774,1,0,0:0:0:0:
192,192,88855,1,0,0:0:0:0:
64,192,88855,1,8,0:0:0:0:
320,192,89018,1,0,0:0:0:0:
64,192,89180,1,0,0:0:0:0:
448,192,89180,1,0,0:0:0:0:
320,192,89342,1,0,0:0:0:0:
192,192,89504,1,0,0:0:0:0:
448,192,89504,1,8,0:0:0:0:
320,192,89666,1,0,0:0:0:0:
192,192,89828,1,0,0:0:0:0:
64,192,89828,1,0,0:0:0:0:
320,192,89991,1,8,0:0:0:0:
192,192,90072,1,0,0:0:0:0:
64,192,90153,1,0,0:0:0:0:
448,192,90153,1,0,0:0:0:0:
192,192,90315,1,8,0:0:0:0:
320,192,90396,1,0,0:0:0:0:
448,192,90477,1,0,0:0:0:0:
64,192,90477,1,0,0:0:0:0:
320,192,90639,1,8,0:0:0:0:
192,192,90801,1,8,0:0:0:0:
64,192,90801,1,0,0:0:0:0:
192,192,90964,1,8,0:0:0:0:
64,192,90964,1,0,0:0:0:0:
64,192,91126,1,4,0:0:0:0:
448,192,91126,1,0,0:0:0:0:
320,192,91288,1,0,0:0:0:0:
64,192,91450,1,0,0:0:0:0:
192,192,91450,1,8,0:0:0:0:
320,192,91612,1,0,0:0:0:0:
192,192,91774,1,0,0:0:0:0:
448,192,91774,1,0,0:0:0:0:
320,192,91937,1,0,0:0:0:0:
64,192,92099,1,0,0:0:0:0:
448,192,92099,1,8,0:0:0:0:
64,192,92261,1,0,0:0:0:0:
192,192,92423,1,0,0:0:0:0:
448,192,92423,1,4,0:0:0:0:
320,192,92585,1,0,0:0:0:0:
64,192,92747,1,8,0:0:0:0:
448,192,92747,1,0,0:0:0:0:
320,192,92909,1,0,0:0:0:0:
64,192,93072,1,0,0:0:0:0:
192,192,93072,1,0,0:0:0:0:
192,192,93234,1,8,0:0:0:0:
448,192,93396,1,0,0:0:0:0:
320,192,93396,1,8,0:0:0:0:
320,192,93558,1,8,0:0:0:0:
64,192,93720,1,0,0:0:0:0:
448,192,93720,1,4,0:0:0:0:
320,192,93801,1,0,0:0:0:0:
192,192,93882,1,0,0:0:0:0:
64,192,93964,1,0,0:0:0:0:
192,192,94045,1,0,0:0:0:0:
320,192,94126,1,0,0:0:0:0:
448,192,94207,1,0,0:0:0:0:
320,192,94288,1,0,0:0:0:0:
64,192,94369,1,0,0:0:0:0:
192,192,94369,1,4,0:0:0:0:
64,192,94531,1,0,0:0:0:0:
192,192,94531,1,4,0:0:0:0:
448,192,94693,128,0,95018:0:0:0:0:
320,192,94693,1,0,0:0:0:0:
64,192,94855,1,0,0:0:0:0:
192,192,94937,1,0,0:0:0:0:
64,192,95018,1,8,0:0:0:0:
192,192,95180,1,0,0:0:0:0:
320,192,95261,1,0,0:0:0:0:
448,192,95342,1,0,0:0:0:0:
64,192,95342,1,8,0:0:0:0:
320,192,95504,1,0,0:0:0:0:
192,192,95585,1,0,0:0:0:0:
64,192,95666,1,8,0:0:0:0:
448,192,95666,1,0,0:0:0:0:
320,192,95828,1,0,0:0:0:0:
448,192,95909,1,0,0:0:0:0:
192,192,95991,128,0,96153:0:0:0:0:
448,192,96153,1,0,0:0:0:0:
320,192,96234,1,0,0:0:0:0:
448,192,96315,1,0,0:0:0:0:
64,192,96315,1,0,0:0:0:0:
320,192,96477,1,0,0:0:0:0:
192,192,96639,1,0,0:0:0:0:
448,192,96639,1,8,0:0:0:0:
320,192,96801,1,0,0:0:0:0:
64,192,96964,1,0,0:0:0:0:
192,192,96964,1,0,0:0:0:0:
320,192,97126,1,0,0:0:0:0:
192,192,97207,1,0,0:0:0:0:
64,192,97288,1,8,0:0:0:0:
448,192,97288,1,0,0:0:0:0:
64,192,97450,1,0,0:0:0:0:
448,192,97612,1,0,0:0:0:0:
192,192,97612,1,0,0:0:0:0:
320,192,97774,1,0,0:0:0:0:
448,192,97937,1,8,0:0:0:0:
64,192,97937,1,0,0:0:0:0:
192,192,98099,1,0,0:0:0:0:
320,192,98261,1,8,0:0:0:0:
64,192,98261,1,0,0:0:0:0:
320,192,98423,1,8,0:0:0:0:
192,192,98585,1,8,0:0:0:0:
64,192,98585,1,0,0:0:0:0:
192,192,98747,1,8,0:0:0:0:
448,192,98909,1,0,0:0:0:0:
64,192,98909,1,0,0:0:0:0:
320,192,99072,1,0,0:0:0:0:
192,192,99153,1,0,0:0:0:0:
448,192,99234,1,8,0:0:0:0:
64,192,99234,1,0,0:0:0:0:
192,192,99396,1,0,0:0:0:0:
320,192,99558,1,0,0:0:0:0:
64,192,99558,1,0,0:0:0:0:
448,192,99720,1,0,0:0:0:0:
320,192,99882,1,8,0:0:0:0:
64,192,99882,1,0,0:0:0:0:
448,192,100045,1,0,0:0:0:0:
192,192,100207,1,0,0:0:0:0:
64,192,100207,1,0,0:0:0:0:
320,192,100369,1,0,0:0:0:0:
192,192,100450,1,0,0:0:0:0:
64,192,100531,1,0,0:0:0:0:
448,192,100531,1,0,0:0:0:0:
192,192,100693,1,0,0:0:0:0:
320,192,100774,1,0,0:0:0:0:
448,192,100855,1,0,0:0:0:0:
64,192,100855,1,0,0:0:0:0:
64,192,101018,1,0,0:0:0:0:
320,192,101180,1,8,0:0:0:0:
192,192,101180,1,0,0:0:0:0:
320,192,101342,1,8,0:0:0:0:
192,192,101342,1,0,0:0:0:0:
64,192,101504,1,0,0:0:0:0:
448,192,101504,1,4,0:0:0:0:
320,192,101504,1,0,0:0:0:0:
192,192,101666,1,0,0:0:0:0:
64,192,101828,1,0,0:0:0:0:
448,192,101828,1,4,0:0:0:0:
320,192,101828,1,0,0:0:0:0:
192,192,101991,1,0,0:0:0:0:
320,192,102153,1,4,0:0:0:0:
64,192,102153,1,0,0:0:0:0:
64,192,102315,1,0,0:0:0:0:
320,192,102315,1,4,0:0:0:0:
64,192,102639,1,0,0:0:0:0:
448,192,102639,1,4,0:0:0:0:
320,192,102639,1,0,0:0:0:0:
64,192,102964,1,0,0:0:0:0:
448,192,102964,1,4,0:0:0:0:
320,192,102964,1,0,0:0:0:0:
192,192,103126,1,0,0:0:0:0:
64,192,103288,1,0,0:0:0:0:
448,192,103288,1,4,0:0:0:0:
320,192,103288,1,0,0:0:0:0:
64,192,103450,1,0,0:0:0:0:
320,192,103450,1,0,0:0:0:0:
320,192,103612,1,0,0:0:0:0:
64,192,103612,1,0,0:0:0:0:
192,192,103774,1,0,0:0:0:0:
320,192,103774,1,0,0:0:0:0:
64,192,103774,1,0,0:0:0:0:
448,192,104099,1,0,0:0:0:0:
64,192,104099,1,0,0:0:0:0:
320,192,104180,1,0,0:0:0:0:
192,192,104261,1,8,0:0:0:0:
64,192,104342,1,0,0:0:0:0:
192,192,104423,1,0,0:0:0:0:
320,192,104504,1,0,0:0:0:0:
448,192,104585,1,8,0:0:0:0:
320,192,104666,1,0,0:0:0:0:
192,192,104747,1,0,0:0:0:0:
448,192,104828,1,0,0:0:0:0:
64,192,104909,1,0,0:0:0:0:
320,192,104991,1,0,0:0:0:0:
192,192,105072,1,0,0:0:0:0:
448,192,105153,1,0,0:0:0:0:
64,192,105234,1,0,0:0:0:0:
320,192,105315,1,0,0:0:0:0:
448,192,105396,1,0,0:0:0:0:
64,192,105396,1,0,0:0:0:0:
192,192,105558,1,0,0:0:0:0:
320,192,105639,1,0,0:0:0:0:
64,192,105720,1,0,0:0:0:0:
448,192,105720,1,8,0:0:0:0:
320,192,105882,1,0,0:0:0:0:
192,192,105964,1,0,0:0:0:0:
64,192,106045,1,0,0:0:0:0:
448,192,106045,1,8,0:0:0:0:
320,192,106207,1,0,0:0:0:0:
448,192,106288,1,0,0:0:0:0:
320,192,106369,1,0,0:0:0:0:
192,192,106369,128,0,106693:0:0:0:0:
64,192,106369,1,0,0:0:0:0:
448,192,106693,128,4,108477:0:0:0:0:
320,192,106693,128,0,108477:0:0:0:0:
