osu file format v12

[General]
AudioFilename: TRIGGERHAPPY.mp3
AudioLeadIn: 0
PreviewTime: 22054
Countdown: 0
SampleSet: Soft
StackLeniency: 0.7
Mode: 3
LetterboxInBreaks: 0
SpecialStyle: 1
WidescreenStoryboard: 1

[Editor]
Bookmarks: 11675,22054,27567,86919,97297
DistanceSpacing: 1
BeatDivisor: 4
GridSize: 8
TimelineZoom: 1

[Metadata]
Title:TRIGGER*HAPPY
TitleUnicode:TRIGGER★HAPPY
Artist:P*Light
ArtistUnicode:P*Light
Creator:Nitori
Version:8K NOVICE
Source:SOUND VOLTEX BOOTH
Tags:sdvx floor infinite infection beatmania bemani happy hardcore reflec beat skalim
BeatmapID:295772
BeatmapSetID:114156

[Difficulty]
HPDrainRate:7
CircleSize:8
OverallDifficulty:7
ApproachRate:5
SliderMultiplier:1.4
SliderTickRate:1

[Events]
//Background and Video events
0,0,"sample_90434fedf1fc23ef9ff370c2107e0e069de75b49.jpg",0,0
//Break Periods
//Storyboard Layer 0 (Background)
//Storyboard Layer 1 (Fail)
//Storyboard Layer 2 (Pass)
//Storyboard Layer 3 (Foreground)
//Storyboard Sound Samples
//Background Colour Transformations
3,100,163,162,255

[TimingPoints]
1297.47404504001,324.324324324324,4,2,0,30,1,0
22054,-100,4,2,0,30,0,1
31135,-100,4,2,0,30,0,0
97297,-100,4,2,0,30,0,1
107351,-100,4,2,0,30,0,0

[HitObjects]
224,192,1297,5,0,0:0:0:0:
352,192,1297,1,0,0:0:0:0:
224,192,1783,1,0,0:0:0:0:
352,192,1783,1,0,0:0:0:0:
96,192,2270,1,0,0:0:0:0:
224,192,2594,1,0,0:0:0:0:
352,192,2594,1,0,0:0:0:0:
224,192,3081,1,0,0:0:0:0:
352,192,3081,1,0,0:0:0:0:
480,192,3243,1,0,0:0:0:0:
416,192,3567,1,0,0:0:0:0:
224,192,3892,1,0,0:0:0:0:
352,192,3892,1,0,0:0:0:0:
224,192,4378,1,0,0:0:0:0:
352,192,4378,1,0,0:0:0:0:
96,192,4865,1,0,0:0:0:0:
352,192,5189,1,0,0:0:0:0:
96,192,5675,1,0,0:0:0:0:
288,192,5838,1,0,0:0:0:0:
352,192,6000,1,0,0:0:0:0:
416,192,6162,128,0,6486:0:0:0:0:
160,192,6486,1,0,0:0:0:0:
224,192,6810,1,0,0:0:0:0:
352,192,7135,1,0,0:0:0:0:
288,192,7459,1,0,0:0:0:0:
416,192,7783,1,0,0:0:0:0:
352,192,8108,1,0,0:0:0:0:
224,192,8432,1,0,0:0:0:0:
288,192,8756,1,0,0:0:0:0:
224,192,9081,1,0,0:0:0:0:
352,192,9405,1,0,0:0:0:0:
224,192,9729,1,0,0:0:0:0:
352,192,10054,1,0,0:0:0:0:
224,192,10378,1,0,0:0:0:0:
352,192,10702,1,0,0:0:0:0:
288,192,11027,1,0,0:0:0:0:
32,192,11351,1,0,0:0:0:0:
352,192,11675,1,0,0:0:0:0:
224,192,12000,1,0,0:0:0:0:
416,192,12324,1,0,0:0:0:0:
96,192,12648,1,0,0:0:0:0:
224,192,12973,1,0,0:0:0:0:
352,192,13297,1,0,0:0:0:0:
160,192,13621,1,0,0:0:0:0:
480,192,13946,1,0,0:0:0:0:
416,192,14108,1,0,0:0:0:0:
352,192,14270,1,0,0:0:0:0:
224,192,14594,1,0,0:0:0:0:
416,192,14919,1,0,0:0:0:0:
96,192,15243,1,0,0:0:0:0:
224,192,15567,1,0,0:0:0:0:
352,192,15892,1,0,0:0:0:0:
160,192,16216,1,0,0:0:0:0:
480,192,16540,1,0,0:0:0:0:
416,192,16702,1,0,0:0:0:0:
352,192,16865,1,0,0:0:0:0:
224,192,17189,1,0,0:0:0:0:
416,192,17513,1,0,0:0:0:0:
96,192,17838,1,0,0:0:0:0:
224,192,18162,1,0,0:0:0:0:
480,192,18486,1,0,0:0:0:0:
416,192,18810,1,0,0:0:0:0:
224,192,19135,1,0,0:0:0:0:
288,192,19297,1,0,0:0:0:0:
352,192,19459,1,0,0:0:0:0:
288,192,19783,1,0,0:0:0:0:
224,192,20108,1,0,0:0:0:0:
288,192,20432,1,0,0:0:0:0:
480,192,20756,1,0,0:0:0:0:
352,192,21081,1,0,0:0:0:0:
224,192,21405,1,0,0:0:0:0:
32,192,21729,128,0,22054:0:0:0:0:
224,192,22054,1,0,0:0:0:0:
352,192,22054,1,0,0:0:0:0:
224,192,22540,1,0,0:0:0:0:
352,192,22540,1,0,0:0:0:0:
96,192,23027,1,0,0:0:0:0:
224,192,23351,1,0,0:0:0:0:
352,192,23351,1,0,0:0:0:0:
224,192,23838,1,0,0:0:0:0:
352,192,23838,1,0,0:0:0:0:
480,192,24000,1,0,0:0:0:0:
416,192,24324,1,0,0:0:0:0:
224,192,24648,1,0,0:0:0:0:
352,192,24648,1,0,0:0:0:0:
224,192,25135,1,0,0:0:0:0:
352,192,25135,1,0,0:0:0:0:
96,192,25621,1,0,0:0:0:0:
480,192,25946,1,0,0:0:0:0:
480,192,26270,1,0,0:0:0:0:
160,192,26594,1,0,0:0:0:0:
416,192,26756,1,0,0:0:0:0:
160,192,26919,1,0,0:0:0:0:
416,192,27081,1,0,0:0:0:0:
224,192,27243,1,0,0:0:0:0:
352,192,27243,1,0,0:0:0:0:
224,192,27729,1,0,0:0:0:0:
352,192,27729,1,0,0:0:0:0:
96,192,28216,1,0,0:0:0:0:
224,192,28540,1,0,0:0:0:0:
352,192,28540,1,0,0:0:0:0:
224,192,29189,1,0,0:0:0:0:
352,192,29189,1,0,0:0:0:0:
480,192,29513,1,0,0:0:0:0:
416,192,29838,1,0,0:0:0:0:
160,192,30162,1,0,0:0:0:0:
352,192,30486,1,0,0:0:0:0:
224,192,30810,1,0,0:0:0:0:
32,192,31135,1,0,0:0:0:0:
32,192,32108,1,0,0:0:0:0:
480,192,32432,1,0,0:0:0:0:
480,192,32756,1,0,0:0:0:0:
352,192,32919,1,0,0:0:0:0:
352,192,33243,1,0,0:0:0:0:
224,192,33567,128,0,34702:0:0:0:0:
352,192,34702,1,0,0:0:0:0:
96,192,35027,1,0,0:0:0:0:
352,192,35351,1,0,0:0:0:0:
224,192,35675,1,0,0:0:0:0:
480,192,36000,1,0,0:0:0:0:
288,192,36324,1,0,0:0:0:0:
224,192,36648,1,0,0:0:0:0:
160,192,36973,1,0,0:0:0:0:
32,192,37297,1,0,0:0:0:0:
96,192,37621,1,0,0:0:0:0:
416,192,37621,1,0,0:0:0:0:
224,192,37946,1,0,0:0:0:0:
96,192,38270,1,0,0:0:0:0:
224,192,38594,1,0,0:0:0:0:
96,192,38919,1,0,0:0:0:0:
224,192,39243,1,0,0:0:0:0:
288,192,39567,1,0,0:0:0:0:
352,192,39892,1,0,0:0:0:0:
480,192,40216,1,0,0:0:0:0:
352,192,40540,1,0,0:0:0:0:
480,192,40865,1,0,0:0:0:0:
352,192,41189,1,0,0:0:0:0:
160,192,41513,1,0,0:0:0:0:
416,192,41838,1,0,0:0:0:0:
480,192,42162,1,0,0:0:0:0:
352,192,42486,1,0,0:0:0:0:
224,192,42810,1,0,0:0:0:0:
224,192,43297,1,0,0:0:0:0:
352,192,43783,1,0,0:0:0:0:
416,192,43946,1,0,0:0:0:0:
224,192,44108,1,0,0:0:0:0:
160,192,44270,1,0,0:0:0:0:
288,192,44756,1,0,0:0:0:0:
288,192,45081,1,0,0:0:0:0:
224,192,45405,1,0,0:0:0:0:
224,192,45892,1,0,0:0:0:0:
352,192,46378,1,0,0:0:0:0:
416,192,46540,1,0,0:0:0:0:
32,192,46702,1,0,0:0:0:0:
32,192,47027,1,0,0:0:0:0:
288,192,47351,1,0,0:0:0:0:
96,192,47675,1,0,0:0:0:0:
352,192,48000,1,0,0:0:0:0:
96,192,48648,1,0,0:0:0:0:
224,192,49297,1,0,0:0:0:0:
288,192,49459,1,0,0:0:0:0:
352,192,49621,1,0,0:0:0:0:
416,192,49783,1,0,0:0:0:0:
480,192,49946,1,0,0:0:0:0:
352,192,50594,1,0,0:0:0:0:
96,192,51243,1,0,0:0:0:0:
480,192,51892,1,0,0:0:0:0:
352,192,52054,1,0,0:0:0:0:
480,192,52216,1,0,0:0:0:0:
352,192,52378,1,0,0:0:0:0:
288,192,52540,1,0,0:0:0:0:
224,192,52702,1,0,0:0:0:0:
160,192,52865,1,0,0:0:0:0:
96,192,53189,1,0,0:0:0:0:
224,192,53675,1,0,0:0:0:0:
288,192,54162,1,0,0:0:0:0:
352,192,54486,1,0,0:0:0:0:
480,192,54973,1,0,0:0:0:0:
224,192,55297,1,0,0:0:0:0:
160,192,55459,1,0,0:0:0:0:
96,192,55621,1,0,0:0:0:0:
224,192,55946,1,0,0:0:0:0:
288,192,56189,1,0,0:0:0:0:
224,192,56432,1,0,0:0:0:0:
288,192,56675,1,0,0:0:0:0:
224,192,56919,1,0,0:0:0:0:
352,192,57243,1,0,0:0:0:0:
480,192,57486,1,0,0:0:0:0:
352,192,57729,1,0,0:0:0:0:
480,192,57973,1,0,0:0:0:0:
352,192,58216,1,0,0:0:0:0:
32,192,58378,128,0,60324:0:0:0:0:
288,192,60324,1,0,0:0:0:0:
416,192,60648,1,0,0:0:0:0:
160,192,60648,1,0,0:0:0:0:
224,192,60973,1,0,0:0:0:0:
224,192,61621,1,0,0:0:0:0:
352,192,62270,1,0,0:0:0:0:
352,192,62919,1,0,0:0:0:0:
160,192,63567,1,0,0:0:0:0:
160,192,64216,1,0,0:0:0:0:
416,192,64865,1,0,0:0:0:0:
416,192,65513,1,0,0:0:0:0:
288,192,66162,128,0,67459:0:0:0:0:
416,192,67459,128,0,67946:0:0:0:0:
352,192,67946,128,0,68432:0:0:0:0:
224,192,68432,128,0,68756:0:0:0:0:
288,192,68756,128,0,70054:0:0:0:0:
480,192,70054,128,0,71027:0:0:0:0:
96,192,71027,1,0,0:0:0:0:
352,192,71351,1,0,0:0:0:0:
288,192,71513,1,0,0:0:0:0:
224,192,71675,1,0,0:0:0:0:
288,192,71838,128,0,73459:0:0:0:0:
160,192,73459,1,0,0:0:0:0:
96,192,73621,1,0,0:0:0:0:
160,192,73783,1,0,0:0:0:0:
416,192,73946,1,0,0:0:0:0:
288,192,74108,1,0,0:0:0:0:
352,192,74270,1,0,0:0:0:0:
224,192,74432,128,0,75243:0:0:0:0:
160,192,75243,128,0,76216:0:0:0:0:
352,192,76216,1,0,0:0:0:0:
416,192,76540,128,0,77838:0:0:0:0:
224,192,77838,1,0,0:0:0:0:
352,192,78486,1,0,0:0:0:0:
480,192,78810,1,0,0:0:0:0:
224,192,79135,1,0,0:0:0:0:
352,192,79297,1,0,0:0:0:0:
224,192,79459,1,0,0:0:0:0:
352,192,79621,1,0,0:0:0:0:
224,192,79783,1,0,0:0:0:0:
352,192,79946,1,0,0:0:0:0:
224,192,80108,1,0,0:0:0:0:
352,192,80270,1,0,0:0:0:0:
32,192,80432,1,0,0:0:0:0:
480,192,80432,1,0,0:0:0:0:
32,192,80756,1,0,0:0:0:0:
32,192,81081,1,0,0:0:0:0:
224,192,81405,1,0,0:0:0:0:
352,192,81729,1,0,0:0:0:0:
480,192,81729,1,0,0:0:0:0:
224,192,82378,1,0,0:0:0:0:
96,192,82378,1,0,0:0:0:0:
352,192,83027,1,0,0:0:0:0:
480,192,83027,1,0,0:0:0:0:
96,192,83675,1,0,0:0:0:0:
224,192,83675,1,0,0:0:0:0:
480,192,84324,1,0,0:0:0:0:
352,192,84648,1,0,0:0:0:0:
480,192,84973,1,0,0:0:0:0:
352,192,85297,1,0,0:0:0:0:
288,192,85783,1,0,0:0:0:0:
288,192,86108,1,0,0:0:0:0:
288,192,86270,1,0,0:0:0:0:
32,192,86594,1,0,0:0:0:0:
352,192,86919,1,0,0:0:0:0:
224,192,87243,1,0,0:0:0:0:
416,192,87567,1,0,0:0:0:0:
96,192,87892,1,0,0:0:0:0:
224,192,88216,1,0,0:0:0:0:
352,192,88540,1,0,0:0:0:0:
160,192,88865,1,0,0:0:0:0:
480,192,89189,1,0,0:0:0:0:
416,192,89351,1,0,0:0:0:0:
352,192,89513,1,0,0:0:0:0:
224,192,89838,1,0,0:0:0:0:
416,192,90162,1,0,0:0:0:0:
96,192,90486,1,0,0:0:0:0:
224,192,90810,1,0,0:0:0:0:
352,192,91135,1,0,0:0:0:0:
160,192,91459,1,0,0:0:0:0:
480,192,91783,1,0,0:0:0:0:
416,192,91946,1,0,0:0:0:0:
352,192,92108,1,0,0:0:0:0:
224,192,92432,1,0,0:0:0:0:
416,192,92756,1,0,0:0:0:0:
96,192,93081,1,0,0:0:0:0:
224,192,93405,1,0,0:0:0:0:
480,192,93729,1,0,0:0:0:0:
416,192,94054,1,0,0:0:0:0:
224,192,94378,1,0,0:0:0:0:
288,192,94540,1,0,0:0:0:0:
352,192,94702,1,0,0:0:0:0:
288,192,95027,1,0,0:0:0:0:
224,192,95351,1,0,0:0:0:0:
288,192,95675,1,0,0:0:0:0:
480,192,96000,1,0,0:0:0:0:
352,192,96324,1,0,0:0:0:0:
224,192,96648,1,0,0:0:0:0:
32,192,96973,128,0,97297:0:0:0:0:
224,192,97297,1,0,0:0:0:0:
352,192,97297,1,0,0:0:0:0:
224,192,97783,1,0,0:0:0:0:
352,192,97783,1,0,0:0:0:0:
96,192,98270,1,0,0:0:0:0:
352,192,98594,1,0,0:0:0:0:
224,192,98594,1,0,0:0:0:0:
352,192,99081,1,0,0:0:0:0:
224,192,99081,1,0,0:0:0:0:
480,192,99243,1,0,0:0:0:0:
416,192,99567,1,0,0:0:0:0:
224,192,99892,1,0,0:0:0:0:
352,192,99892,1,0,0:0:0:0:
224,192,100378,1,0,0:0:0:0:
352,192,100378,1,0,0:0:0:0:
96,192,100865,1,0,0:0:0:0:
480,192,101189,1,0,0:0:0:0:
480,192,101513,1,0,0:0:0:0:
160,192,101838,1,0,0:0:0:0:
416,192,102000,1,0,0:0:0:0:
160,192,102162,1,0,0:0:0:0:
416,192,102324,1,0,0:0:0:0:
224,192,102486,1,0,0:0:0:0:
352,192,102486,1,0,0:0:0:0:
224,192,102973,1,0,0:0:0:0:
352,192,102973,1,0,0:0:0:0:
96,192,103459,1,0,0:0:0:0:
352,192,103783,1,0,0:0:0:0:
224,192,103783,1,0,0:0:0:0:
352,192,104432,1,0,0:0:0:0:
224,192,104432,1,0,0:0:0:0:
480,192,104756,1,0,0:0:0:0:
288,192,105081,1,0,0:0:0:0:
352,192,105405,1,0,0:0:0:0:
288,192,105729,1,0,0:0:0:0:
224,192,106054,1,0,0:0:0:0:
160,192,106702,128,0,107351:0:0:0:0:
416,192,107351,1,0,0:0:0:0:
32,192,107675,128,0,110270:0:0:0:0:
288,192,107675,1,0,0:0:0:0:
480,192,110270,1,0,0:0:0:0:
