osu file format v12

[General]
AudioFilename: TRIGGERHAPPY.mp3
AudioLeadIn: 0
PreviewTime: 22054
Countdown: 0
SampleSet: Soft
StackLeniency: 0.7
Mode: 3
LetterboxInBreaks: 0
SpecialStyle: 1
WidescreenStoryboard: 1

[Editor]
Bookmarks: 11675,22054,27567,86919,97297
DistanceSpacing: 1
BeatDivisor: 4
GridSize: 8

[Metadata]
Title:TRIGGER*HAPPY
TitleUnicode:TRIGGER★HAPPY
Artist:P*Light
ArtistUnicode:P*Light
Creator:Nitori
Version:6K ADVANCED
Source:SOUND VOLTEX BOOTH
Tags:sdvx floor infinite infection beatmania bemani happy hardcore reflec beat skalim
BeatmapID:295769
BeatmapSetID:114156

[Difficulty]
HPDrainRate:8
CircleSize:6
OverallDifficulty:8
ApproachRate:5
SliderMultiplier:1.4
SliderTickRate:1

[Events]
//Background and Video events
0,0,"sample_90434fedf1fc23ef9ff370c2107e0e069de75b49.jpg",0,0
//Break Periods
//Storyboard Layer 0 (Background)
//Storyboard Layer 1 (Fail)
//Storyboard Layer 2 (Pass)
//Storyboard Layer 3 (Foreground)
//Storyboard Sound Samples
//Background Colour Transformations
3,100,163,162,255

[TimingPoints]
1297.47404504001,324.324324324324,4,2,0,30,1,0
22054,-100,4,2,0,30,0,1
31135,-100,4,2,0,30,0,0
97297,-100,4,2,0,30,0,1
107351,-100,4,2,0,30,0,0

[HitObjects]
128,192,1297,1,0,0:0:0:0:
298,192,1459,1,0,0:0:0:0:
128,192,1783,1,0,0:0:0:0:
298,192,1946,1,0,0:0:0:0:
384,192,2270,1,0,0:0:0:0:
469,192,2432,1,0,0:0:0:0:
298,192,2513,1,0,0:0:0:0:
128,192,2594,1,0,0:0:0:0:
298,192,2756,1,0,0:0:0:0:
128,192,3081,1,0,0:0:0:0:
469,192,3243,1,0,0:0:0:0:
213,192,3405,1,0,0:0:0:0:
469,192,3567,1,0,0:0:0:0:
298,192,3648,1,0,0:0:0:0:
469,192,3729,1,0,0:0:0:0:
298,192,3810,1,0,0:0:0:0:
128,192,3892,1,0,0:0:0:0:
298,192,4054,1,0,0:0:0:0:
128,192,4378,1,0,0:0:0:0:
298,192,4540,1,0,0:0:0:0:
298,192,4865,1,0,0:0:0:0:
298,192,5027,1,0,0:0:0:0:
384,192,5108,1,0,0:0:0:0:
469,192,5189,1,0,0:0:0:0:
298,192,5351,1,0,0:0:0:0:
469,192,5513,1,0,0:0:0:0:
298,192,5675,1,0,0:0:0:0:
128,192,5838,1,0,0:0:0:0:
213,192,5919,1,0,0:0:0:0:
298,192,6000,1,0,0:0:0:0:
384,192,6081,1,0,0:0:0:0:
469,192,6162,1,0,0:0:0:0:
128,192,6243,1,0,0:0:0:0:
213,192,6324,1,0,0:0:0:0:
298,192,6405,1,0,0:0:0:0:
384,192,6486,1,0,0:0:0:0:
128,192,6486,1,0,0:0:0:0:
42,192,6486,1,0,0:0:0:0:
469,192,6648,1,0,0:0:0:0:
128,192,6810,1,0,0:0:0:0:
384,192,6973,1,0,0:0:0:0:
469,192,7135,1,0,0:0:0:0:
213,192,7135,1,0,0:0:0:0:
213,192,7459,1,0,0:0:0:0:
469,192,7459,1,0,0:0:0:0:
469,192,7621,1,0,0:0:0:0:
384,192,7702,1,0,0:0:0:0:
128,192,7783,1,0,0:0:0:0:
298,192,7783,1,0,0:0:0:0:
469,192,7946,1,0,0:0:0:0:
128,192,8108,1,0,0:0:0:0:
469,192,8270,1,0,0:0:0:0:
384,192,8351,1,0,0:0:0:0:
298,192,8432,1,0,0:0:0:0:
213,192,8432,1,0,0:0:0:0:
469,192,8594,1,0,0:0:0:0:
384,192,8756,1,0,0:0:0:0:
213,192,8756,1,0,0:0:0:0:
128,192,9081,1,0,0:0:0:0:
298,192,9081,1,0,0:0:0:0:
213,192,9243,1,0,0:0:0:0:
298,192,9405,1,0,0:0:0:0:
128,192,9405,1,0,0:0:0:0:
213,192,9567,1,0,0:0:0:0:
128,192,9729,1,0,0:0:0:0:
469,192,9729,1,0,0:0:0:0:
298,192,9810,1,0,0:0:0:0:
384,192,9892,1,0,0:0:0:0:
469,192,9973,1,0,0:0:0:0:
128,192,10054,1,0,0:0:0:0:
213,192,10135,1,0,0:0:0:0:
384,192,10216,1,0,0:0:0:0:
469,192,10297,1,0,0:0:0:0:
298,192,10378,1,0,0:0:0:0:
128,192,10540,1,0,0:0:0:0:
298,192,10702,1,0,0:0:0:0:
128,192,10865,1,0,0:0:0:0:
298,192,11027,1,0,0:0:0:0:
42,192,11351,1,0,0:0:0:0:
128,192,11351,1,0,0:0:0:0:
469,192,11351,1,0,0:0:0:0:
298,192,11675,1,0,0:0:0:0:
213,192,11838,1,0,0:0:0:0:
384,192,12000,1,0,0:0:0:0:
469,192,12081,1,0,0:0:0:0:
298,192,12243,1,0,0:0:0:0:
384,192,12486,1,0,0:0:0:0:
213,192,12567,1,0,0:0:0:0:
42,192,12648,1,0,0:0:0:0:
384,192,12648,1,0,0:0:0:0:
469,192,12810,1,0,0:0:0:0:
298,192,12973,1,0,0:0:0:0:
213,192,13135,1,0,0:0:0:0:
384,192,13297,1,0,0:0:0:0:
469,192,13378,1,0,0:0:0:0:
298,192,13540,1,0,0:0:0:0:
42,192,13702,1,0,0:0:0:0:
384,192,13783,1,0,0:0:0:0:
469,192,13865,1,0,0:0:0:0:
298,192,13946,1,0,0:0:0:0:
42,192,13946,1,0,0:0:0:0:
213,192,14027,1,0,0:0:0:0:
128,192,14108,1,0,0:0:0:0:
298,192,14270,1,0,0:0:0:0:
213,192,14432,1,0,0:0:0:0:
384,192,14594,1,0,0:0:0:0:
469,192,14675,1,0,0:0:0:0:
298,192,14838,1,0,0:0:0:0:
298,192,15081,1,0,0:0:0:0:
213,192,15162,1,0,0:0:0:0:
42,192,15243,1,0,0:0:0:0:
298,192,15243,1,0,0:0:0:0:
128,192,15405,1,0,0:0:0:0:
384,192,15567,1,0,0:0:0:0:
469,192,15648,1,0,0:0:0:0:
128,192,15729,1,0,0:0:0:0:
42,192,15729,1,0,0:0:0:0:
213,192,15810,1,0,0:0:0:0:
298,192,15892,1,0,0:0:0:0:
469,192,15973,1,0,0:0:0:0:
128,192,16054,1,0,0:0:0:0:
42,192,16054,1,0,0:0:0:0:
213,192,16135,1,0,0:0:0:0:
384,192,16216,1,0,0:0:0:0:
469,192,16297,1,0,0:0:0:0:
128,192,16378,1,0,0:0:0:0:
42,192,16378,1,0,0:0:0:0:
384,192,16459,1,0,0:0:0:0:
298,192,16540,1,0,0:0:0:0:
213,192,16540,1,0,0:0:0:0:
298,192,16865,1,0,0:0:0:0:
213,192,17027,1,0,0:0:0:0:
384,192,17189,1,0,0:0:0:0:
469,192,17270,1,0,0:0:0:0:
298,192,17432,1,0,0:0:0:0:
384,192,17675,1,0,0:0:0:0:
213,192,17756,1,0,0:0:0:0:
384,192,17838,1,0,0:0:0:0:
42,192,17838,1,0,0:0:0:0:
469,192,18000,1,0,0:0:0:0:
298,192,18162,1,0,0:0:0:0:
213,192,18324,1,0,0:0:0:0:
469,192,18486,1,0,0:0:0:0:
384,192,18567,1,0,0:0:0:0:
298,192,18729,1,0,0:0:0:0:
42,192,18892,1,0,0:0:0:0:
384,192,18973,1,0,0:0:0:0:
298,192,19054,1,0,0:0:0:0:
213,192,19135,1,0,0:0:0:0:
42,192,19135,1,0,0:0:0:0:
384,192,19216,1,0,0:0:0:0:
469,192,19297,1,0,0:0:0:0:
298,192,19459,1,0,0:0:0:0:
213,192,19621,1,0,0:0:0:0:
384,192,19783,1,0,0:0:0:0:
469,192,19865,1,0,0:0:0:0:
298,192,20027,1,0,0:0:0:0:
42,192,20108,1,0,0:0:0:0:
42,192,20270,1,0,0:0:0:0:
42,192,20432,1,0,0:0:0:0:
42,192,20594,1,0,0:0:0:0:
42,192,20756,1,0,0:0:0:0:
213,192,20756,1,0,0:0:0:0:
298,192,20919,1,0,0:0:0:0:
384,192,21000,1,0,0:0:0:0:
469,192,21081,1,0,0:0:0:0:
384,192,21243,1,0,0:0:0:0:
298,192,21405,1,0,0:0:0:0:
469,192,21729,128,0,22054:0:0:0:0:
298,192,22054,1,0,0:0:0:0:
128,192,22054,1,0,0:0:0:0:
213,192,22216,1,0,0:0:0:0:
384,192,22378,1,0,0:0:0:0:
469,192,22459,1,0,0:0:0:0:
128,192,22540,1,0,0:0:0:0:
298,192,22621,1,0,0:0:0:0:
384,192,22865,1,0,0:0:0:0:
213,192,22946,1,0,0:0:0:0:
384,192,23027,1,0,0:0:0:0:
42,192,23027,1,0,0:0:0:0:
469,192,23189,1,0,0:0:0:0:
128,192,23351,1,0,0:0:0:0:
298,192,23351,1,0,0:0:0:0:
213,192,23513,1,0,0:0:0:0:
384,192,23675,1,0,0:0:0:0:
469,192,23756,1,0,0:0:0:0:
213,192,23838,1,0,0:0:0:0:
298,192,24000,1,0,0:0:0:0:
128,192,24000,1,0,0:0:0:0:
42,192,24081,1,0,0:0:0:0:
469,192,24162,1,0,0:0:0:0:
384,192,24243,1,0,0:0:0:0:
128,192,24324,1,0,0:0:0:0:
42,192,24324,1,0,0:0:0:0:
298,192,24324,1,0,0:0:0:0:
384,192,24405,1,0,0:0:0:0:
469,192,24486,1,0,0:0:0:0:
384,192,24567,1,0,0:0:0:0:
128,192,24648,1,0,0:0:0:0:
298,192,24648,1,0,0:0:0:0:
213,192,24810,1,0,0:0:0:0:
384,192,24973,1,0,0:0:0:0:
469,192,25054,1,0,0:0:0:0:
128,192,25135,1,0,0:0:0:0:
298,192,25216,1,0,0:0:0:0:
298,192,25459,1,0,0:0:0:0:
213,192,25540,1,0,0:0:0:0:
469,192,25621,1,0,0:0:0:0:
42,192,25621,1,0,0:0:0:0:
298,192,25621,1,0,0:0:0:0:
128,192,25783,1,0,0:0:0:0:
213,192,25946,1,0,0:0:0:0:
42,192,25946,1,0,0:0:0:0:
298,192,26027,1,0,0:0:0:0:
384,192,26108,1,0,0:0:0:0:
469,192,26189,1,0,0:0:0:0:
128,192,26270,1,0,0:0:0:0:
42,192,26270,1,0,0:0:0:0:
213,192,26351,1,0,0:0:0:0:
298,192,26432,1,0,0:0:0:0:
384,192,26513,1,0,0:0:0:0:
128,192,26594,1,0,0:0:0:0:
42,192,26594,1,0,0:0:0:0:
298,192,26675,1,0,0:0:0:0:
384,192,26756,1,0,0:0:0:0:
42,192,26756,1,0,0:0:0:0:
469,192,26838,1,0,0:0:0:0:
384,192,26919,1,0,0:0:0:0:
42,192,26919,1,0,0:0:0:0:
42,192,27081,1,0,0:0:0:0:
128,192,27243,1,0,0:0:0:0:
298,192,27243,1,0,0:0:0:0:
213,192,27405,1,0,0:0:0:0:
384,192,27567,1,0,0:0:0:0:
469,192,27648,1,0,0:0:0:0:
128,192,27729,1,0,0:0:0:0:
298,192,27810,1,0,0:0:0:0:
384,192,28054,1,0,0:0:0:0:
213,192,28135,1,0,0:0:0:0:
384,192,28216,1,0,0:0:0:0:
42,192,28216,1,0,0:0:0:0:
469,192,28378,1,0,0:0:0:0:
128,192,28540,1,0,0:0:0:0:
298,192,28702,1,0,0:0:0:0:
384,192,28783,1,0,0:0:0:0:
469,192,28865,1,0,0:0:0:0:
298,192,29027,1,0,0:0:0:0:
213,192,29108,1,0,0:0:0:0:
128,192,29189,1,0,0:0:0:0:
298,192,29351,1,0,0:0:0:0:
213,192,29513,1,0,0:0:0:0:
42,192,29513,1,0,0:0:0:0:
128,192,29675,1,0,0:0:0:0:
298,192,29838,1,0,0:0:0:0:
213,192,30000,1,0,0:0:0:0:
384,192,30162,1,0,0:0:0:0:
469,192,30243,1,0,0:0:0:0:
298,192,30405,1,0,0:0:0:0:
128,192,30486,1,0,0:0:0:0:
213,192,30567,1,0,0:0:0:0:
298,192,30648,1,0,0:0:0:0:
384,192,30729,1,0,0:0:0:0:
213,192,30810,1,0,0:0:0:0:
298,192,30892,1,0,0:0:0:0:
384,192,30973,1,0,0:0:0:0:
469,192,31054,1,0,0:0:0:0:
128,192,31135,1,0,0:0:0:0:
298,192,31297,1,0,0:0:0:0:
128,192,31459,1,0,0:0:0:0:
298,192,31621,1,0,0:0:0:0:
213,192,31783,1,0,0:0:0:0:
42,192,32108,1,0,0:0:0:0:
384,192,32108,1,0,0:0:0:0:
469,192,32108,1,0,0:0:0:0:
128,192,32432,1,0,0:0:0:0:
298,192,32432,1,0,0:0:0:0:
469,192,32432,1,0,0:0:0:0:
128,192,32756,1,0,0:0:0:0:
298,192,32756,1,0,0:0:0:0:
469,192,32756,1,0,0:0:0:0:
213,192,32919,1,0,0:0:0:0:
384,192,32919,1,0,0:0:0:0:
213,192,33243,1,0,0:0:0:0:
384,192,33243,1,0,0:0:0:0:
128,192,33567,128,0,34702:0:0:0:0:
298,192,33567,128,0,35027:0:0:0:0:
42,192,34702,1,0,0:0:0:0:
42,192,35027,1,0,0:0:0:0:
128,192,35027,1,0,0:0:0:0:
298,192,35189,1,0,0:0:0:0:
469,192,35351,1,0,0:0:0:0:
384,192,35432,1,0,0:0:0:0:
298,192,35513,1,0,0:0:0:0:
128,192,35675,1,0,0:0:0:0:
213,192,35756,1,0,0:0:0:0:
469,192,35838,1,0,0:0:0:0:
384,192,35919,1,0,0:0:0:0:
298,192,36000,1,0,0:0:0:0:
128,192,36000,1,0,0:0:0:0:
42,192,36324,1,0,0:0:0:0:
213,192,36324,1,0,0:0:0:0:
384,192,36324,1,0,0:0:0:0:
42,192,36648,1,0,0:0:0:0:
298,192,36648,1,0,0:0:0:0:
42,192,36973,1,0,0:0:0:0:
42,192,37297,1,0,0:0:0:0:
298,192,37297,1,0,0:0:0:0:
384,192,37297,1,0,0:0:0:0:
128,192,37621,1,0,0:0:0:0:
469,192,37621,1,0,0:0:0:0:
213,192,37783,1,0,0:0:0:0:
128,192,37946,1,0,0:0:0:0:
384,192,37946,1,0,0:0:0:0:
298,192,38108,1,0,0:0:0:0:
42,192,38270,1,0,0:0:0:0:
469,192,38270,1,0,0:0:0:0:
213,192,38432,1,0,0:0:0:0:
128,192,38594,1,0,0:0:0:0:
384,192,38594,1,0,0:0:0:0:
298,192,38756,1,0,0:0:0:0:
128,192,38919,1,0,0:0:0:0:
469,192,38919,1,0,0:0:0:0:
213,192,39081,1,0,0:0:0:0:
42,192,39243,1,0,0:0:0:0:
384,192,39243,1,0,0:0:0:0:
298,192,39405,1,0,0:0:0:0:
469,192,39567,1,0,0:0:0:0:
128,192,39567,1,0,0:0:0:0:
384,192,39729,1,0,0:0:0:0:
213,192,39892,1,0,0:0:0:0:
42,192,39892,1,0,0:0:0:0:
384,192,40054,1,0,0:0:0:0:
128,192,40054,1,0,0:0:0:0:
469,192,40216,1,0,0:0:0:0:
42,192,40216,1,0,0:0:0:0:
298,192,40378,1,0,0:0:0:0:
384,192,40540,1,0,0:0:0:0:
128,192,40540,1,0,0:0:0:0:
42,192,40540,1,0,0:0:0:0:
213,192,40702,1,0,0:0:0:0:
469,192,40865,1,0,0:0:0:0:
42,192,40865,1,0,0:0:0:0:
298,192,41027,1,0,0:0:0:0:
384,192,41189,1,0,0:0:0:0:
128,192,41189,1,0,0:0:0:0:
213,192,41351,1,0,0:0:0:0:
128,192,41351,1,0,0:0:0:0:
128,192,41513,1,0,0:0:0:0:
384,192,41513,1,0,0:0:0:0:
213,192,41675,1,0,0:0:0:0:
298,192,41756,1,0,0:0:0:0:
384,192,41838,1,0,0:0:0:0:
128,192,42000,1,0,0:0:0:0:
213,192,42081,1,0,0:0:0:0:
384,192,42162,1,0,0:0:0:0:
469,192,42324,1,0,0:0:0:0:
298,192,42486,1,0,0:0:0:0:
42,192,42486,1,0,0:0:0:0:
384,192,42486,1,0,0:0:0:0:
469,192,42810,1,0,0:0:0:0:
213,192,42810,1,0,0:0:0:0:
42,192,42810,1,0,0:0:0:0:
469,192,43135,1,0,0:0:0:0:
213,192,43297,1,0,0:0:0:0:
42,192,43297,1,0,0:0:0:0:
469,192,43459,1,0,0:0:0:0:
469,192,43783,1,0,0:0:0:0:
298,192,43783,1,0,0:0:0:0:
213,192,43946,1,0,0:0:0:0:
469,192,44108,1,0,0:0:0:0:
384,192,44108,1,0,0:0:0:0:
42,192,44108,1,0,0:0:0:0:
298,192,44270,1,0,0:0:0:0:
42,192,44270,1,0,0:0:0:0:
469,192,44432,1,0,0:0:0:0:
213,192,44594,1,0,0:0:0:0:
42,192,44594,1,0,0:0:0:0:
469,192,44756,1,0,0:0:0:0:
213,192,44919,1,0,0:0:0:0:
469,192,45081,1,0,0:0:0:0:
213,192,45243,1,0,0:0:0:0:
384,192,45405,1,0,0:0:0:0:
42,192,45405,1,0,0:0:0:0:
128,192,45405,1,0,0:0:0:0:
128,192,45729,1,0,0:0:0:0:
384,192,45892,1,0,0:0:0:0:
42,192,45892,1,0,0:0:0:0:
128,192,46054,1,0,0:0:0:0:
128,192,46378,1,0,0:0:0:0:
298,192,46378,1,0,0:0:0:0:
384,192,46540,1,0,0:0:0:0:
213,192,46702,1,0,0:0:0:0:
469,192,46702,1,0,0:0:0:0:
128,192,46865,1,0,0:0:0:0:
384,192,46865,1,0,0:0:0:0:
469,192,47027,1,0,0:0:0:0:
213,192,47027,1,0,0:0:0:0:
128,192,47189,1,0,0:0:0:0:
384,192,47189,1,0,0:0:0:0:
213,192,47351,1,0,0:0:0:0:
469,192,47351,1,0,0:0:0:0:
298,192,47675,1,0,0:0:0:0:
42,192,47675,1,0,0:0:0:0:
128,192,47675,1,0,0:0:0:0:
384,192,48000,1,0,0:0:0:0:
469,192,48000,1,0,0:0:0:0:
298,192,48243,1,0,0:0:0:0:
128,192,48324,1,0,0:0:0:0:
213,192,48324,1,0,0:0:0:0:
384,192,48486,1,0,0:0:0:0:
469,192,48486,1,0,0:0:0:0:
213,192,48648,1,0,0:0:0:0:
128,192,48729,1,0,0:0:0:0:
213,192,48810,1,0,0:0:0:0:
469,192,48810,1,0,0:0:0:0:
128,192,48892,1,0,0:0:0:0:
42,192,48973,128,0,49297:0:0:0:0:
213,192,49297,1,0,0:0:0:0:
384,192,49297,1,0,0:0:0:0:
128,192,49459,1,0,0:0:0:0:
298,192,49459,1,0,0:0:0:0:
213,192,49621,1,0,0:0:0:0:
384,192,49621,1,0,0:0:0:0:
469,192,49783,1,0,0:0:0:0:
298,192,49783,1,0,0:0:0:0:
128,192,49946,128,0,50432:0:0:0:0:
384,192,49946,128,0,50432:0:0:0:0:
298,192,50270,1,0,0:0:0:0:
213,192,50594,1,0,0:0:0:0:
128,192,50594,1,0,0:0:0:0:
298,192,50838,1,0,0:0:0:0:
384,192,50919,1,0,0:0:0:0:
469,192,50919,1,0,0:0:0:0:
213,192,51081,1,0,0:0:0:0:
128,192,51081,1,0,0:0:0:0:
384,192,51243,1,0,0:0:0:0:
469,192,51324,1,0,0:0:0:0:
384,192,51405,1,0,0:0:0:0:
128,192,51405,1,0,0:0:0:0:
469,192,51486,1,0,0:0:0:0:
42,192,51567,128,0,51892:0:0:0:0:
298,192,51892,1,0,0:0:0:0:
213,192,51892,1,0,0:0:0:0:
128,192,52054,1,0,0:0:0:0:
213,192,52054,1,0,0:0:0:0:
298,192,52216,1,0,0:0:0:0:
384,192,52216,1,0,0:0:0:0:
384,192,52378,1,0,0:0:0:0:
469,192,52378,1,0,0:0:0:0:
298,192,52540,1,0,0:0:0:0:
384,192,52540,1,0,0:0:0:0:
213,192,52702,1,0,0:0:0:0:
298,192,52702,1,0,0:0:0:0:
128,192,52865,1,0,0:0:0:0:
213,192,52865,1,0,0:0:0:0:
42,192,52865,1,0,0:0:0:0:
469,192,53189,128,0,54162:0:0:0:0:
384,192,53189,128,0,53675:0:0:0:0:
128,192,53189,1,0,0:0:0:0:
213,192,53513,1,0,0:0:0:0:
298,192,53675,128,0,54486:0:0:0:0:
128,192,53675,1,0,0:0:0:0:
128,192,54000,1,0,0:0:0:0:
384,192,54162,128,0,54973:0:0:0:0:
213,192,54162,1,0,0:0:0:0:
469,192,54486,128,0,55297:0:0:0:0:
128,192,54486,1,0,0:0:0:0:
128,192,54648,1,0,0:0:0:0:
213,192,54810,1,0,0:0:0:0:
298,192,54973,128,0,55297:0:0:0:0:
128,192,54973,1,0,0:0:0:0:
213,192,55297,1,0,0:0:0:0:
128,192,55297,1,0,0:0:0:0:
384,192,55459,1,0,0:0:0:0:
298,192,55540,1,0,0:0:0:0:
213,192,55621,1,0,0:0:0:0:
128,192,55702,1,0,0:0:0:0:
384,192,55946,1,0,0:0:0:0:
469,192,55946,1,0,0:0:0:0:
384,192,56189,1,0,0:0:0:0:
469,192,56189,1,0,0:0:0:0:
384,192,56432,1,0,0:0:0:0:
469,192,56432,1,0,0:0:0:0:
384,192,56675,1,0,0:0:0:0:
469,192,56675,1,0,0:0:0:0:
384,192,56919,1,0,0:0:0:0:
469,192,56919,1,0,0:0:0:0:
128,192,57000,1,0,0:0:0:0:
213,192,57000,1,0,0:0:0:0:
128,192,57243,1,0,0:0:0:0:
298,192,57243,1,0,0:0:0:0:
128,192,57486,1,0,0:0:0:0:
298,192,57486,1,0,0:0:0:0:
213,192,57729,1,0,0:0:0:0:
384,192,57729,1,0,0:0:0:0:
213,192,57973,1,0,0:0:0:0:
384,192,57973,1,0,0:0:0:0:
213,192,58216,1,0,0:0:0:0:
384,192,58216,1,0,0:0:0:0:
128,192,58378,1,0,0:0:0:0:
42,192,58378,128,0,60648:0:0:0:0:
469,192,59351,128,0,60648:0:0:0:0:
384,192,60324,1,0,0:0:0:0:
298,192,60405,1,0,0:0:0:0:
213,192,60486,1,0,0:0:0:0:
384,192,60648,1,0,0:0:0:0:
128,192,60973,1,0,0:0:0:0:
298,192,60973,1,0,0:0:0:0:
469,192,61135,1,0,0:0:0:0:
128,192,61297,1,0,0:0:0:0:
469,192,61459,1,0,0:0:0:0:
298,192,61621,1,0,0:0:0:0:
469,192,61783,1,0,0:0:0:0:
298,192,61865,1,0,0:0:0:0:
469,192,62027,1,0,0:0:0:0:
298,192,62108,1,0,0:0:0:0:
384,192,62270,1,0,0:0:0:0:
213,192,62432,1,0,0:0:0:0:
384,192,62513,1,0,0:0:0:0:
213,192,62594,1,0,0:0:0:0:
384,192,62756,1,0,0:0:0:0:
128,192,62919,1,0,0:0:0:0:
469,192,63081,1,0,0:0:0:0:
128,192,63162,1,0,0:0:0:0:
469,192,63243,1,0,0:0:0:0:
128,192,63405,1,0,0:0:0:0:
469,192,63486,1,0,0:0:0:0:
128,192,63567,1,0,0:0:0:0:
469,192,63729,1,0,0:0:0:0:
128,192,63892,1,0,0:0:0:0:
469,192,64054,1,0,0:0:0:0:
298,192,64216,1,0,0:0:0:0:
469,192,64378,1,0,0:0:0:0:
298,192,64459,1,0,0:0:0:0:
469,192,64621,1,0,0:0:0:0:
298,192,64702,1,0,0:0:0:0:
213,192,64865,1,0,0:0:0:0:
298,192,65027,1,0,0:0:0:0:
469,192,65027,1,0,0:0:0:0:
213,192,65189,1,0,0:0:0:0:
384,192,65189,1,0,0:0:0:0:
128,192,65351,1,0,0:0:0:0:
298,192,65351,1,0,0:0:0:0:
213,192,65513,1,0,0:0:0:0:
469,192,65513,1,0,0:0:0:0:
128,192,65675,1,0,0:0:0:0:
384,192,65756,1,0,0:0:0:0:
469,192,65756,1,0,0:0:0:0:
128,192,65838,1,0,0:0:0:0:
213,192,66000,1,0,0:0:0:0:
298,192,66000,1,0,0:0:0:0:
128,192,66162,1,0,0:0:0:0:
469,192,66324,1,0,0:0:0:0:
128,192,66486,1,0,0:0:0:0:
469,192,66648,1,0,0:0:0:0:
298,192,66810,1,0,0:0:0:0:
469,192,66973,1,0,0:0:0:0:
298,192,67054,1,0,0:0:0:0:
469,192,67216,1,0,0:0:0:0:
298,192,67297,1,0,0:0:0:0:
384,192,67459,1,0,0:0:0:0:
213,192,67621,1,0,0:0:0:0:
384,192,67702,1,0,0:0:0:0:
213,192,67783,1,0,0:0:0:0:
384,192,67946,1,0,0:0:0:0:
128,192,68108,1,0,0:0:0:0:
469,192,68270,1,0,0:0:0:0:
128,192,68351,1,0,0:0:0:0:
469,192,68432,1,0,0:0:0:0:
128,192,68594,1,0,0:0:0:0:
469,192,68675,1,0,0:0:0:0:
128,192,68756,1,0,0:0:0:0:
469,192,68919,1,0,0:0:0:0:
128,192,69081,1,0,0:0:0:0:
469,192,69243,1,0,0:0:0:0:
128,192,69405,1,0,0:0:0:0:
469,192,69567,1,0,0:0:0:0:
128,192,69648,1,0,0:0:0:0:
469,192,69810,1,0,0:0:0:0:
128,192,69892,1,0,0:0:0:0:
469,192,70054,1,0,0:0:0:0:
384,192,70054,1,0,0:0:0:0:
128,192,70216,1,0,0:0:0:0:
213,192,70216,1,0,0:0:0:0:
469,192,70378,1,0,0:0:0:0:
384,192,70378,1,0,0:0:0:0:
128,192,70540,1,0,0:0:0:0:
213,192,70540,1,0,0:0:0:0:
298,192,70702,128,0,71027:0:0:0:0:
384,192,70702,128,0,71027:0:0:0:0:
42,192,71027,1,0,0:0:0:0:
213,192,71027,1,0,0:0:0:0:
42,192,71351,1,0,0:0:0:0:
298,192,71351,1,0,0:0:0:0:
384,192,71513,1,0,0:0:0:0:
469,192,71675,1,0,0:0:0:0:
213,192,71675,1,0,0:0:0:0:
42,192,71838,1,0,0:0:0:0:
298,192,71838,1,0,0:0:0:0:
384,192,72000,1,0,0:0:0:0:
128,192,72162,1,0,0:0:0:0:
469,192,72162,1,0,0:0:0:0:
213,192,72324,1,0,0:0:0:0:
298,192,72324,1,0,0:0:0:0:
469,192,72486,1,0,0:0:0:0:
384,192,72567,1,0,0:0:0:0:
213,192,72648,1,0,0:0:0:0:
42,192,72648,1,0,0:0:0:0:
384,192,72810,1,0,0:0:0:0:
213,192,72973,1,0,0:0:0:0:
469,192,72973,1,0,0:0:0:0:
42,192,73135,1,0,0:0:0:0:
298,192,73135,1,0,0:0:0:0:
469,192,73297,1,0,0:0:0:0:
128,192,73459,1,0,0:0:0:0:
384,192,73459,1,0,0:0:0:0:
213,192,73621,1,0,0:0:0:0:
469,192,73621,1,0,0:0:0:0:
298,192,73783,1,0,0:0:0:0:
42,192,73946,1,0,0:0:0:0:
128,192,73946,1,0,0:0:0:0:
298,192,74108,1,0,0:0:0:0:
213,192,74270,1,0,0:0:0:0:
469,192,74270,1,0,0:0:0:0:
42,192,74432,1,0,0:0:0:0:
298,192,74432,1,0,0:0:0:0:
384,192,74594,1,0,0:0:0:0:
128,192,74756,1,0,0:0:0:0:
469,192,74756,1,0,0:0:0:0:
213,192,74919,1,0,0:0:0:0:
298,192,74919,1,0,0:0:0:0:
469,192,75081,1,0,0:0:0:0:
384,192,75162,1,0,0:0:0:0:
42,192,75243,1,0,0:0:0:0:
298,192,75243,1,0,0:0:0:0:
469,192,75405,1,0,0:0:0:0:
42,192,75567,1,0,0:0:0:0:
298,192,75567,1,0,0:0:0:0:
128,192,75729,1,0,0:0:0:0:
469,192,75729,1,0,0:0:0:0:
384,192,75892,1,0,0:0:0:0:
128,192,76054,1,0,0:0:0:0:
384,192,76054,1,0,0:0:0:0:
213,192,76216,1,0,0:0:0:0:
384,192,76216,1,0,0:0:0:0:
128,192,76378,1,0,0:0:0:0:
384,192,76378,1,0,0:0:0:0:
213,192,76459,1,0,0:0:0:0:
42,192,76540,1,0,0:0:0:0:
298,192,76540,1,0,0:0:0:0:
384,192,76702,1,0,0:0:0:0:
213,192,76865,1,0,0:0:0:0:
128,192,76865,1,0,0:0:0:0:
469,192,76865,1,0,0:0:0:0:
298,192,77027,1,0,0:0:0:0:
42,192,77027,1,0,0:0:0:0:
384,192,77189,1,0,0:0:0:0:
469,192,77351,1,0,0:0:0:0:
128,192,77513,1,0,0:0:0:0:
213,192,77513,1,0,0:0:0:0:
298,192,77513,1,0,0:0:0:0:
469,192,77675,1,0,0:0:0:0:
384,192,77756,1,0,0:0:0:0:
42,192,77838,1,0,0:0:0:0:
298,192,77838,1,0,0:0:0:0:
469,192,78000,1,0,0:0:0:0:
128,192,78162,1,0,0:0:0:0:
213,192,78162,1,0,0:0:0:0:
298,192,78162,1,0,0:0:0:0:
469,192,78324,1,0,0:0:0:0:
384,192,78405,1,0,0:0:0:0:
42,192,78486,1,0,0:0:0:0:
298,192,78486,1,0,0:0:0:0:
469,192,78648,1,0,0:0:0:0:
128,192,78810,1,0,0:0:0:0:
213,192,78810,1,0,0:0:0:0:
42,192,78810,1,0,0:0:0:0:
384,192,78973,1,0,0:0:0:0:
128,192,79135,1,0,0:0:0:0:
213,192,79135,1,0,0:0:0:0:
384,192,79297,1,0,0:0:0:0:
298,192,79297,1,0,0:0:0:0:
213,192,79459,1,0,0:0:0:0:
128,192,79459,1,0,0:0:0:0:
384,192,79621,1,0,0:0:0:0:
298,192,79621,1,0,0:0:0:0:
469,192,79783,1,0,0:0:0:0:
384,192,79865,1,0,0:0:0:0:
298,192,79946,1,0,0:0:0:0:
213,192,80027,1,0,0:0:0:0:
384,192,80108,1,0,0:0:0:0:
298,192,80189,1,0,0:0:0:0:
213,192,80270,1,0,0:0:0:0:
128,192,80351,1,0,0:0:0:0:
213,192,80432,1,0,0:0:0:0:
384,192,80594,1,0,0:0:0:0:
213,192,80756,1,0,0:0:0:0:
384,192,80919,1,0,0:0:0:0:
298,192,81081,1,0,0:0:0:0:
128,192,81405,1,0,0:0:0:0:
298,192,81405,1,0,0:0:0:0:
469,192,81405,1,0,0:0:0:0:
469,192,81729,1,0,0:0:0:0:
384,192,81810,1,0,0:0:0:0:
298,192,81892,1,0,0:0:0:0:
469,192,81973,1,0,0:0:0:0:
384,192,82054,1,0,0:0:0:0:
298,192,82135,1,0,0:0:0:0:
469,192,82216,1,0,0:0:0:0:
384,192,82297,1,0,0:0:0:0:
128,192,82378,1,0,0:0:0:0:
213,192,82459,1,0,0:0:0:0:
298,192,82540,1,0,0:0:0:0:
128,192,82621,1,0,0:0:0:0:
213,192,82702,1,0,0:0:0:0:
298,192,82783,1,0,0:0:0:0:
128,192,82865,1,0,0:0:0:0:
213,192,82946,1,0,0:0:0:0:
469,192,83027,1,0,0:0:0:0:
384,192,83108,1,0,0:0:0:0:
298,192,83189,1,0,0:0:0:0:
469,192,83270,1,0,0:0:0:0:
384,192,83351,1,0,0:0:0:0:
298,192,83432,1,0,0:0:0:0:
469,192,83513,1,0,0:0:0:0:
384,192,83594,1,0,0:0:0:0:
128,192,83675,1,0,0:0:0:0:
213,192,83756,1,0,0:0:0:0:
298,192,83838,1,0,0:0:0:0:
128,192,83919,1,0,0:0:0:0:
213,192,84000,1,0,0:0:0:0:
298,192,84081,1,0,0:0:0:0:
128,192,84162,1,0,0:0:0:0:
213,192,84243,1,0,0:0:0:0:
469,192,84324,1,0,0:0:0:0:
384,192,84405,1,0,0:0:0:0:
298,192,84486,1,0,0:0:0:0:
213,192,84567,1,0,0:0:0:0:
469,192,84648,1,0,0:0:0:0:
384,192,84729,1,0,0:0:0:0:
298,192,84810,1,0,0:0:0:0:
213,192,84892,1,0,0:0:0:0:
128,192,84973,1,0,0:0:0:0:
213,192,85054,1,0,0:0:0:0:
298,192,85135,1,0,0:0:0:0:
384,192,85216,1,0,0:0:0:0:
469,192,85297,1,0,0:0:0:0:
384,192,85378,1,0,0:0:0:0:
298,192,85459,1,0,0:0:0:0:
42,192,85783,1,0,0:0:0:0:
298,192,85783,1,0,0:0:0:0:
42,192,86108,1,0,0:0:0:0:
298,192,86108,1,0,0:0:0:0:
42,192,86270,1,0,0:0:0:0:
298,192,86270,1,0,0:0:0:0:
42,192,86594,1,0,0:0:0:0:
128,192,86594,1,0,0:0:0:0:
469,192,86594,1,0,0:0:0:0:
298,192,86919,1,0,0:0:0:0:
213,192,87081,1,0,0:0:0:0:
384,192,87243,1,0,0:0:0:0:
469,192,87324,1,0,0:0:0:0:
298,192,87486,1,0,0:0:0:0:
384,192,87729,1,0,0:0:0:0:
213,192,87810,1,0,0:0:0:0:
384,192,87892,1,0,0:0:0:0:
42,192,87892,1,0,0:0:0:0:
469,192,88054,1,0,0:0:0:0:
298,192,88216,1,0,0:0:0:0:
213,192,88378,1,0,0:0:0:0:
384,192,88540,1,0,0:0:0:0:
469,192,88621,1,0,0:0:0:0:
298,192,88783,1,0,0:0:0:0:
42,192,88946,1,0,0:0:0:0:
128,192,89027,1,0,0:0:0:0:
384,192,89108,1,0,0:0:0:0:
469,192,89189,1,0,0:0:0:0:
42,192,89189,1,0,0:0:0:0:
298,192,89270,1,0,0:0:0:0:
213,192,89351,1,0,0:0:0:0:
298,192,89513,1,0,0:0:0:0:
213,192,89675,1,0,0:0:0:0:
384,192,89838,1,0,0:0:0:0:
469,192,89919,1,0,0:0:0:0:
298,192,90081,1,0,0:0:0:0:
298,192,90324,1,0,0:0:0:0:
213,192,90405,1,0,0:0:0:0:
42,192,90486,1,0,0:0:0:0:
298,192,90486,1,0,0:0:0:0:
128,192,90648,1,0,0:0:0:0:
384,192,90810,1,0,0:0:0:0:
469,192,90892,1,0,0:0:0:0:
128,192,90973,1,0,0:0:0:0:
42,192,90973,1,0,0:0:0:0:
213,192,91054,1,0,0:0:0:0:
298,192,91135,1,0,0:0:0:0:
469,192,91216,1,0,0:0:0:0:
42,192,91297,1,0,0:0:0:0:
128,192,91297,1,0,0:0:0:0:
213,192,91378,1,0,0:0:0:0:
384,192,91459,1,0,0:0:0:0:
469,192,91540,1,0,0:0:0:0:
128,192,91621,1,0,0:0:0:0:
42,192,91621,1,0,0:0:0:0:
298,192,91702,1,0,0:0:0:0:
384,192,91783,1,0,0:0:0:0:
213,192,91783,1,0,0:0:0:0:
298,192,92108,1,0,0:0:0:0:
213,192,92270,1,0,0:0:0:0:
384,192,92432,1,0,0:0:0:0:
469,192,92513,1,0,0:0:0:0:
298,192,92675,1,0,0:0:0:0:
384,192,92919,1,0,0:0:0:0:
213,192,93000,1,0,0:0:0:0:
42,192,93081,1,0,0:0:0:0:
384,192,93081,1,0,0:0:0:0:
469,192,93243,1,0,0:0:0:0:
298,192,93405,1,0,0:0:0:0:
213,192,93567,1,0,0:0:0:0:
469,192,93729,1,0,0:0:0:0:
384,192,93810,1,0,0:0:0:0:
298,192,93973,1,0,0:0:0:0:
42,192,94135,1,0,0:0:0:0:
384,192,94216,1,0,0:0:0:0:
298,192,94297,1,0,0:0:0:0:
213,192,94378,1,0,0:0:0:0:
42,192,94378,1,0,0:0:0:0:
298,192,94459,1,0,0:0:0:0:
469,192,94540,1,0,0:0:0:0:
298,192,94702,1,0,0:0:0:0:
213,192,94865,1,0,0:0:0:0:
384,192,95027,1,0,0:0:0:0:
469,192,95108,1,0,0:0:0:0:
298,192,95270,1,0,0:0:0:0:
42,192,95351,1,0,0:0:0:0:
42,192,95513,1,0,0:0:0:0:
42,192,95675,1,0,0:0:0:0:
42,192,95838,1,0,0:0:0:0:
213,192,96000,1,0,0:0:0:0:
42,192,96000,1,0,0:0:0:0:
298,192,96162,1,0,0:0:0:0:
384,192,96243,1,0,0:0:0:0:
469,192,96324,1,0,0:0:0:0:
384,192,96486,1,0,0:0:0:0:
213,192,96648,1,0,0:0:0:0:
469,192,96973,128,0,97297:0:0:0:0:
128,192,97297,1,0,0:0:0:0:
298,192,97297,1,0,0:0:0:0:
213,192,97459,1,0,0:0:0:0:
384,192,97621,1,0,0:0:0:0:
469,192,97702,1,0,0:0:0:0:
128,192,97783,1,0,0:0:0:0:
298,192,97865,1,0,0:0:0:0:
128,192,98108,1,0,0:0:0:0:
213,192,98189,1,0,0:0:0:0:
298,192,98270,1,0,0:0:0:0:
42,192,98270,1,0,0:0:0:0:
469,192,98432,1,0,0:0:0:0:
128,192,98594,1,0,0:0:0:0:
298,192,98594,1,0,0:0:0:0:
213,192,98756,1,0,0:0:0:0:
469,192,98919,1,0,0:0:0:0:
384,192,99000,1,0,0:0:0:0:
128,192,99081,1,0,0:0:0:0:
298,192,99162,1,0,0:0:0:0:
128,192,99243,1,0,0:0:0:0:
42,192,99324,1,0,0:0:0:0:
469,192,99405,1,0,0:0:0:0:
384,192,99486,1,0,0:0:0:0:
128,192,99567,1,0,0:0:0:0:
42,192,99567,1,0,0:0:0:0:
298,192,99567,1,0,0:0:0:0:
384,192,99648,1,0,0:0:0:0:
469,192,99729,1,0,0:0:0:0:
384,192,99810,1,0,0:0:0:0:
128,192,99892,1,0,0:0:0:0:
298,192,99892,1,0,0:0:0:0:
213,192,100054,1,0,0:0:0:0:
384,192,100216,1,0,0:0:0:0:
469,192,100297,1,0,0:0:0:0:
128,192,100378,1,0,0:0:0:0:
298,192,100459,1,0,0:0:0:0:
298,192,100702,1,0,0:0:0:0:
469,192,100865,1,0,0:0:0:0:
42,192,100865,1,0,0:0:0:0:
213,192,100865,1,0,0:0:0:0:
298,192,101027,1,0,0:0:0:0:
42,192,101189,1,0,0:0:0:0:
213,192,101189,1,0,0:0:0:0:
384,192,101270,1,0,0:0:0:0:
469,192,101351,1,0,0:0:0:0:
213,192,101432,1,0,0:0:0:0:
298,192,101513,1,0,0:0:0:0:
42,192,101513,1,0,0:0:0:0:
384,192,101594,1,0,0:0:0:0:
128,192,101675,1,0,0:0:0:0:
213,192,101756,1,0,0:0:0:0:
42,192,101838,1,0,0:0:0:0:
298,192,101838,1,0,0:0:0:0:
469,192,101919,1,0,0:0:0:0:
384,192,102000,1,0,0:0:0:0:
42,192,102000,1,0,0:0:0:0:
298,192,102081,1,0,0:0:0:0:
384,192,102162,1,0,0:0:0:0:
42,192,102162,1,0,0:0:0:0:
42,192,102324,1,0,0:0:0:0:
128,192,102486,1,0,0:0:0:0:
298,192,102486,1,0,0:0:0:0:
213,192,102648,1,0,0:0:0:0:
384,192,102810,1,0,0:0:0:0:
469,192,102892,1,0,0:0:0:0:
128,192,102973,1,0,0:0:0:0:
298,192,103054,1,0,0:0:0:0:
128,192,103297,1,0,0:0:0:0:
213,192,103378,1,0,0:0:0:0:
42,192,103459,1,0,0:0:0:0:
298,192,103459,1,0,0:0:0:0:
469,192,103621,1,0,0:0:0:0:
128,192,103783,1,0,0:0:0:0:
298,192,103946,1,0,0:0:0:0:
384,192,104027,1,0,0:0:0:0:
469,192,104108,1,0,0:0:0:0:
298,192,104270,1,0,0:0:0:0:
213,192,104351,1,0,0:0:0:0:
128,192,104432,1,0,0:0:0:0:
298,192,104594,1,0,0:0:0:0:
42,192,104756,1,0,0:0:0:0:
213,192,104756,1,0,0:0:0:0:
298,192,104919,1,0,0:0:0:0:
213,192,105081,1,0,0:0:0:0:
128,192,105081,1,0,0:0:0:0:
298,192,105243,1,0,0:0:0:0:
469,192,105405,1,0,0:0:0:0:
128,192,105405,1,0,0:0:0:0:
384,192,105486,1,0,0:0:0:0:
298,192,105648,1,0,0:0:0:0:
128,192,105729,1,0,0:0:0:0:
213,192,105810,1,0,0:0:0:0:
298,192,105892,1,0,0:0:0:0:
384,192,105973,1,0,0:0:0:0:
469,192,106054,1,0,0:0:0:0:
213,192,106135,1,0,0:0:0:0:
298,192,106216,1,0,0:0:0:0:
384,192,106297,1,0,0:0:0:0:
384,192,106702,128,0,107351:0:0:0:0:
213,192,106702,128,0,107351:0:0:0:0:
128,192,106702,1,0,0:0:0:0:
298,192,106865,1,0,0:0:0:0:
469,192,107027,128,0,107351:0:0:0:0:
42,192,107351,1,0,0:0:0:0:
128,192,107351,1,0,0:0:0:0:
42,192,107675,128,0,110270:0:0:0:0:
384,192,107675,1,0,0:0:0:0:
469,192,109297,128,0,109459:0:0:0:0:
469,192,110270,1,0,0:0:0:0:
