osu file format v12

[General]
AudioFilename: TRIGGERHAPPY.mp3
AudioLeadIn: 1500
PreviewTime: 22054
Countdown: 0
SampleSet: Normal
StackLeniency: 0.7
Mode: 0
LetterboxInBreaks: 0
WidescreenStoryboard: 1

[Editor]
DistanceSpacing: 0.8
BeatDivisor: 4
GridSize: 4

[Metadata]
Title:TRIGGER*HAPPY
TitleUnicode:TRIGGER★HAPPY
Artist:P*Light
ArtistUnicode:P*Light
Creator:Kyubey
Version:INFINITE
Source:SOUND VOLTEX BOOTH
Tags:sdvx beatmania bemani happy hardcore reflec beat ryuu aka reiji rj reiji-rj
BeatmapID:338594
BeatmapSetID:131361

[Difficulty]
HPDrainRate:7
CircleSize:4
OverallDifficulty:8
ApproachRate:9
SliderMultiplier:1.8
SliderTickRate:2

[Events]
//Background and Video events
0,0,"reisen.jpg",0,0
//Break Periods
2,61173,65562
//Storyboard Layer 0 (Background)
//Storyboard Layer 1 (Fail)
//Storyboard Layer 2 (Pass)
//Storyboard Layer 3 (Foreground)
//Storyboard Sound Samples
//Background Colour Transformations
3,100,163,162,255

[TimingPoints]
1297.47404504001,324.324324324324,4,2,0,60,1,0
1783,-125,4,2,0,60,0,0
3081,-100,4,2,0,60,0,0
4378,-125,4,2,0,60,0,0
6486,-100,4,1,0,60,0,0
10540,-100,4,2,0,30,0,0
11027,-133.333333333333,4,2,0,30,0,0
11351,-66.6666666666667,4,2,0,60,0,0
11675,-100,4,1,0,75,0,1
16540,-66.6666666666667,4,1,0,75,0,1
16865,-100,4,1,0,75,0,1
21405,-57.1428571428571,4,1,0,75,0,1
21729,-50,4,1,0,20,0,0
22054,-100,4,1,0,75,0,1
28540,-100,4,1,0,60,0,1
29513,-50,4,1,0,60,0,1
29838,-100,4,1,0,75,0,1
31135,-100,4,1,0,75,0,0
31783,-133.333333333333,4,1,0,20,0,0
32108,-57.1428571428571,4,1,0,60,0,0
32432,-100,4,1,0,60,0,0
35027,-100,4,1,0,60,0,0
36324,-200,4,1,0,60,0,0
36567,-200,4,1,0,10,0,0
36648,-125,4,1,0,60,0,0
36892,-125,4,1,0,10,0,0
36973,-90.9090909090909,4,1,0,60,0,0
37216,-90.9090909090909,4,1,0,10,0,0
37297,-71.4285714285714,4,1,0,60,0,0
37540,-71.4285714285714,4,1,0,10,0,0
37621,-100,4,1,0,60,0,0
41513,-100,4,1,0,60,0,0
42162,-66.6666666666667,4,1,0,60,0,0
42810,-100,4,1,0,60,0,0
43297,-133.333333333333,4,1,0,60,0,0
45081,-66.6666666666667,4,1,0,60,0,0
45405,-100,4,1,0,60,0,0
45892,-133.333333333333,4,1,0,60,0,0
47675,-66.6666666666667,4,1,0,60,0,0
48000,-100,4,1,0,60,0,0
49297,-100,4,2,0,40,0,0
50594,-100,4,1,0,60,0,0
51567,-133.333333333333,4,1,0,60,0,0
51892,-100,4,2,0,40,0,0
52540,-66.6666666666667,4,2,0,40,0,0
53189,-100,4,1,0,60,0,0
60000,-83.3333333333333,4,2,0,30,0,0
60973,-100,4,1,0,60,0,0
66162,-133.333333333333,4,2,0,40,0,0
71351,-133.333333333333,4,2,0,60,0,0
81405,-66.6666666666667,4,2,0,60,0,0
81729,-100,4,2,0,60,0,0
86594,-66.6666666666667,4,2,0,60,0,0
86919,-100,4,1,0,75,0,1
96648,-57.1428571428571,4,1,0,75,0,1
96973,-50,4,1,0,20,0,0
97297,-100,4,1,0,75,0,1
104756,-57.1428571428571,4,1,0,75,0,1
105081,-100,4,1,0,75,0,1
106378,-133.333333333333,4,1,0,75,0,0
107756,-133.333333333333,4,1,0,40,0,0

[Colours]
Combo1 : 255,94,55
Combo2 : 173,255,95
Combo3 : 255,88,100
Combo4 : 17,254,176

[HitObjects]
440,204,1297,2,0,B|436:260|393:297,1,90,4|0,1:2|0:0,0:0:0:0:
240,248,1783,1,4,1:2:0:0:
244,152,1946,2,0,P|252:137|320:96,1,72,2|0,0:2|0:0,0:0:0:0:
332,192,2270,1,2,0:0:0:0:
223,323,2432,1,0,0:0:0:0:
183,323,2513,1,0,0:0:0:0:
143,315,2594,6,0,P|104:303|64:272,1,72,4|0,1:2|0:0,0:0:0:0:
78,285,3081,1,4,1:2:0:0:
36,180,3243,1,2,0:0:0:0:
88,80,3405,1,0,0:0:0:0:
204,72,3567,2,0,L|212:120,1,45,2|0,0:0|0:0,0:0:0:0:
288,80,3729,2,0,L|277:22,1,45,0|0,0:0|0:0,0:0:0:0:
204,72,3892,6,0,L|172:184,1,90,4|0,1:2|0:0,0:0:0:0:
179,158,4378,1,4,1:2:0:0:
108,224,4540,2,0,B|96:272|120:316,1,72,8|0,2:0|0:0,0:0:0:0:
200,320,4865,1,2,0:0:0:0:
344,296,5027,1,0,0:0:0:0:
384,289,5108,1,0,0:0:0:0:
421,273,5189,6,0,P|456:253|490:215,1,72,4|0,1:2|0:0,0:0:0:0:
268,368,5675,1,4,1:2:0:0:
320,288,5838,2,0,P|340:258|354:225,1,72,2|0,0:2|0:0,0:0:0:0:
244,228,6162,2,0,P|223:257|209:290,1,72,2|0,0:2|0:0,0:0:0:0:
354,225,6486,5,0,0:0:0:0:
484,112,6648,1,4,0:0:0:0:
324,56,6810,2,0,P|280:44|224:44,1,90,8|0,0:0|0:0,0:0:0:0:
64,104,7135,2,0,L|64:224,1,90,8|0,0:0|0:0,0:0:0:0:
64,220,7378,1,0,0:0:0:0:
68,244,7459,2,0,P|108:284|168:300,1,90,8|8,0:0|0:0,0:0:0:0:
174,269,7702,1,0,0:0:0:0:
193,228,7783,6,0,P|161:184|105:158,1,90,4|0,0:0|0:0,0:0:0:0:
72,348,8108,1,8,0:0:0:0:
263,357,8270,1,8,0:0:0:0:
263,357,8351,1,0,0:0:0:0:
263,357,8432,2,0,P|313:363|376:328,1,90,4|0,0:0|0:0,0:0:0:0:
360,196,8756,1,8,0:0:0:0:
240,116,8919,1,8,0:0:0:0:
204,200,9081,6,0,L|218:243,1,45,4|0,0:0|0:0,0:0:0:0:
324,183,9243,2,0,L|310:140,1,45,8|0,0:0|0:0,0:0:0:0:
118,133,9405,2,0,L|132:176,1,45,4|0,0:0|0:0,0:0:0:0:
240,116,9567,2,0,L|226:73,1,45,8|0,0:0|0:0,0:0:0:0:
278,231,9729,5,0,0:0:0:0:
283,243,9810,1,0,0:0:0:0:
288,255,9892,1,0,0:0:0:0:
293,267,9973,1,0,0:0:0:0:
311,292,10054,5,0,0:0:0:0:
336,310,10135,1,0,0:0:0:0:
367,312,10216,1,0,0:0:0:0:
396,301,10297,1,0,0:0:0:0:
422,284,10378,5,4,0:0:0:0:
232,164,10540,1,0,0:0:0:0:
460,188,10702,1,2,0:0:0:0:
270,68,10864,1,0,0:0:0:0:
176,279,11027,6,0,B|180:336|240:348,1,101.250003862381,0|0,0:0|0:0,0:0:0:0:
248,276,11351,6,0,P|240:168|132:232,1,270.000010299683,4|6,2:0|0:0,0:0:0:0:
152,375,11838,5,0,0:0:0:0:
368,240,12000,1,2,0:0:0:0:
368,240,12081,1,0,0:0:0:0:
176,84,12243,2,0,P|220:84|270:99,1,90,2|0,0:0|0:0,0:0:0:0:
287,106,12486,1,0,0:0:0:0:
437,108,12648,1,4,2:0:0:0:
368,240,12810,1,0,0:0:0:0:
152,376,12973,6,0,P|174:333|179:285,1,90,2|0,0:0|0:0,0:0:0:0:
96,128,13297,1,2,0:0:0:0:
92,112,13378,1,0,0:0:0:0:
270,152,13540,2,0,P|272:203|287:254,1,90,2|0,0:0|2:0,0:0:0:0:
291,258,13783,1,2,2:0:0:0:
300,272,13865,1,0,0:0:0:0:
308,287,13946,1,4,2:0:0:0:
319,300,14027,1,0,0:0:0:0:
332,312,14108,1,2,0:0:0:0:
376,176,14270,5,2,0:0:0:0:
120,288,14432,2,0,P|85:252|73:207,1,90,0|2,0:0|0:0,0:0:0:0:
110,136,14675,2,0,L|46:139,1,45,0|0,0:0|0:0,0:0:0:0:
112,151,14838,2,0,P|172:112|232:56,1,135,2|0,0:0|0:0,0:0:0:0:
274,215,15243,1,4,2:0:0:0:
376,96,15405,1,0,0:0:0:0:
420,268,15567,5,0,0:0:0:0:
396,280,15648,1,0,0:0:0:0:
372,292,15729,1,4,2:0:0:0:
348,304,15810,1,0,0:0:0:0:
304,276,15892,5,0,0:0:0:0:
280,288,15973,1,0,0:0:0:0:
256,300,16054,1,4,2:0:0:0:
232,312,16135,1,0,0:0:0:0:
188,284,16216,5,0,0:0:0:0:
164,296,16297,1,0,0:0:0:0:
140,308,16378,1,4,2:0:0:0:
116,320,16459,1,0,0:0:0:0:
92,332,16540,2,0,P|76:272|108:160,1,135.000005149842,2|0,0:0|0:0,0:0:0:0:
296,73,16865,6,0,B|296:124|246:166,1,90,6|0,0:0|0:0,0:0:0:0:
92,332,17189,2,2,L|24:316,1,45,2|0,0:0|0:0,0:0:0:0:
274,333,17432,2,2,P|314:290|336:224,1,90,2|0,0:0|0:0,0:0:0:0:
340,240,17675,1,0,0:0:0:0:
364,80,17838,1,4,2:0:0:0:
192,120,18000,1,0,0:0:0:0:
305,142,18162,6,0,B|356:144|420:184,1,90,6|0,0:0|0:0,0:0:0:0:
300,276,18486,1,2,0:0:0:0:
288,260,18567,1,2,0:0:0:0:
280,240,18648,1,0,0:0:0:0:
275,220,18729,2,0,P|283:164|315:136,1,90,2|0,0:0|0:0,0:0:0:0:
464,168,18973,6,0,B|481:200|481:200|478:247,1,45,2|0,2:0|0:0,0:0:0:0:
416,276,19135,2,0,B|399:244|399:244|402:204,1,45,4|0,2:0|0:0,0:0:0:0:
484,112,19297,2,0,B|501:144|501:144|501:185,1,45,0|0,0:0|0:0,0:0:0:0:
392,168,19459,5,6,0:0:0:0:
260,44,19621,1,0,0:0:0:0:
78,66,19783,1,2,0:0:0:0:
56,78,19865,1,0,0:0:0:0:
40,92,19946,2,0,P|19:107|6:132,1,45,0|2,0:0|0:0,0:0:0:0:
63,235,20108,6,0,L|52:209,1,22.5,8|0,0:0|0:0,0:0:0:0:
151,211,20270,2,0,L|146:177,1,22.5,8|0,0:0|0:0,0:0:0:0:
256,200,20432,2,0,L|256:163,1,22.5,8|0,0:0|0:0,0:0:0:0:
361,211,20594,2,0,L|366:177,1,22.5,8|0,0:0|0:0,0:0:0:0:
449,235,20756,2,0,P|460:288|448:336,1,90,6|0,0:0|0:0,0:0:0:0:
440,336,21000,1,0,0:0:0:0:
424,344,21081,2,0,L|332:346,1,90,2|0,0:0|0:0,0:0:0:0:
192,288,21405,6,2,P|208:176|292:92,1,236.250002253056,6|0,0:0|0:0,0:0:0:0:
376,56,21729,2,0,L|428:32,7,45
384,76,22054,6,2,B|368:136|312:168,1,90,6|0,0:0|0:0,0:0:0:0:
172,220,22378,1,10,0:0:0:0:
152,228,22459,2,0,P|104:236|40:216,1,90,0|0,0:0|0:0,0:0:0:0:
0,168,22702,2,0,P|32:136|64:92,1,90,0|0,0:0|0:0,0:0:0:0:
188,16,23027,1,10,0:0:0:0:
216,164,23189,1,0,0:0:0:0:
432,204,23351,6,0,P|416:276|384:316,1,90,2|0,0:0|0:0,0:0:0:0:
232,312,23675,1,8,0:0:0:0:
232,312,23756,2,0,L|264:256,1,45,0|0,0:0|2:0,0:0:0:0:
248,104,24000,6,0,L|120:112,1,90,2|0,0:0|0:0,0:0:0:0:
248,184,24324,2,0,L|120:192,1,90,10|0,0:0|0:0,0:0:0:0:
87,332,24648,5,2,0:0:0:0:
231,313,24810,1,0,0:0:0:0:
251,321,24892,1,0,0:0:0:0:
271,329,24973,1,8,0:0:0:0:
292,336,25054,1,0,0:0:0:0:
313,343,25135,1,2,0:0:0:0:
401,179,25297,2,0,L|425:287,1,90,0|0,0:0|0:0,0:0:0:0:
379,93,25621,1,10,0:0:0:0:
379,93,25783,1,0,0:0:0:0:
120,96,25946,6,0,P|112:132|124:176,1,45,2|0,0:0|0:0,0:0:0:0:
176,208,26108,2,0,P|184:172|180:124,1,45,0|0,0:0|0:0,0:0:0:0:
83,104,26270,6,0,P|82:140|100:184,1,45,10|0,0:0|0:0,0:0:0:0:
213,197,26432,2,0,P|213:160|200:116,1,45,0|0,0:0|0:0,0:0:0:0:
380,92,26594,6,2,L|416:124,1,45,2|0,0:2|0:0,0:0:0:0:
316,156,26756,2,2,L|280:124,1,45,0|0,0:0|0:0,0:0:0:0:
388,55,26919,6,2,L|424:112,1,45,2|0,0:2|0:0,0:0:0:0:
307,192,27081,2,2,L|271:135,1,45,0|0,0:0|0:0,0:0:0:0:
400,212,27243,6,0,B|412:264|348:316,1,90,6|0,0:0|0:0,0:0:0:0:
352,300,27486,1,0,0:0:0:0:
332,304,27567,1,8,0:0:0:0:
312,308,27648,1,0,0:0:0:0:
292,312,27729,2,2,P|234:275|232:216,1,90,2|0,0:0|0:0,0:0:0:0:
288,64,28054,1,0,0:0:0:0:
304,233,28216,1,10,0:0:0:0:
156,163,28378,1,0,0:0:0:0:
288,64,28540,6,2,P|304:108|304:160,1,90,6|0,0:0|0:0,0:0:0:0:
248,248,28864,2,0,L|228:292,1,45,0|0,0:0|0:0,0:0:0:0:
112,288,29027,2,0,L|140:232,1,45,0|0,0:0|0:0,0:0:0:0:
236,140,29189,2,0,L|210:71,1,45,6|0,0:0|0:0,0:0:0:0:
96,100,29351,2,0,L|127:175,1,45,0|0,0:0|0:0,0:0:0:0:
249,249,29513,2,0,L|272:200,6,45
352,336,29838,5,6,0:0:0:0:
400,96,30000,1,0,0:0:0:0:
160,48,30162,1,6,0:0:0:0:
112,288,30324,1,0,0:0:0:0:
296,260,30486,5,0,0:0:0:0:
316,232,30567,1,0,0:0:0:0:
324,196,30648,1,0,0:0:0:0:
316,160,30729,1,0,0:0:0:0:
296,128,30810,2,0,L|312:100,1,22.5,2|2,0:0|0:0,0:0:0:0:
268,104,30892,2,0,L|284:76,1,22.5
236,92,30973,2,0,L|252:64,1,22.5
200,88,31054,2,0,L|216:60,1,22.5
164,88,31135,6,0,L|120:192,1,90,6|0,0:0|0:0,0:0:0:0:
92,68,31459,2,0,L|52:164,1,90,2|0,0:0|0:0,0:0:0:0:
56,248,31783,2,0,L|172:248,1,101.250003862381,0|0,0:0|0:0,0:0:0:0:
187,311,32108,6,0,P|227:247|188:184,1,157.500001502037,12|0,0:0|2:0,0:0:0:0:
356,88,32432,5,2,0:2:0:0:
364,104,32756,2,0,P|380:144|376:212,1,90,2|2,0:2|0:2,0:0:0:0:
376,208,33243,1,2,0:2:0:0:
136,176,33567,5,2,0:2:0:0:
256,192,33648,12,6,34702,2:0:0:0:
116,140,35027,6,0,L|116:252,1,90,4|0,0:0|0:0,0:0:0:0:
232,252,35351,1,0,0:0:0:0:
232,252,35432,1,0,0:0:0:0:
232,252,35513,2,0,L|248:300,1,45
328,182,35675,2,0,L|369:211,1,45,0|0,0:0|0:0,0:0:0:0:
328,74,35838,2,0,L|369:45,1,45,0|0,0:0|0:0,0:0:0:0:
260,124,36000,2,0,P|243:71|265:17,1,90,12|0,0:0|2:0,0:0:0:0:
116,139,36324,6,0,L|96:207,1,67.5,8|0,0:2|0:0,0:0:0:0:
148,240,36648,6,0,L|180:124,1,108,8|0,0:2|0:0,0:0:0:0:
238,130,36973,6,0,L|196:285,1,148.50000453186,8|0,0:2|0:0,0:0:0:0:
251,310,37297,6,0,L|306:100,1,188.999994232178,12|0,0:0|0:0,0:0:0:0:
444,252,37621,6,0,P|408:224|365:214,1,90,4|2,0:0|0:0,0:0:0:0:
251,310,37946,2,0,P|207:300|172:272,1,90,0|2,0:0|0:0,0:0:0:0:
116,136,38270,2,0,L|68:124,2,45,0|0|2,0:0|0:0|0:0,0:0:0:0:
140,140,38513,1,0,0:0:0:0:
160,136,38594,1,4,2:0:0:0:
240,52,38756,1,2,0:0:0:0:
280,160,38919,5,0,0:0:0:0:
304,168,39000,1,0,0:0:0:0:
328,172,39081,1,2,0:0:0:0:
352,172,39162,1,0,0:0:0:0:
372,168,39243,1,0,0:0:0:0:
392,160,39324,2,0,L|384:112,2,45,0|2|0,0:0|0:0|0:0,0:0:0:0:
475,193,39567,6,0,L|455:281,1,90,2|2,0:0|0:0,0:0:0:0:
376,254,39892,2,2,L|348:374,1,90,4|0,2:0|0:0,0:0:0:0:
225,205,40216,6,0,P|258:207|310:235,1,90,2|0,0:0|0:0,0:0:0:0:
244,316,40540,2,0,P|211:314|159:286,1,90,2|0,0:0|0:0,0:0:0:0:
107,200,40865,1,8,0:2:0:0:
103,184,40946,1,0,0:0:0:0:
99,168,41027,1,10,0:0:0:0:
99,152,41108,1,0,0:0:0:0:
100,136,41189,2,0,P|135:82|168:65,1,90,4|2,2:0|0:0,0:0:0:0:
394,129,41513,6,0,L|393:214,1,45,2|0,0:0|0:0,0:0:0:0:
313,232,41675,2,0,L|313:156,1,45,2|0,0:0|0:0,0:0:0:0:
437,164,41838,2,0,L|437:242,1,45,2|0,0:0|0:0,0:0:0:0:
270,203,42000,2,0,L|269:128,1,45,2|0,0:0|0:0,0:0:0:0:
158,63,42162,5,4,0:2:0:0:
158,63,42243,2,0,B|197:223,1,135.000005149842,0|0,0:0|0:0,0:0:0:0:
145,234,42486,2,0,L|111:93,1,135.000005149842,12|0,0:0|2:0,0:0:0:0:
284,56,42810,6,0,P|364:32|464:60,1,180,4|0,0:2|0:0,0:0:0:0:
504,156,43297,2,0,P|432:168|356:144,1,135.000005149842,4|0,0:2|0:0,0:0:0:0:
212,128,43783,1,8,0:0:0:0:
272,248,43946,1,8,0:0:0:0:
72,216,44108,5,4,0:2:0:0:
72,216,44270,2,0,P|128:244|204:248,1,135.000005149842,4|4,0:2|0:2,0:0:0:0:
332,204,44756,2,0,L|364:312,1,101.250003862381,0|0,0:0|0:0,0:0:0:0:
400,368,45081,6,2,P|438:295|409:238,1,135.000005149842,8|0,0:0|0:0,0:0:0:0:
284,79,45405,6,0,P|252:155|276:255,1,180,4|0,0:2|0:0,0:0:0:0:
156,59,45892,2,0,P|131:123|131:193,1,135.000005149842,4|0,0:2|0:0,0:0:0:0:
72,324,46378,2,0,L|156:300,1,67.5000025749208,8|8,0:0|0:0,0:0:0:0:
192,256,46702,6,0,L|173:240,1,16.8750006437302,4|0,0:2|0:0,0:0:0:0:
328,256,46865,2,0,L|352:236,1,16.8750006437302,4|0,0:2|0:0,0:0:0:0:
319,353,47027,2,0,L|344:372,1,16.8750006437302,4|0,0:2|0:0,0:0:0:0:
193,355,47189,2,0,L|177:368,1,16.8750006437302,4|0,0:2|0:0,0:0:0:0:
260,308,47351,2,0,L|260:204,1,101.250003862381,4|0,0:0|0:0,0:0:0:0:
328,256,47675,6,0,P|248:196|188:112,1,202.500007724762,12|0,0:0|0:0,0:0:0:0:
212,104,48000,6,0,P|263:79|290:18,1,90,4|0,0:0|0:0,0:0:0:0:
297,26,48243,1,0,0:0:0:0:
327,18,48324,2,0,P|352:40|374:101,1,90,0|0,0:0|0:0,0:0:0:0:
370,127,48567,1,0,0:0:0:0:
352,162,48648,1,8,0:0:0:0:
321,191,48729,1,0,0:0:0:0:
286,212,48810,1,8,0:0:0:0:
245,218,48892,1,0,0:0:0:0:
205,207,48973,2,0,P|136:188|120:248,1,135,0|0,0:0|0:0,0:0:0:0:
144,280,49297,6,0,L|107:315,1,45,2|0,0:0|0:0,0:0:0:0:
196,308,49459,2,0,L|170:362,1,45,8|0,0:1|0:0,0:0:0:0:
255,323,49621,2,0,L|248:373,1,45,8|0,0:1|0:0,0:0:0:0:
312,315,49783,2,0,L|318:362,1,45,8|0,0:1|0:0,0:0:0:0:
364,300,49946,2,0,L|391:338,6,45,8|0|8|0|8|0|0,0:1|0:0|0:1|0:0|0:1|0:0|0:0,0:0:0:0:
433,187,50594,6,0,P|396:141|345:107,1,90,4|0,0:0|0:0,0:0:0:0:
338,100,50838,1,0,0:0:0:0:
299,86,50919,1,0,0:0:0:0:
259,78,51000,1,0,0:0:0:0:
219,85,51081,1,0,0:0:0:0:
182,101,51162,1,0,0:0:0:0:
153,129,51243,2,0,L|125:270,1,135,8|0,0:0|0:0,0:0:0:0:
136,288,51567,6,0,P|180:264|252:264,1,101.250003862381,0|0,0:0|0:0,0:0:0:0:
275,255,51892,2,0,L|307:307,1,45,2|0,0:0|0:0,0:0:0:0:
314,227,52054,2,0,L|367:284,1,45,8|0,0:1|0:0,0:0:0:0:
349,192,52216,2,0,L|406:224,1,45,8|0,0:1|0:0,0:0:0:0:
373,148,52378,2,0,L|440:164,1,45,8|0,0:1|0:0,0:0:0:0:
394,107,52540,6,0,P|344:16|252:57,1,202.500007724762,2|0,0:0|0:0,0:0:0:0:
322,88,52865,2,0,P|190:52|87:73,1,202.500007724762,12|0,0:0|0:0,0:0:0:0:
87,130,53189,6,0,L|71:234,1,90,4|0,0:0|0:0,0:0:0:0:
292,152,53513,1,8,0:0:0:0:
226,200,53675,1,0,0:0:0:0:
158,248,53838,2,0,L|142:344,1,90,0|0,0:0|0:0,0:0:0:0:
328,232,54162,2,0,P|372:240|428:224,1,90,8|0,0:0|0:0,0:0:0:0:
396,84,54486,5,4,0:0:0:0:
260,32,54648,1,0,0:0:0:0:
120,72,54810,2,0,P|92:112|92:168,1,90,8|0,0:0|0:0,0:0:0:0:
96,272,55135,6,0,B|193:256|281:304,1,180,0|8,2:0|0:0,0:0:0:0:
288,310,55540,1,0,0:0:0:0:
300,321,55621,1,0,0:0:0:0:
312,332,55702,1,0,0:0:0:0:
280,130,55946,5,0,0:0:0:0:
200,228,56189,1,0,0:0:0:0:
322,195,56432,1,0,0:0:0:0:
204,150,56675,1,0,0:0:0:0:
273,256,56919,1,0,0:0:0:0:
273,256,57000,1,4,0:0:0:0:
300,328,57243,5,2,0:0:0:0:
140,107,57486,1,2,0:0:0:0:
398,192,57729,1,2,0:0:0:0:
140,275,57973,1,2,0:0:0:0:
300,56,58216,1,2,0:0:0:0:
256,192,58378,5,4,0:0:0:0:
256,192,58459,12,0,60000,0:0:0:0:
150,192,60324,6,0,L|144:256,1,53.9999983520508,0|0,0:0|0:0,0:0:0:0:
326,216,60486,2,0,L|336:148,1,53.9999983520508,0|0,0:0|0:0,0:0:0:0:
232,80,60648,2,0,L|240:276,1,161.999995056153,12|0,0:0|0:0,0:0:0:0:
240,256,60973,1,4,0:0:0:0:
388,179,66162,6,0,P|352:119|284:67,1,135.000005149842,4|0,0:0|1:0,0:0:0:0:
145,146,66810,1,0,1:0:0:0:
129,225,66973,1,0,0:0:0:0:
129,225,67054,2,0,L|190:279,1,67.5000025749208,0|0,1:0|0:0,0:0:0:0:
192,280,67297,1,0,1:0:0:0:
299,232,67459,5,0,0:0:0:0:
308,340,67621,2,0,L|340:348,1,33.7500012874604,0|0,1:0|0:0,0:0:0:0:
304,352,67783,2,0,P|268:356|216:348,1,67.5000025749208,0|0,1:0|0:0,0:0:0:0:
86,339,68108,1,0,1:0:0:0:
36,196,68270,1,0,1:0:0:0:
36,196,68351,2,0,L|8:172,1,33.7500012874604,0|0,0:0|1:0,0:0:0:0:
120,84,68594,2,0,L|160:64,1,33.7500012874604,0|0,0:0|0:0,0:0:0:0:
120,96,68756,6,0,P|168:144|240:176,1,135.000005149842,0|0,1:0|1:0,0:0:0:0:
330,55,69405,1,2,0:2:0:0:
392,121,69567,1,2,0:2:0:0:
392,121,69648,1,0,0:2:0:0:
423,37,69810,1,2,0:2:0:0:
423,37,69892,1,0,0:2:0:0:
457,196,70054,6,0,P|465:232|457:276,1,67.5000025749208,4|0,1:0|0:0,0:0:0:0:
376,357,70378,2,0,P|368:325|376:277,1,67.5000025749208,0|0,0:0|0:0,0:0:0:0:
289,193,70702,2,0,P|233:166|178:163,1,101.250003862381,0|0,0:0|0:0,0:0:0:0:
194,161,71027,1,12,0:0:0:0:
395,97,71351,6,2,P|359:77|303:85,1,67.5000025749208,4|0,0:0|0:0,0:0:0:0:
289,193,71675,1,8,0:0:0:0:
390,118,71838,2,0,P|354:98|298:106,1,67.5000025749208,0|0,0:0|0:0,0:0:0:0:
194,161,72162,1,0,0:0:0:0:
128,306,72324,1,8,0:0:0:0:
224,328,72486,1,8,0:0:0:0:
224,328,72567,1,0,0:0:0:0:
224,328,72648,6,0,L|312:328,1,67.5000025749208,4|0,0:0|0:0,0:0:0:0:
367,236,72973,1,8,0:0:0:0:
367,236,73135,1,0,0:0:0:0:
274,163,73297,2,0,L|274:247,1,67.5000025749208,4|0,0:2|0:0,0:0:0:0:
186,194,73621,2,0,L|186:127,1,67.5000025749208,4|0,0:2|0:0,0:0:0:0:
66,154,73946,6,0,L|76:229,1,67.5000025749208,0|0,0:0|0:0,0:0:0:0:
149,289,74270,1,8,0:0:0:0:
186,195,74432,2,0,L|261:239,1,67.5000025749208,0|0,0:0|0:0,0:0:0:0:
360,236,74756,1,0,0:0:0:0:
392,124,74919,1,8,0:0:0:0:
300,56,75081,1,8,0:0:0:0:
300,56,75162,1,0,0:0:0:0:
300,56,75243,6,0,P|264:47|207:54,1,67.5000025749208,4|0,0:2|0:0,0:0:0:0:
167,133,75567,2,0,P|199:141|233:140,1,67.5000025749208,4|0,0:2|0:0,0:0:0:0:
344,300,75892,5,8,0:0:0:0:
344,300,76054,1,8,0:0:0:0:
344,300,76216,1,8,0:0:0:0:
344,300,76378,1,4,0:2:0:0:
416,196,76540,6,0,L|377:41,1,135.000005149842,4|0,0:0|0:0,0:0:0:0:
328,212,77027,1,0,0:0:0:0:
328,212,77189,2,0,L|289:57,1,135.000005149842,4|0,0:0|0:0,0:0:0:0:
131,72,77675,1,0,0:0:0:0:
131,72,77756,1,0,0:0:0:0:
131,72,77838,6,0,L|125:149,1,67.5000025749208,4|0,0:0|0:0,0:0:0:0:
147,272,78162,1,0,0:0:0:0:
214,155,78324,1,0,0:0:0:0:
214,155,78405,1,0,0:0:0:0:
214,155,78486,2,0,L|248:233,1,67.5000025749208,4|0,0:0|0:0,0:0:0:0:
352,198,78810,2,0,L|314:121,1,67.5000025749208,0|0,0:0|0:0,0:0:0:0:
311,119,79054,1,0,0:0:0:0:
300,101,79135,5,4,0:0:0:0:
165,148,79297,1,0,0:0:0:0:
212,283,79459,1,0,0:0:0:0:
347,236,79621,1,0,0:0:0:0:
229,86,79783,5,0,0:0:0:0:
196,75,79865,1,0,0:0:0:0:
162,75,79946,1,0,0:0:0:0:
129,84,80027,1,0,0:0:0:0:
102,105,80108,1,0,0:0:0:0:
82,132,80189,1,0,0:0:0:0:
71,164,80270,1,0,0:0:0:0:
66,197,80351,1,0,0:0:0:0:
68,230,80432,6,0,P|108:238|162:228,1,67.5000025749208,4|0,0:0|0:0,0:0:0:0:
120,324,80756,2,0,P|153:322|186:330,1,67.5000025749208,0|0,0:0|0:0,0:0:0:0:
196,316,81000,1,0,0:0:0:0:
205,301,81081,2,0,L|214:188,1,101.250003862381,0|0,0:0|0:0,0:0:0:0:
224,188,81405,6,0,B|278:157|278:157|292:308,1,202.500007724762,12|0,0:0|0:0,0:0:0:0:
308,300,81729,5,4,0:0:0:0:
324,304,81810,1,0,0:0:0:0:
341,307,81892,1,0,0:0:0:0:
444,257,82054,1,0,0:0:0:0:
448,240,82135,2,0,L|384:140,1,90,0|0,0:0|0:0,0:0:0:0:
388,135,82378,5,4,0:0:0:0:
360,36,82540,1,0,0:0:0:0:
264,73,82702,1,0,0:0:0:0:
248,81,82783,2,0,L|190:183,1,90,0|0,0:0|0:0,0:0:0:0:
148,230,83027,6,0,L|92:218,3,45,4|0|0|0,0:0|0:0|0:0|0:0,0:0:0:0:
217,260,83351,1,0,0:0:0:0:
229,250,83432,2,0,L|324:268,1,90,0|0,0:0|0:0,0:0:0:0:
348,284,83675,1,4,0:0:0:0:
348,284,83838,5,0,0:0:0:0:
396,192,84000,1,0,0:0:0:0:
397,175,84081,2,0,L|360:55,1,90,0|0,0:0|0:0,0:0:0:0:
243,58,84324,5,0,0:0:0:0:
220,62,84405,1,0,0:0:0:0:
201,75,84486,1,0,0:0:0:0:
183,89,84567,1,0,0:0:0:0:
168,106,84648,5,0,0:0:0:0:
182,133,84729,1,0,0:0:0:0:
203,156,84810,1,0,0:0:0:0:
224,179,84892,1,0,0:0:0:0:
246,200,84973,5,0,0:0:0:0:
277,232,85054,1,0,0:0:0:0:
293,273,85135,1,0,0:0:0:0:
286,317,85216,1,0,0:0:0:0:
256,351,85297,5,0,0:0:0:0:
214,367,85378,1,0,0:0:0:0:
169,362,85459,1,0,0:0:0:0:
131,336,85540,1,0,0:0:0:0:
350,107,85783,5,8,0:0:0:0:
350,107,86108,1,8,0:0:0:0:
137,68,86270,1,8,0:0:0:0:
203,293,86594,6,0,P|252:182|264:65,1,202.500007724762,4|0,2:0|0:0,0:0:0:0:
268,71,86919,5,6,0:0:0:0:
369,204,87081,1,0,0:0:0:0:
356,222,87162,1,0,0:0:0:0:
340,238,87243,1,2,0:0:0:0:
325,255,87324,2,0,B|275:291|275:291|187:295,1,135,0|0,0:0|0:0,0:0:0:0:
62,120,87729,1,0,0:0:0:0:
180,222,87892,1,4,2:0:0:0:
210,69,88054,1,0,0:0:0:0:
376,115,88216,5,2,0:0:0:0:
376,115,88297,1,0,0:0:0:0:
376,115,88378,2,0,L|292:156,1,90,0|2,0:0|0:0,0:0:0:0:
216,144,88621,2,0,P|149:145|102:179,1,90,0|2,0:0|0:0,0:0:0:0:
112,184,88865,1,0,0:0:0:0:
88,281,89027,1,2,2:0:0:0:
118,289,89108,1,0,0:0:0:0:
148,297,89189,1,4,2:0:0:0:
178,305,89270,1,0,0:0:0:0:
208,313,89351,1,0,0:0:0:0:
377,311,89513,6,0,P|393:269|383:210,1,90,2|0,0:0|0:0,0:0:0:0:
313,58,89838,2,0,L|310:9,1,45,2|0,0:0|0:0,0:0:0:0:
238,64,90000,2,0,L|229:11,1,45,0|2,0:0|0:0,0:0:0:0:
167,81,90162,1,0,0:0:0:0:
62,147,90324,6,0,L|79:227,1,45,0|0,0:0|0:0,0:0:0:0:
152,168,90486,2,0,L|167:251,1,45,4|0,2:0|0:0,0:0:0:0:
239,179,90648,2,0,L|252:258,1,45,0|0,0:0|0:0,0:0:0:0:
260,239,90810,5,0,0:0:0:0:
276,247,90892,1,0,0:0:0:0:
293,249,90973,1,4,2:0:0:0:
310,248,91054,1,0,0:0:0:0:
338,242,91135,6,0,L|329:186,3,45,0|0|4|0,0:0|0:0|2:0|0:0,0:0:0:0:
366,244,91459,2,0,L|378:192,3,45,0|0|4|0,0:0|0:0|2:0|0:0,0:0:0:0:
390,256,91783,1,2,0:0:0:0:
413,90,91946,1,0,0:0:0:0:
224,80,92108,6,0,B|196:116|203:188,1,90,6|0,0:0|0:0,0:0:0:0:
112,121,92432,1,2,0:0:0:0:
112,121,92513,1,0,0:0:0:0:
134,212,92675,2,0,P|212:247|214:247,1,90,2|0,0:0|0:0,0:0:0:0:
311,218,92919,6,8,L|392:160,2,90,0|4|0,0:0|2:0|0:0,0:0:0:0:
188,332,93405,6,0,B|212:300|216:224,1,90,6|0,0:0|0:0,0:0:0:0:
316,116,93729,1,2,0:0:0:0:
316,116,93810,2,0,P|381:70|424:64,1,90,2|2,0:0|0:0,0:0:0:0:
389,67,94054,5,0,0:0:0:0:
436,220,94216,1,2,2:0:0:0:
408,216,94297,1,0,0:0:0:0:
380,216,94378,1,4,2:0:0:0:
352,220,94459,1,0,0:0:0:0:
328,228,94540,1,0,0:0:0:0:
304,248,94621,1,0,0:0:0:0:
292,272,94702,5,6,0:0:0:0:
392,344,94865,1,4,2:0:0:0:
126,160,95027,2,0,L|150:204,2,45,2|0|4,0:0|0:0|2:0,0:0:0:0:
107,129,95270,1,0,0:0:0:0:
93,95,95351,6,0,L|83:72,1,22.5,8|0,0:0|0:0,0:0:0:0:
204,76,95513,2,0,L|200:36,1,22.5,8|0,0:0|0:0,0:0:0:0:
308,76,95675,2,0,L|312:36,1,22.5,8|0,0:0|0:0,0:0:0:0:
419,95,95838,2,0,L|429:72,1,22.5,8|0,0:0|0:0,0:0:0:0:
433,236,96000,6,0,P|408:273|350:280,1,90,6|0,0:0|0:0,0:0:0:0:
348,282,96243,1,0,0:0:0:0:
330,276,96324,2,0,L|324:208,1,45,2|0,0:0|0:0,0:0:0:0:
224,264,96486,2,0,L|232:319,1,45,0|0,0:0|0:0,0:0:0:0:
121,283,96648,6,2,P|103:177|167:65,1,236.250002253056,6|0,0:0|0:0,0:0:0:0:
243,63,96973,2,0,L|273:18,7,45
263,73,97297,6,2,P|276:118|258:173,1,90,6|0,0:0|0:0,0:0:0:0:
244,342,97621,1,8,0:0:0:0:
244,342,97702,1,0,0:0:0:0:
244,342,97783,2,2,P|193:338|151:295,1,90,2|0,0:0|0:0,0:0:0:0:
144,128,98108,1,0,0:0:0:0:
243,63,98270,1,10,0:0:0:0:
340,131,98432,2,0,L|392:160,1,45
458,197,98594,6,0,P|420:266|377:285,1,90,2|0,0:0|0:0,0:0:0:0:
297,323,98919,1,8,0:0:0:0:
262,332,99000,1,0,0:0:0:0:
226,336,99081,1,2,0:0:0:0:
128,208,99243,6,0,B|113:173|113:173|120:145,1,45,2|0,0:0|0:0,0:0:0:0:
169,107,99405,2,0,B|184:142|184:142|180:171,1,45,0|0,0:0|0:0,0:0:0:0:
95,220,99567,6,0,B|80:185|80:185|85:159,1,45,10|0,0:0|0:0,0:0:0:0:
199,94,99729,2,0,B|214:129|214:129|209:155,1,45,0|0,0:0|0:0,0:0:0:0:
312,48,99892,6,0,P|364:72|388:120,1,90,2|0,0:0|0:0,0:0:0:0:
357,246,100216,2,0,L|324:216,1,45,8|0,0:0|0:0,0:0:0:0:
268,172,100378,1,2,0:0:0:0:
148,224,100540,1,0,0:0:0:0:
51,137,100702,2,8,P|85:106|140:93,2,90,0|10|0,0:0|0:0|0:0,0:0:0:0:
80,336,101189,5,2,0:0:0:0:
100,324,101270,1,0,0:0:0:0:
120,312,101351,1,0,0:0:0:0:
140,300,101432,1,0,0:0:0:0:
184,320,101513,5,10,0:0:0:0:
204,308,101594,1,0,0:0:0:0:
224,296,101675,2,0,L|280:260,1,45
360,376,101838,5,2,0:2:0:0:
369,354,101919,1,0,0:0:0:0:
378,333,102000,1,0,0:0:0:0:
388,312,102081,1,0,0:0:0:0:
435,302,102162,5,2,0:2:0:0:
444,280,102243,1,0,0:0:0:0:
453,259,102324,1,0,0:0:0:0:
462,237,102405,1,0,0:0:0:0:
472,216,102486,6,2,B|432:180|352:176,1,90,6|0,0:0|0:0,0:0:0:0:
80,247,102810,6,0,L|19:241,1,45,8|0,0:0|0:0,0:0:0:0:
81,262,102973,2,0,L|179:189,1,90,2|0,0:0|0:0,0:0:0:0:
197,32,103297,1,0,0:0:0:0:
274,174,103459,1,10,0:0:0:0:
374,47,103621,1,0,0:0:0:0:
274,174,103783,6,0,P|236:192|160:200,1,90,6|0,0:0|0:0,0:0:0:0:
172,208,104027,1,0,0:0:0:0:
156,216,104108,1,0,0:0:0:0:
92,304,104270,1,0,0:0:0:0:
96,320,104351,1,0,0:0:0:0:
108,332,104432,1,6,0:0:0:0:
293,350,104594,1,0,0:0:0:0:
370,212,104756,6,0,L|410:211,6,39.3750003755093,0|0|0|0|0|0|0,0:0|0:0|0:0|0:0|0:0|0:0|0:0,0:0:0:0:
359,125,105081,5,6,0:0:0:0:
189,89,105243,1,0,0:0:0:0:
153,259,105405,1,2,0:0:0:0:
323,295,105567,1,0,0:0:0:0:
242,237,105729,1,0,0:0:0:0:
225,215,105810,1,0,0:0:0:0:
202,200,105892,1,0,0:0:0:0:
178,187,105973,1,0,0:0:0:0:
157,178,106054,2,0,L|174:149,7,22.5,0|0|0|0|0|0|0|0,0:0|0:0|0:0|0:0|0:0|0:0|0:0|0:0,0:0:0:0:
333,78,106702,6,2,P|389:161|318:313,1,270.000010299683,6|12,0:0|0:0,0:0:0:0:
256,192,107675,1,0,0:0:0:0:
256,192,107756,12,6,110270,2:0:0:0:
