osu file format v12

[General]
AudioFilename: TRIGGERHAPPY.mp3
AudioLeadIn: 1500
PreviewTime: 22054
Countdown: 0
SampleSet: Soft
StackLeniency: 0.7
Mode: 0
LetterboxInBreaks: 0
WidescreenStoryboard: 1

[Editor]
DistanceSpacing: 0.8
BeatDivisor: 4
GridSize: 4

[Metadata]
Title:TRIGGER*HAPPY
TitleUnicode:TRIGGER★HAPPY
Artist:P*Light
ArtistUnicode:P*Light
Creator:Kyubey
Version:EXHAUST
Source:SOUND VOLTEX BOOTH
Tags:sdvx beatmania bemani happy hardcore reflec beat ryuu aka reiji rj reiji-rj
BeatmapID:338593
BeatmapSetID:131361

[Difficulty]
HPDrainRate:7
CircleSize:4
OverallDifficulty:7
ApproachRate:9
SliderMultiplier:1.6
SliderTickRate:2

[Events]
//Background and Video events
0,0,"reisen.jpg",0,0
//Break Periods
2,61172,70751
//Storyboard Layer 0 (Background)
//Storyboard Layer 1 (Fail)
//Storyboard Layer 2 (Pass)
//Storyboard Layer 3 (Foreground)
//Storyboard Sound Samples
//Background Colour Transformations
3,100,163,162,255

[TimingPoints]
1297.47404504001,324.324324324324,4,2,0,60,1,0
1946,-133.333333333333,4,2,0,60,0,0
2432,-100,4,2,0,60,0,0
4540,-133.333333333333,4,2,0,60,0,0
5027,-100,4,2,0,60,0,0
6486,-100,4,1,0,60,0,0
10459,-100,4,2,0,30,0,0
11027,-133.333333333333,4,2,0,30,0,0
11351,-66.6666666666667,4,2,0,60,0,0
11675,-100,4,1,0,75,0,1
21405,-66.6666666666667,4,1,0,75,0,1
21729,-50,4,1,0,20,0,0
22054,-100,4,1,0,75,0,1
31135,-100,4,1,0,60,0,0
35027,-100,4,1,0,60,0,0
36324,-200,4,1,0,60,0,0
36567,-200,4,1,0,10,0,0
36648,-133.333333333333,4,1,0,60,0,0
36892,-133.333333333333,4,1,0,10,0,0
36973,-100,4,1,0,60,0,0
37216,-100,4,1,0,10,0,0
37297,-66.6666666666667,4,1,0,60,0,0
37621,-100,4,1,0,60,0,0
41189,-100,4,1,0,60,0,0
42162,-66.6666666666667,4,1,0,60,0,0
42810,-133.333333333333,4,1,0,60,0,0
47675,-100,4,1,0,60,0,0
49297,-66.6666666666667,4,2,0,40,0,0
50594,-100,4,1,0,60,0,0
51892,-100,4,2,0,40,0,0
53189,-100,4,1,0,60,0,0
55946,-100,4,1,0,60,0,0
60000,-100,4,2,0,30,0,0
60973,-100,4,1,0,60,0,0
71351,-133.333333333333,4,2,0,60,0,0
80432,-100,4,2,0,60,0,0
80513,-100,4,2,0,20,0,0
81405,-66.6666666666667,4,2,0,60,0,0
81729,-100,4,2,0,60,0,0
86594,-66.6666666666667,4,2,0,60,0,0
86919,-100,4,1,0,75,0,1
96648,-66.6666666666667,4,1,0,75,0,1
96973,-50,4,1,0,20,0,0
97297,-100,4,1,0,75,0,1
105081,-100,4,1,0,75,0,1
106378,-133.333333333333,4,1,0,75,0,0
107756,-133.333333333333,4,1,0,40,0,0

[Colours]
Combo1 : 255,94,55
Combo2 : 173,255,95
Combo3 : 255,88,100
Combo4 : 17,254,176

[HitObjects]
384,108,1297,2,0,P|404:148|408:200,1,80,4|0,1:2|0:0,0:0:0:0:
208,88,1783,1,4,1:2:0:0:
208,88,1946,2,0,P|192:147|213:223,1,120.000004577637,2|0,2:0|0:0,0:0:0:0:
262,354,2432,1,0,0:0:0:0:
262,354,2513,1,0,0:0:0:0:
262,354,2594,6,0,P|305:330|336:293,1,80,4|0,1:2|0:0,0:0:0:0:
500,144,3081,1,4,1:2:0:0:
350,136,3243,2,0,P|302:124|266:92,2,80,2|0|2,0:0|0:0|0:0,0:0:0:0:
374,128,3648,1,0,0:0:0:0:
394,116,3729,1,0,0:0:0:0:
414,103,3810,1,0,0:0:0:0:
436,92,3892,6,0,P|475:67|516:64,1,80,4|0,1:2|0:0,0:0:0:0:
384,336,4378,1,4,1:2:0:0:
280,348,4540,2,0,P|226:330|155:273,1,120.000004577637,8|0,2:0|0:0,0:0:0:0:
165,153,5027,1,0,0:0:0:0:
165,153,5108,1,0,0:0:0:0:
165,153,5189,6,0,L|206:229,1,80,4|0,1:2|0:0,0:0:0:0:
226,95,5513,2,0,L|267:171,1,80,0|4,0:0|1:2,0:0:0:0:
376,98,5838,6,0,P|367:57|378:5,1,80,6|0,0:2|0:0,0:0:0:0:
469,48,6162,2,0,P|478:89|467:141,1,80,8|0,0:0|0:0,0:0:0:0:
437,275,6486,5,4,0:0:0:0:
437,275,6648,1,0,0:0:0:0:
348,321,6810,2,0,P|304:322|242:294,2,80,8|0|8,0:0|0:0|0:0,0:0:0:0:
284,106,7459,5,8,0:0:0:0:
238,187,7621,1,8,0:0:0:0:
232,201,7702,1,0,0:0:0:0:
224,214,7783,2,0,L|181:288,1,80,4|0,0:0|0:0,0:0:0:0:
96,235,8108,5,8,0:0:0:0:
136,159,8270,1,8,0:0:0:0:
142,145,8351,1,0,0:0:0:0:
150,132,8432,2,0,L|193:58,1,80,4|0,0:0|0:0,0:0:0:0:
22,289,8756,6,0,P|87:329|120:336,1,80,8|0,0:0|0:0,0:0:0:0:
108,336,9000,1,0,0:0:0:0:
128,340,9081,2,0,P|156:314|189:275,1,80,4|8,0:0|0:0,0:0:0:0:
228,368,9405,2,0,P|256:342|289:303,1,80,4|8,0:0|0:0,0:0:0:0:
240,232,9729,2,0,L|208:204,3,40,0|0|0|0,0:0|0:0|0:0|0:0,0:0:0:0:
324,252,10054,2,0,L|364:264,1,40
408,196,10216,2,0,L|480:188,1,40
400,116,10378,6,0,L|433:21,1,80,4|0,0:0|0:0,0:0:0:0:
164,116,10702,2,0,L|131:21,1,80,2|0,0:0|0:0,0:0:0:0:
237,21,11027,2,0,P|284:10|342:31,1,90.0000034332277,0|0,0:0|0:0,0:0:0:0:
372,74,11351,6,0,P|300:86|172:66,1,180.000006866455,4|0,2:0|0:0,0:0:0:0:
36,132,11675,6,0,P|88:120|144:132,1,80,6|0,0:0|0:0,0:0:0:0:
28,228,12000,1,2,0:0:0:0:
28,228,12081,2,0,P|9:258|8:324,1,80,0|2,0:0|0:0,0:0:0:0:
16,332,12324,2,0,P|56:340|104:328,1,80,0|0,0:0|0:0,0:0:0:0:
162,190,12648,1,4,2:0:0:0:
162,190,12810,1,0,0:0:0:0:
94,332,12973,6,0,P|121:360|177:372,1,80,2|0,0:0|0:0,0:0:0:0:
180,260,13297,1,2,0:0:0:0:
180,260,13378,1,0,0:0:0:0:
275,323,13540,2,0,P|336:332|392:308,1,120,2|2,0:0|2:0,0:0:0:0:
404,300,13865,1,0,0:0:0:0:
418,285,13946,1,4,2:0:0:0:
428,267,14027,1,0,0:0:0:0:
434,248,14108,1,0,0:0:0:0:
336,184,14270,5,2,0:0:0:0:
472,116,14432,1,0,0:0:0:0:
344,36,14594,1,2,0:0:0:0:
340,52,14675,2,0,P|304:80|236:100,1,80,0|2,0:0|0:0,0:0:0:0:
256,96,14919,1,0,0:0:0:0:
108,64,15081,2,0,P|140:32|176:20,2,80,0|4|0,0:0|2:0|0:0,0:0:0:0:
92,200,15567,6,0,L|128:172,3,40,0|0|4|0,0:0|0:0|2:0|0:0,0:0:0:0:
152,176,15892,2,0,L|188:204,3,40,0|0|4|0,0:0|0:0|2:0|0:0,0:0:0:0:
212,208,16216,1,0,0:0:0:0:
240,212,16297,1,0,0:0:0:0:
268,208,16378,1,4,2:0:0:0:
292,196,16459,1,0,0:0:0:0:
312,176,16540,2,0,L|392:280,1,120,2|0,0:0|0:0,0:0:0:0:
397,288,16865,6,0,P|357:308|293:312,1,80,6|0,0:0|0:0,0:0:0:0:
128,320,17189,2,0,L|92:344,1,40,2|0,0:0|0:0,0:0:0:0:
220,328,17432,2,0,P|204:276|124:220,1,120,2|0,0:0|0:0,0:0:0:0:
128,320,17838,1,4,2:0:0:0:
228,184,18000,1,0,0:0:0:0:
40,80,18162,6,0,P|47:127|67:181,1,80,6|0,0:0|0:0,0:0:0:0:
228,184,18486,1,2,0:0:0:0:
228,184,18567,2,0,L|248:104,1,80,2|2,0:0|0:0,0:0:0:0:
247,106,18810,1,0,0:0:0:0:
412,60,18973,5,2,2:0:0:0:
420,80,19054,1,0,0:0:0:0:
424,100,19135,1,4,2:0:0:0:
420,120,19216,1,0,0:0:0:0:
416,140,19297,1,0,0:0:0:0:
296,296,19459,6,0,P|336:332|388:344,1,80,6|4,0:0|2:0,0:0:0:0:
408,212,19783,1,2,0:0:0:0:
408,212,19865,1,0,0:0:0:0:
280,168,20027,1,2,0:0:0:0:
280,168,20108,2,0,P|240:164|176:204,1,80,8|8,0:0|0:0,0:0:0:0:
256,256,20432,1,8,0:0:0:0:
224,68,20594,1,8,0:0:0:0:
96,234,20756,6,0,P|56:227|20:212,2,80,6|0|2,0:0|0:0|0:0,0:0:0:0:
110,55,21243,1,0,0:0:0:0:
105,309,21405,6,2,B|148:299|172:263|172:239|172:239|151:162,1,180.000006866455,6|0,0:0|2:0,0:0:0:0:
215,82,21729,2,0,L|241:35,7,40
227,94,22054,6,0,L|251:182,1,80,6|0,0:0|0:0,0:0:0:0:
368,64,22378,1,10,0:0:0:0:
368,64,22459,1,0,0:0:0:0:
368,64,22540,2,0,L|392:152,1,80,2|0,0:0|0:0,0:0:0:0:
444,284,22865,1,0,0:0:0:0:
458,207,23027,2,0,P|415:210|379:237,1,80,10|0,0:0|0:0,0:0:0:0:
73,271,23351,6,0,P|133:322|212:328,1,160,2|8,0:0|0:0,0:0:0:0:
177,217,23838,1,2,0:0:0:0:
51,69,24000,5,2,0:0:0:0:
51,69,24081,2,0,L|66:118,1,40,0|0,0:0|0:0,0:0:0:0:
173,109,24324,2,0,P|189:67|193:14,1,80,10|0,0:0|0:0,0:0:0:0:
210,27,24567,1,0,0:0:0:0:
226,28,24648,6,0,L|278:120,1,80,2|0,0:0|0:0,0:0:0:0:
336,288,24973,1,8,0:0:0:0:
336,288,25135,2,0,L|296:218,1,80,2|0,0:0|0:0,0:0:0:0:
387,53,25459,2,0,P|423:41|475:45,2,80,0|10|0,0:0|0:0|0:0,0:0:0:0:
470,121,25946,6,0,P|472:81|465:42,1,80,2|0,0:0|0:0,0:0:0:0:
388,236,26270,2,0,P|385:275|393:315,1,80,10|0,0:0|0:0,0:0:0:0:
272,280,26594,2,0,L|180:292,2,80,2|2|2,0:2|0:0|0:0,0:0:0:0:
220,188,27081,1,0,0:0:0:0:
120,360,27243,5,6,0:0:0:0:
0,292,27405,1,0,0:0:0:0:
61,168,27567,1,8,0:0:0:0:
61,168,27729,2,2,P|101:152|137:116,1,80,2|0,0:0|0:0,0:0:0:0:
223,25,28054,2,0,P|228:71|244:112,1,80,0|8,0:0|0:0,0:0:0:0:
340,48,28378,5,0,0:0:0:0:
340,48,28459,1,0,0:0:0:0:
340,48,28540,1,6,0:0:0:0:
432,168,28702,5,0,0:0:0:0:
432,168,28865,1,2,0:0:0:0:
364,304,29027,5,0,0:0:0:0:
364,304,29108,1,0,0:0:0:0:
364,304,29189,1,6,0:0:0:0:
236,348,29351,5,0,0:0:0:0:
104,312,29513,2,0,L|80:300,7,20,0|0|0|0|0|0|0|0,0:0|0:0|0:0|0:0|0:0|0:0|0:0|0:0,0:0:0:0:
140,320,29838,6,0,P|168:296|196:244,1,80,6|0,0:0|0:0,0:0:0:0:
135,169,30162,2,0,P|107:197|88:232,1,80,6|0,0:0|0:0,0:0:0:0:
191,66,30486,2,0,L|171:22,3,40,0|0|0|0,0:0|0:0|0:0|0:0,0:0:0:0:
271,96,30810,2,0,L|276:147,1,40
358,113,30973,2,0,L|375:155,1,40
444,116,31135,5,4,0:0:0:0:
232,31,32108,1,12,0:0:0:0:
128,173,32432,5,2,0:0:0:0:
243,305,32756,2,0,P|289:291|335:233,1,80,2|2,0:0|0:0,0:0:0:0:
210,129,33243,1,2,0:0:0:0:
86,254,33567,1,6,0:0:0:0:
256,192,33648,12,6,34702,2:0:0:0:
92,24,35027,6,0,L|76:120,1,80,4|0,0:0|0:0,0:0:0:0:
100,188,35351,2,0,L|136:172,2,40,0|0|0,0:0|0:0|0:0,0:0:0:0:
72,271,35675,2,0,L|32:251,2,40,0|0|0,0:0|0:0|0:0,0:0:0:0:
99,355,36000,1,12,0:0:0:0:
248,316,36324,6,0,P|280:320|320:316,1,60,8|0,0:2|0:0,0:0:0:0:
320,260,36648,6,0,P|272:264|212:256,1,90.0000034332277,8|0,0:2|0:0,0:0:0:0:
216,200,36973,6,0,P|276:204|364:196,1,120,8|0,0:2|0:0,0:0:0:0:
380,156,37297,6,0,P|280:108|156:168,1,240.000009155274,12|4,0:0|0:0,0:0:0:0:
64,252,37783,5,2,0:0:0:0:
0,92,37946,2,0,L|36:188,1,80,0|2,0:0|0:0,0:0:0:0:
64,252,38270,6,0,L|104:240,3,40,0|0|2|0,0:0|0:0|0:0|0:0,0:0:0:0:
28,276,38594,2,0,P|56:320|96:348,1,80,4|2,2:0|0:0,0:0:0:0:
244,252,38919,6,0,L|304:304,1,80,0|2,0:0|0:0,0:0:0:0:
336,156,39243,1,0,0:0:0:0:
336,156,39324,2,0,L|372:108,1,40,0|2,0:0|0:0,0:0:0:0:
271,107,39567,6,0,P|231:119|191:147,1,80,2|2,0:0|0:0,0:0:0:0:
172,284,39892,2,0,P|212:272|252:244,1,80,4|0,2:0|0:0,0:0:0:0:
244,252,40216,5,2,0:0:0:0:
271,107,40378,1,0,0:0:0:0:
412,152,40540,2,0,P|439:181|456:232,1,80,2|0,0:0|0:0,0:0:0:0:
408,292,40865,2,0,L|372:268,3,40,8|0|10|0,0:2|0:0|0:0|0:0,0:0:0:0:
360,260,41189,2,0,P|316:256|248:280,1,80,4|2,2:0|0:0,0:0:0:0:
124,312,41513,5,2,0:0:0:0:
215,211,41675,1,2,0:0:0:0:
84,192,41838,1,2,0:0:0:0:
215,211,42000,1,2,0:0:0:0:
380,160,42162,5,4,0:2:0:0:
380,160,42243,2,0,B|311:10,1,120.000004577637
383,36,42486,2,0,L|436:154,1,120.000004577637,12|0,0:0|2:0,0:0:0:0:
364,296,42810,6,0,P|416:264|460:216,1,120.000004577637,4|0,0:2|0:0,0:0:0:0:
432,145,43297,2,0,P|380:175|339:218,1,120.000004577637,4|0,0:2|0:0,0:0:0:0:
344,64,43783,2,0,L|272:84,1,60.0000022888184,8|8,0:0|0:0,0:0:0:0:
124,84,44108,5,4,0:2:0:0:
124,84,44270,2,0,P|96:136|84:200,1,120.000004577637,4|4,0:2|0:2,0:0:0:0:
82,308,44756,5,0,0:0:0:0:
211,140,45081,1,8,0:0:0:0:
344,304,45405,6,0,P|377:258|412:188,1,120.000004577637,4|0,0:2|0:0,0:0:0:0:
368,108,45892,2,0,P|334:153|300:224,1,120.000004577637,4|0,0:2|0:0,0:0:0:0:
156,336,46378,2,0,P|128:312|104:272,1,60.0000022888184,8|8,0:0|0:0,0:0:0:0:
72,152,46702,5,4,0:2:0:0:
72,152,46865,1,4,0:2:0:0:
72,152,47027,1,4,0:2:0:0:
72,152,47189,1,4,0:2:0:0:
72,152,47351,2,0,P|92:192|122:227,1,90.0000034332277,4|0,0:0|0:0,0:0:0:0:
156,336,47675,6,0,P|93:286|18:258,1,160,12|4,0:0|0:0,0:0:0:0:
184,126,48162,5,0,0:0:0:0:
184,126,48243,1,0,0:0:0:0:
184,126,48324,1,0,0:0:0:0:
256,82,48486,2,0,L|268:166,1,80,0|8,0:0|0:0,0:0:0:0:
328,46,48810,2,0,L|340:130,1,80,8|0,0:0|0:0,0:0:0:0:
288,292,49297,5,2,0:0:0:0:
288,292,49459,1,8,0:1:0:0:
288,292,49621,1,8,0:1:0:0:
288,292,49783,1,8,0:1:0:0:
288,292,49946,2,0,L|244:304,12,30.0000011444092,8|0|0|0|8|0|0|0|8|0|0|0|0,0:1|0:0|0:0|0:0|0:1|0:0|0:0|0:0|0:1|0:0|0:0|0:0|0:0,0:0:0:0:
432,288,50594,5,4,0:0:0:0:
296,168,50756,5,0,0:0:0:0:
296,168,50838,1,0,0:0:0:0:
296,168,50919,1,0,0:0:0:0:
228,120,51081,2,0,L|292:56,1,80,0|8,0:0|0:0,0:0:0:0:
216,20,51405,2,0,L|152:80,1,80,0|0,0:0|0:0,0:0:0:0:
80,204,51892,5,2,0:0:0:0:
80,204,52054,1,8,0:1:0:0:
80,204,52216,1,8,0:1:0:0:
80,204,52378,1,8,0:1:0:0:
80,204,52540,2,0,L|180:192,1,80,2|0,0:0|0:0,0:0:0:0:
188,280,52865,2,0,P|224:256|252:192,1,80,12|0,0:0|0:0,0:0:0:0:
320,72,53189,6,0,P|347:101|370:133,1,80,4|0,0:0|0:0,0:0:0:0:
331,209,53513,2,0,P|306:177|279:148,1,80,8|0,0:0|0:0,0:0:0:0:
243,225,53838,1,0,0:0:0:0:
278,317,54000,2,0,P|324:324|363:315,1,80,0|8,0:0|0:0,0:0:0:0:
408,197,54324,2,0,P|370:209|331:209,1,80,0|4,0:0|0:0,0:0:0:0:
408,197,54648,5,0,0:0:0:0:
423,90,54810,2,0,P|404:56|377:27,1,80,8|0,0:0|0:0,0:0:0:0:
363,130,55135,2,0,P|314:68|245:29,1,160,0|8,2:0|2:1,0:0:0:0:
228,27,55540,1,0,2:0:0:0:
212,27,55621,1,0,2:0:0:0:
176,328,55946,5,0,0:0:0:0:
224,256,56189,1,0,0:0:0:0:
112,216,56432,1,0,0:0:0:0:
284,164,56675,1,0,0:0:0:0:
56,116,56919,1,0,0:0:0:0:
56,116,57000,1,0,0:0:0:0:
392,288,57243,5,2,0:0:0:0:
164,240,57487,1,2,0:0:0:0:
336,188,57730,1,2,0:0:0:0:
224,148,57973,1,2,0:0:0:0:
272,76,58216,1,2,0:0:0:0:
272,76,58378,5,4,0:0:0:0:
256,192,58459,12,0,60000,0:0:0:0:
152,128,60324,6,0,L|104:112,2,40,0|0|0,0:0|0:0|0:0,0:0:0:0:
240,60,60648,2,0,B|284:124|284:124|300:224,1,160,12|4,0:0|0:0,0:0:0:0:
200,172,71351,5,4,0:0:0:0:
408,76,71675,1,8,0:0:0:0:
408,76,71838,2,0,L|420:160,1,60.0000022888184,0|0,0:0|0:0,0:0:0:0:
413,215,72162,1,0,0:0:0:0:
363,277,72324,1,8,0:0:0:0:
288,304,72486,1,8,0:0:0:0:
288,304,72567,1,0,0:0:0:0:
288,304,72648,6,0,P|236:312|168:288,1,120.000004577637,4|8,0:0|0:0,0:0:0:0:
173,291,73135,1,0,0:0:0:0:
14,159,73297,6,0,L|36:216,1,60.0000022888184,4|0,0:2|0:0,0:0:0:0:
100,168,73621,2,0,L|124:108,1,60.0000022888184,4|0,0:2|0:0,0:0:0:0:
36,216,73946,6,0,P|60:236|104:248,1,60.0000022888184,4|8,0:0|0:0,0:0:0:0:
290,182,74270,1,0,0:0:0:0:
290,182,74432,6,0,P|296:224|289:268,1,60.0000022888184,0|0,0:0|0:0,0:0:0:0:
276,336,74756,1,0,0:0:0:0:
72,328,74919,1,8,0:0:0:0:
144,288,75081,1,8,0:0:0:0:
144,288,75162,1,0,0:0:0:0:
144,288,75243,6,0,L|232:296,1,60.0000022888184,4|0,0:2|0:0,0:0:0:0:
84,244,75567,2,0,L|56:180,1,60.0000022888184,4|0,0:2|0:0,0:0:0:0:
173,181,75892,1,8,0:0:0:0:
173,181,76054,1,8,0:0:0:0:
236,105,76216,1,8,0:0:0:0:
236,105,76378,1,4,0:2:0:0:
304,32,76540,6,0,L|348:92,1,60.0000022888184,4|0,0:0|0:0,0:0:0:0:
368,300,77027,2,0,L|332:251,1,60.0000022888184,0|4,0:0|0:0,0:0:0:0:
128,112,77513,5,0,0:0:0:0:
76,216,77675,1,0,0:0:0:0:
76,216,77756,1,0,0:0:0:0:
76,216,77838,2,0,L|132:264,1,60.0000022888184,4|0,0:0|0:0,0:0:0:0:
300,236,78162,5,0,0:0:0:0:
368,300,78324,1,0,0:0:0:0:
368,300,78405,1,0,0:0:0:0:
368,300,78486,2,0,L|308:340,1,60.0000022888184,4|0,0:0|0:0,0:0:0:0:
76,216,78810,2,0,L|25:275,1,60.0000022888184
130,356,79135,5,4,0:0:0:0:
76,216,79297,1,0,0:0:0:0:
236,270,79459,1,0,0:0:0:0:
76,216,79621,1,0,0:0:0:0:
140,128,79783,5,0,0:0:0:0:
156,112,79865,1,0,0:0:0:0:
172,100,79946,1,0,0:0:0:0:
192,92,80027,1,0,0:0:0:0:
212,84,80108,2,0,L|200:40,3,30.0000011444092,0|0|0|0,0:0|0:0|0:0|0:0,0:0:0:0:
232,80,80432,6,0,P|272:71|327:81,1,80,4|0,0:0|0:0,0:0:0:0:
339,141,80756,2,0,P|300:149|260:145,1,80,0|0,0:0|0:0,0:0:0:0:
377,51,81081,2,0,P|400:100|416:180,1,120,0|0,0:0|0:0,0:0:0:0:
460,140,81405,6,0,P|424:220|320:304,1,180.000006866455,12|0,0:0|0:0,0:0:0:0:
344,292,81729,5,4,0:0:0:0:
250,317,81892,1,0,0:0:0:0:
155,303,82054,1,0,0:0:0:0:
155,303,82135,2,0,P|126:275|103:231,1,80
90,195,82378,5,4,0:0:0:0:
100,115,82540,1,0,0:0:0:0:
159,61,82702,2,0,L|137:6,1,40
238,49,82946,6,0,L|239:2,1,40,0|4,0:0|0:0,0:0:0:0:
331,68,83189,1,0,0:0:0:0:
401,132,83351,1,0,0:0:0:0:
401,132,83432,2,0,P|412:179|382:232,1,80
372,243,83675,5,4,0:0:0:0:
294,265,83838,1,0,0:0:0:0:
217,241,84000,1,0,0:0:0:0:
217,241,84081,2,0,P|203:206|213:152,1,80
238,139,84324,6,0,L|274:123,3,40,4|0|0|0,0:0|0:0|0:0|0:0,0:0:0:0:
313,113,84648,2,0,L|364:127,3,40,4|0|0|0,0:0|0:0|0:0|0:0,0:0:0:0:
380,151,84973,2,0,L|414:205,1,40,4|4,0:0|0:0,0:0:0:0:
437,209,85135,6,0,L|449:107,1,80,0|0,0:0|0:0,0:0:0:0:
363,45,85459,2,0,L|350:137,1,80,0|0,0:0|0:0,0:0:0:0:
236,12,85783,5,8,0:0:0:0:
86,89,86108,1,8,0:0:0:0:
86,89,86270,1,8,0:0:0:0:
228,183,86594,2,0,P|255:98|236:12,1,180.000006866455,4|0,2:0|0:0,0:0:0:0:
236,12,86919,5,6,0:0:0:0:
86,89,87081,1,0,0:0:0:0:
80,252,87243,1,2,0:0:0:0:
80,252,87324,1,0,0:0:0:0:
232,312,87486,2,0,P|288:280|320:224,1,120,0|0,0:0|0:0,0:0:0:0:
394,99,87892,5,4,2:0:0:0:
316,234,88054,1,0,0:0:0:0:
395,100,88216,6,0,P|413:137|419:180,1,80,2|0,0:0|0:0,0:0:0:0:
398,299,88540,1,2,0:0:0:0:
398,299,88621,1,0,0:0:0:0:
398,299,88702,2,2,P|379:337|330:359,1,80,0|0,0:0|0:0,0:0:0:0:
200,192,89027,2,0,L|159:137,2,40,2|0|4,2:0|0:0|2:0,0:0:0:0:
213,206,89270,1,0,0:0:0:0:
224,222,89351,1,0,0:0:0:0:
198,337,89513,5,2,0:0:0:0:
27,340,89675,1,0,0:0:0:0:
24,168,89838,1,2,0:0:0:0:
24,168,89919,2,0,P|44:96|68:71,1,80,0|2,0:0|0:0,0:0:0:0:
60,86,90162,1,0,0:0:0:0:
184,152,90324,2,0,P|177:194|152:228,2,80,0|4|0,0:0|2:0|0:0,0:0:0:0:
320,96,90810,6,0,L|344:56,3,40,0|0|4|0,0:0|0:0|2:0|0:0,0:0:0:0:
336,128,91135,2,0,L|296:164,3,40,0|0|4|0,0:0|0:0|2:0|0:0,0:0:0:0:
352,156,91459,1,0,0:0:0:0:
360,184,91540,1,0,0:0:0:0:
364,212,91621,1,4,2:0:0:0:
356,240,91702,1,0,0:0:0:0:
348,268,91783,2,0,B|284:252|244:272|244:272|220:228,1,120,2|0,0:0|0:0,0:0:0:0:
228,248,92108,5,6,0:0:0:0:
72,104,92270,2,0,P|40:136|8:192,1,80,0|2,0:0|0:0,0:0:0:0:
20,164,92513,1,0,0:0:0:0:
20,164,92594,2,2,L|80:232,1,80,0|0,0:0|0:0,0:0:0:0:
176,312,92919,1,0,0:0:0:0:
176,312,93081,1,4,2:0:0:0:
176,312,93243,1,0,0:0:0:0:
304,209,93405,6,0,P|291:171|288:132,1,80,6|0,0:0|0:0,0:0:0:0:
440,168,93729,1,2,0:0:0:0:
436,184,93810,2,0,P|421:231|384:268,1,80,2|2,0:0|0:0,0:0:0:0:
401,254,94054,1,0,0:0:0:0:
297,329,94216,2,0,L|328:371,2,40,2|0|4,2:0|0:0|2:0,0:0:0:0:
280,308,94459,1,0,0:0:0:0:
262,286,94540,1,0,0:0:0:0:
168,184,94702,6,0,P|168:140|188:84,1,80,6|4,0:0|2:0,0:0:0:0:
292,48,95027,1,2,0:0:0:0:
292,48,95108,1,0,0:0:0:0:
388,136,95270,1,2,0:0:0:0:
388,136,95351,2,0,P|420:144|468:184,1,80,8|8,0:0|0:0,0:0:0:0:
384,224,95675,1,8,0:0:0:0:
464,60,95838,1,8,0:0:0:0:
312,112,96000,6,0,L|243:153,1,80,6|0,0:0|0:0,0:0:0:0:
124,136,96324,2,0,L|212:80,1,80,2|0,0:0|0:0,0:0:0:0:
292,216,96648,6,0,B|248:280|248:280|120:300,1,180.000006866455,6|0,0:0|0:0,0:0:0:0:
104,296,96973,2,0,L|88:252,6,40,2|2|2|2|2|2|2,0:0|0:0|0:0|0:0|0:0|0:0|0:0,0:0:0:0:
75,328,97297,6,0,P|103:364|159:372,1,80,6|0,0:0|0:0,0:0:0:0:
248,264,97621,1,8,0:0:0:0:
248,264,97702,1,0,0:0:0:0:
248,264,97783,2,0,P|226:229|176:205,1,80,2|0,0:0|0:0,0:0:0:0:
60,168,98108,2,0,P|28:144|4:100,2,80,0|10|0,0:0|0:0|0:0,0:0:0:0:
184,60,98594,6,0,L|192:148,1,80,2|0,0:0|0:0,0:0:0:0:
319,97,98919,1,8,0:0:0:0:
184,60,99081,1,2,0:0:0:0:
96,169,99243,2,0,P|100:213|120:253,1,80,2|0,0:0|0:0,0:0:0:0:
264,340,99567,2,0,P|260:296|240:256,1,80,10|0,0:0|0:0,0:0:0:0:
319,97,99892,5,2,0:0:0:0:
376,225,100054,1,0,0:0:0:0:
242,185,100216,1,8,0:0:0:0:
242,185,100297,1,0,0:0:0:0:
242,185,100378,2,0,P|238:225|258:289,1,80,2|0,0:0|0:0,0:0:0:0:
112,308,100702,2,0,L|24:252,1,80,0|10,0:0|0:0,0:0:0:0:
44,265,101027,1,0,0:0:0:0:
88,104,101189,6,0,L|56:72,2,40,2|0|0,0:0|0:0|0:0,0:0:0:0:
208,88,101513,2,0,L|216:44,2,40,10|0|0,0:0|0:0|0:0,0:0:0:0:
296,80,101838,5,2,0:2:0:0:
440,100,102000,1,2,0:0:0:0:
296,80,102162,1,2,0:0:0:0:
340,216,102324,1,0,0:0:0:0:
480,232,102486,6,0,P|468:272|408:312,1,80,6|0,0:0|0:0,0:0:0:0:
283,343,102810,1,8,0:0:0:0:
283,343,102892,1,0,0:0:0:0:
283,343,102973,2,0,P|315:306|367:291,1,80,2|0,0:0|0:0,0:0:0:0:
188,260,103297,2,0,P|168:220|168:168,1,80
172,336,103621,5,0,0:0:0:0:
172,336,103702,1,0,0:0:0:0:
172,336,103783,1,6,0:0:0:0:
80,216,103945,5,0,0:0:0:0:
80,216,104108,1,2,0:0:0:0:
148,80,104270,5,0,0:0:0:0:
148,80,104351,1,0,0:0:0:0:
148,80,104432,1,6,0:0:0:0:
248,28,104594,5,0,0:0:0:0:
320,112,104756,2,0,L|336:96,7,20,0|0|0|0|0|0|0|0,0:0|0:0|0:0|0:0|0:0|0:0|0:0|0:0,0:0:0:0:
323,130,105081,6,0,P|310:166|273:205,1,80,2|0,0:0|0:0,0:0:0:0:
68,204,105405,2,0,P|80:167|117:128,1,80,2|0,0:0|0:0,0:0:0:0:
284,198,105729,1,0,0:0:0:0:
272,212,105810,1,0,0:0:0:0:
256,224,105892,1,0,0:0:0:0:
240,236,105973,1,0,0:0:0:0:
224,248,106054,2,0,L|200:264,7,20
246,53,106702,6,2,P|342:57|398:181,1,240.000009155274,6|12,0:0|0:0,0:0:0:0:
256,192,107675,1,0,0:0:0:0:
256,192,107756,12,6,110270,2:0:0:0:
