osu file format v12

[General]
AudioFilename: TRIGGER HAPPY.mp3
AudioLeadIn: 0
PreviewTime: 86822
Countdown: 0
SampleSet: Normal
StackLeniency: 0.7
Mode: 3
LetterboxInBreaks: 0
SpecialStyle: 0
WidescreenStoryboard: 1

[Editor]
DistanceSpacing: 0.7
BeatDivisor: 4
GridSize: 8

[Metadata]
Title:TRIGGER*HAPPY
TitleUnicode:TRIGGER★HAPPY
Artist:P*Light
ArtistUnicode:P*Light
Creator:Kuo Kyoka
Version:7K INFINITE Lv.26
Source:SOUND VOLTEX BOOTH
Tags:SDVX Spy KONAMI BEMANI infinite infection REFLEC BEAT colette -Spring- RB KAC2012 happy hardcore jubeat BS NOV ADV EXH INF
BeatmapID:320237
BeatmapSetID:125856

[Difficulty]
HPDrainRate:8
CircleSize:7
OverallDifficulty:8
ApproachRate:10
SliderMultiplier:1.89999990463257
SliderTickRate:1

[Events]
//Background and Video events
0,0,"KK TRIGGER HAPPY BG.png",0,0
//Break Periods
//Storyboard Layer 0 (Background)
//Storyboard Layer 1 (Fail)
//Storyboard Layer 2 (Pass)
//Storyboard Layer 3 (Foreground)
//Storyboard Sound Samples
//Background Colour Transformations
3,100,163,162,255

[TimingPoints]
1525,324.324324324324,4,1,1,45,1,0
10606,-250,4,1,1,45,0,0
11579,-133.333333333333,4,1,1,45,0,0
11903,-100,4,1,1,45,0,1
20335,-66.6666666666667,4,1,1,45,0,1
20416,-200,4,1,1,45,0,1
20497,-66.6666666666667,4,1,1,45,0,1
20579,-200,4,1,1,45,0,1
20660,-66.6666666666667,4,1,1,45,0,1
20741,-200,4,1,1,45,0,1
20822,-66.6666666666667,4,1,1,45,0,1
20903,-200,4,1,1,45,0,1
20984,-100,4,1,1,45,0,1
21957,-100,4,1,1,30,0,0
22281,-100,4,1,1,45,0,1
26822,-66.6666666666667,4,1,1,45,0,1
26903,-200,4,1,1,45,0,1
26984,-66.6666666666667,4,1,1,45,0,1
27065,-200,4,1,1,45,0,1
27146,-66.6666666666667,4,1,1,45,0,1
27227,-200,4,1,1,45,0,1
27308,-66.6666666666667,4,1,1,45,0,1
27389,-200,4,1,1,45,0,1
27470,-100,4,1,1,45,0,1
31362,-100,4,1,1,45,0,0
32335,-80,4,1,1,45,0,0
32660,-100,4,1,1,45,0,0
36552,-111.111111111111,4,1,1,45,0,0
36876,-125,4,1,1,45,0,0
37200,-142.857142857143,4,1,1,45,0,0
37524,-125,4,1,1,45,0,0
37687,-111.111111111111,4,1,1,45,0,0
37849,-100,4,1,1,45,0,0
44335,-66.6666666666667,4,1,1,45,0,0
44416,-200,4,1,1,45,0,0
44497,-66.6666666666667,4,1,1,45,0,0
44579,-200,4,1,1,45,0,0
44660,-100,4,1,1,45,0,0
46930,-66.6666666666667,4,1,1,45,0,0
47011,-200,4,1,1,45,0,0
47092,-66.6666666666667,4,1,1,45,0,0
47173,-200,4,1,1,45,0,0
47254,-66.6666666666667,4,1,1,45,0,0
47335,-200,4,1,1,45,0,0
47416,-66.6666666666667,4,1,1,45,0,0
47497,-200,4,1,1,45,0,0
47579,-66.6666666666667,4,1,1,45,0,0
47660,-200,4,1,1,45,0,0
47903,-100,4,1,1,45,0,0
56173,-66.6666666666667,4,1,1,45,0,0
56335,-250,4,1,1,45,0,0
56416,-66.6666666666667,4,1,1,45,0,0
56579,-250,4,1,1,45,0,0
56660,-66.6666666666667,4,1,1,45,0,0
56822,-250,4,1,1,45,0,0
56903,-66.6666666666667,4,1,1,45,0,0
57065,-250,4,1,1,45,0,0
57146,-100,4,1,1,45,0,0
57308,-200,4,1,1,45,0,0
57470,-57.1428571428571,4,1,1,45,0,0
57633,-250,4,1,1,45,0,0
57714,-57.1428571428571,4,1,1,45,0,0
57876,-250,4,1,1,45,0,0
57957,-100,4,1,1,45,0,0
58606,-133.333333333333,4,1,1,45,0,0
61200,-111.111111111111,4,2,1,45,0,0
71579,-100,4,1,1,45,0,0
76119,-66.6666666666667,4,1,1,45,0,0
76200,-200,4,1,1,45,0,0
76281,-66.6666666666667,4,1,1,45,0,0
76362,-200,4,1,1,45,0,0
76443,-66.6666666666667,4,1,1,45,0,0
76524,-200,4,1,1,45,0,0
76606,-66.6666666666667,4,1,1,45,0,0
76687,-200,4,1,1,45,0,0
76768,-100,4,1,1,45,0,0
80660,-250,4,1,1,45,0,0
81633,-133.333333333333,4,1,1,45,0,0
81957,-95.2380952380952,4,1,1,45,0,0
85849,-66.6666666666667,4,1,1,45,0,0
85930,-153.846153846154,4,1,1,45,0,0
86011,-50,4,1,1,45,0,0
86173,-200,4,1,1,45,0,0
86254,-250,4,1,1,45,0,0
86335,-132.62599469496,4,1,1,45,0,0
86416,-66.6666666666667,4,1,1,45,0,0
86497,-133.333333333333,4,1,1,45,0,0
86822,-80,4,1,1,45,0,0
87146,-100,4,1,1,45,0,1
95579,-66.6666666666667,4,1,1,45,0,1
95660,-200,4,1,1,45,0,1
95741,-66.6666666666667,4,1,1,45,0,1
95822,-200,4,1,1,45,0,1
95903,-66.6666666666667,4,1,1,45,0,1
95984,-200,4,1,1,45,0,1
96065,-66.6666666666667,4,1,1,45,0,1
96146,-200,4,1,1,45,0,1
96227,-100,4,1,1,45,0,1
97200,-100,4,1,1,45,0,0
97524,-100,4,1,1,45,0,1
102065,-66.6666666666667,4,1,1,45,0,1
102146,-200,4,1,1,45,0,1
102227,-66.6666666666667,4,1,1,45,0,1
102308,-200,4,1,1,45,0,1
102389,-66.6666666666667,4,1,1,45,0,1
102470,-200,4,1,1,45,0,1
102552,-66.6666666666667,4,1,1,45,0,1
102633,-200,4,1,1,45,0,1
102714,-100,4,1,1,45,0,1
105957,-98.0392156862745,4,1,1,45,0,1
106038,-96.1538461538461,4,1,1,45,0,1
106119,-94.3396226415094,4,1,1,45,0,1
106200,-92.5925925925926,4,1,1,45,0,1
106281,-90.9090909090909,4,1,1,45,0,1
106362,-89.2857142857143,4,1,1,45,0,1
106443,-87.719298245614,4,1,1,45,0,1
106524,-86.2068965517241,4,1,1,45,0,1
106606,-84.7457627118644,4,1,1,45,0,0
106768,-83.3333333333333,4,1,1,45,0,0
106930,-100,4,1,1,45,0,0
107903,-50,4,1,1,45,0,0
107984,-33.3333333333333,4,1,1,45,0,0
109200,-50,4,1,1,45,0,0
109849,-500,4,1,1,45,0,0
110497,-100,4,1,1,45,0,0

[Colours]
Combo1 : 255,219,144
Combo2 : 255,255,255

[HitObjects]
36,192,1525,128,0,1687:0:0:0:0:
109,192,1525,1,0,0:0:0:0:
256,192,1525,1,0,0:0:0:0:
402,192,1687,1,0,0:0:0:0:
182,192,1687,1,0,0:0:0:0:
36,192,2011,128,0,2173:0:0:0:0:
475,192,2011,1,0,0:0:0:0:
329,192,2011,1,0,0:0:0:0:
402,192,2173,1,0,0:0:0:0:
256,192,2173,1,0,0:0:0:0:
475,192,2497,1,0,0:0:0:0:
329,192,2497,1,0,0:0:0:0:
256,192,2660,1,0,0:0:0:0:
182,192,2741,1,0,0:0:0:0:
475,192,2822,128,0,2984:0:0:0:0:
402,192,2822,1,0,0:0:0:0:
256,192,2822,1,0,0:0:0:0:
36,192,2984,1,0,0:0:0:0:
109,192,2984,1,0,0:0:0:0:
182,192,3308,1,0,0:0:0:0:
36,192,3308,1,0,0:0:0:0:
475,192,3470,128,0,3633:0:0:0:0:
402,192,3470,1,0,0:0:0:0:
329,192,3470,1,0,0:0:0:0:
36,192,3633,1,0,0:0:0:0:
475,192,3795,128,0,3957:0:0:0:0:
109,192,3795,1,0,0:0:0:0:
329,192,3795,1,0,0:0:0:0:
182,192,3876,1,0,0:0:0:0:
256,192,3957,1,0,0:0:0:0:
329,192,4038,1,0,0:0:0:0:
36,192,4119,128,0,4281:0:0:0:0:
475,192,4119,1,0,0:0:0:0:
109,192,4119,1,0,0:0:0:0:
256,192,4281,1,0,0:0:0:0:
402,192,4281,1,0,0:0:0:0:
36,192,4606,128,0,4768:0:0:0:0:
475,192,4606,1,0,0:0:0:0:
182,192,4606,1,0,0:0:0:0:
329,192,4768,1,0,0:0:0:0:
256,192,4768,1,0,0:0:0:0:
475,192,4930,1,0,0:0:0:0:
402,192,5092,1,0,0:0:0:0:
109,192,5092,1,0,0:0:0:0:
329,192,5254,1,0,0:0:0:0:
182,192,5335,1,0,0:0:0:0:
475,192,5416,128,0,5579:0:0:0:0:
36,192,5416,1,0,0:0:0:0:
329,192,5579,1,0,0:0:0:0:
475,192,5741,128,0,5903:0:0:0:0:
109,192,5741,1,0,0:0:0:0:
256,192,5741,1,0,0:0:0:0:
402,192,5903,1,0,0:0:0:0:
475,192,6065,128,0,6227:0:0:0:0:
182,192,6065,1,0,0:0:0:0:
329,192,6065,1,0,0:0:0:0:
402,192,6227,128,0,6389:0:0:0:0:
109,192,6227,1,0,0:0:0:0:
36,192,6389,128,0,6552:0:0:0:0:
256,192,6389,1,0,0:0:0:0:
329,192,6389,1,0,0:0:0:0:
182,192,6470,1,0,0:0:0:0:
109,192,6552,128,0,6714:0:0:0:0:
402,192,6552,1,0,0:0:0:0:
256,192,6633,1,0,0:0:0:0:
329,192,6714,1,0,0:0:0:0:
475,192,6714,128,0,7038:0:0:0:0:
182,192,6714,1,0,0:0:0:0:
36,192,6876,1,0,0:0:0:0:
402,192,7038,128,0,7362:0:0:0:0:
329,192,7038,1,8,0:0:0:0:
256,192,7038,1,8,0:0:0:0:
182,192,7200,1,0,0:0:0:0:
329,192,7362,128,0,7687:0:0:0:0:
256,192,7362,1,0,0:0:0:0:
109,192,7362,1,0,0:0:0:0:
475,192,7524,1,0,0:0:0:0:
256,192,7687,128,0,8011:0:0:0:0:
36,192,7687,1,8,0:0:0:0:
182,192,7687,1,8,0:0:0:0:
475,192,7849,1,0,0:0:0:0:
36,192,8011,128,0,8335:0:0:0:0:
109,192,8011,1,0,0:0:0:0:
329,192,8011,1,0,0:0:0:0:
475,192,8173,1,0,0:0:0:0:
109,192,8335,128,0,8660:0:0:0:0:
182,192,8335,1,8,0:0:0:0:
329,192,8335,1,8,0:0:0:0:
475,192,8497,1,0,0:0:0:0:
182,192,8660,128,0,8984:0:0:0:0:
329,192,8660,1,0,0:0:0:0:
402,192,8660,1,0,0:0:0:0:
475,192,8822,1,0,0:0:0:0:
256,192,8984,128,0,9308:0:0:0:0:
36,192,8984,1,8,0:0:0:0:
329,192,8984,1,8,0:0:0:0:
475,192,9146,1,0,0:0:0:0:
402,192,9308,128,0,9633:0:0:0:0:
109,192,9308,128,0,9633:0:0:0:0:
182,192,9308,1,0,0:0:0:0:
36,192,9633,128,0,9957:0:0:0:0:
475,192,9633,128,0,9957:0:0:0:0:
329,192,9633,1,0,0:0:0:0:
182,192,9957,1,0,0:0:0:0:
329,192,9957,1,0,0:0:0:0:
109,192,10038,1,0,0:0:0:0:
402,192,10038,1,0,0:0:0:0:
182,192,10119,1,0,0:0:0:0:
329,192,10119,1,0,0:0:0:0:
109,192,10200,1,0,0:0:0:0:
402,192,10200,1,0,0:0:0:0:
36,192,10281,1,0,0:0:0:0:
475,192,10281,1,0,0:0:0:0:
109,192,10362,1,0,0:0:0:0:
402,192,10362,1,0,0:0:0:0:
182,192,10443,1,0,0:0:0:0:
329,192,10443,1,0,0:0:0:0:
109,192,10524,1,0,0:0:0:0:
402,192,10524,1,0,0:0:0:0:
182,192,10606,128,0,11579:0:0:0:0:
329,192,10606,128,0,11579:0:0:0:0:
109,192,11579,128,0,11903:0:0:0:0:
402,192,11579,128,0,11903:0:0:0:0:
36,192,11579,1,4,0:0:0:0:
475,192,11579,1,4,0:0:0:0:
256,192,11903,128,0,13200:0:0:0:0:
182,192,11903,1,4,2:0:0:0:
329,192,11903,1,4,2:0:0:0:
475,192,12065,1,0,0:0:0:0:
109,192,12227,1,8,0:0:0:0:
402,192,12227,1,8,0:0:0:0:
182,192,12308,1,0,0:0:0:0:
329,192,12389,1,0,0:0:0:0:
402,192,12470,1,0,0:0:0:0:
36,192,12552,1,4,0:0:0:0:
109,192,12552,1,4,0:0:0:0:
182,192,12633,1,0,0:0:0:0:
475,192,12714,1,0,0:0:0:0:
329,192,12876,128,0,13200:0:0:0:0:
182,192,12876,1,8,0:0:0:0:
36,192,12876,1,8,0:0:0:0:
109,192,13038,1,0,0:0:0:0:
402,192,13038,128,0,13200:0:0:0:0:
475,192,13200,128,0,14497:0:0:0:0:
36,192,13200,1,4,0:0:0:0:
182,192,13200,1,4,0:0:0:0:
109,192,13362,1,0,0:0:0:0:
402,192,13524,1,8,0:0:0:0:
36,192,13524,1,8,0:0:0:0:
329,192,13606,1,0,0:0:0:0:
256,192,13687,1,0,0:0:0:0:
109,192,13849,1,4,0:0:0:0:
182,192,13849,1,4,0:0:0:0:
402,192,14011,1,0,0:0:0:0:
109,192,14173,128,0,14497:0:0:0:0:
36,192,14173,1,8,0:0:0:0:
329,192,14173,1,8,0:0:0:0:
256,192,14335,128,0,14497:0:0:0:0:
402,192,14335,1,0,0:0:0:0:
36,192,14497,1,4,0:0:0:0:
329,192,14497,1,4,0:0:0:0:
182,192,14497,128,0,15795:0:0:0:0:
475,192,14660,1,0,0:0:0:0:
36,192,14822,1,8,0:0:0:0:
402,192,14822,1,8,0:0:0:0:
329,192,14903,1,0,0:0:0:0:
256,192,14984,1,0,0:0:0:0:
475,192,15146,1,4,0:0:0:0:
109,192,15146,1,4,0:0:0:0:
256,192,15308,1,0,0:0:0:0:
475,192,15470,1,8,0:0:0:0:
36,192,15470,1,8,0:0:0:0:
402,192,15470,128,0,15795:0:0:0:0:
109,192,15633,1,0,0:0:0:0:
36,192,15795,1,4,0:0:0:0:
256,192,15795,1,4,0:0:0:0:
109,192,15876,1,0,0:0:0:0:
329,192,15876,1,0,0:0:0:0:
182,192,15957,1,0,0:0:0:0:
402,192,15957,1,0,0:0:0:0:
256,192,16038,1,0,0:0:0:0:
475,192,16038,1,0,0:0:0:0:
329,192,16119,1,8,0:0:0:0:
36,192,16119,1,8,0:0:0:0:
109,192,16200,1,0,0:0:0:0:
402,192,16200,1,0,0:0:0:0:
182,192,16281,1,0,0:0:0:0:
475,192,16281,1,0,0:0:0:0:
256,192,16362,1,0,0:0:0:0:
36,192,16362,1,0,0:0:0:0:
109,192,16443,1,4,0:0:0:0:
329,192,16443,1,4,0:0:0:0:
402,192,16524,1,0,0:0:0:0:
182,192,16524,1,0,0:0:0:0:
475,192,16606,1,0,0:0:0:0:
256,192,16606,1,0,0:0:0:0:
36,192,16687,1,0,0:0:0:0:
329,192,16687,1,0,0:0:0:0:
402,192,16768,128,8,17092:0:0:0:0:
182,192,16768,128,8,17092:0:0:0:0:
109,192,16768,1,0,0:0:0:0:
475,192,17092,128,0,18389:0:0:0:0:
36,192,17092,1,4,0:0:0:0:
256,192,17092,1,4,0:0:0:0:
402,192,17254,1,0,0:0:0:0:
329,192,17416,1,8,0:0:0:0:
109,192,17416,1,8,0:0:0:0:
182,192,17497,1,0,0:0:0:0:
256,192,17579,1,0,0:0:0:0:
402,192,17741,1,4,0:0:0:0:
36,192,17741,1,4,0:0:0:0:
109,192,17822,1,0,0:0:0:0:
182,192,17903,1,0,0:0:0:0:
402,192,18065,128,0,18227:0:0:0:0:
109,192,18065,1,8,0:0:0:0:
256,192,18065,1,8,0:0:0:0:
329,192,18227,128,0,18389:0:0:0:0:
36,192,18227,1,0,0:0:0:0:
36,192,18389,128,0,19687:0:0:0:0:
256,192,18389,1,4,0:0:0:0:
182,192,18389,1,4,0:0:0:0:
109,192,18552,1,0,0:0:0:0:
475,192,18714,1,8,0:0:0:0:
256,192,18714,1,8,0:0:0:0:
402,192,18795,1,0,0:0:0:0:
329,192,18876,1,0,0:0:0:0:
109,192,19038,1,4,0:0:0:0:
182,192,19038,1,4,0:0:0:0:
402,192,19200,1,0,0:0:0:0:
109,192,19362,128,0,19524:0:0:0:0:
475,192,19362,1,8,0:0:0:0:
182,192,19362,1,8,0:0:0:0:
256,192,19524,128,0,19687:0:0:0:0:
329,192,19524,1,0,0:0:0:0:
475,192,19687,128,0,20984:0:0:0:0:
402,192,19687,1,4,0:0:0:0:
182,192,19687,1,4,0:0:0:0:
109,192,19849,1,0,0:0:0:0:
36,192,20011,1,8,0:0:0:0:
256,192,20011,1,8,0:0:0:0:
329,192,20092,1,0,0:0:0:0:
402,192,20173,1,0,0:0:0:0:
36,192,20335,128,4,20497:0:0:0:0:
329,192,20335,1,4,0:0:0:0:
109,192,20497,128,0,20660:0:0:0:0:
329,192,20497,1,0,0:0:0:0:
182,192,20660,128,8,20822:0:0:0:0:
402,192,20660,1,8,0:0:0:0:
256,192,20822,128,0,20984:0:0:0:0:
402,192,20822,1,0,0:0:0:0:
329,192,20984,128,4,21146:0:0:0:0:
109,192,20984,1,4,0:0:0:0:
36,192,21146,128,0,21308:0:0:0:0:
402,192,21146,1,0,0:0:0:0:
256,192,21308,128,8,21470:0:0:0:0:
475,192,21308,1,8,0:0:0:0:
109,192,21470,128,0,21633:0:0:0:0:
402,192,21470,1,0,0:0:0:0:
329,192,21633,1,4,0:0:0:0:
475,192,21633,128,4,21957:0:0:0:0:
402,192,21957,1,0,0:0:0:0:
36,192,21957,1,0,0:0:0:0:
109,192,21997,1,0,0:0:0:0:
182,192,22038,1,0,0:0:0:0:
256,192,22079,1,0,0:0:0:0:
329,192,22119,1,0,0:0:0:0:
402,192,22160,1,0,0:0:0:0:
475,192,22200,1,0,0:0:0:0:
256,192,22241,1,0,0:0:0:0:
36,192,22281,128,0,22443:0:0:0:0:
109,192,22281,1,4,2:0:0:0:
402,192,22281,1,4,2:0:0:0:
256,192,22443,1,0,0:0:0:0:
182,192,22606,1,8,0:0:0:0:
402,192,22606,1,8,0:0:0:0:
329,192,22687,1,0,0:0:0:0:
36,192,22768,128,0,23092:0:0:0:0:
109,192,22768,1,0,0:0:0:0:
475,192,22930,1,4,0:0:0:0:
329,192,22930,1,4,0:0:0:0:
109,192,23092,1,0,0:0:0:0:
256,192,23254,128,0,23579:0:0:0:0:
329,192,23254,1,8,0:0:0:0:
402,192,23254,1,8,0:0:0:0:
182,192,23416,128,0,23579:0:0:0:0:
475,192,23579,128,0,23903:0:0:0:0:
36,192,23579,1,4,0:0:0:0:
329,192,23579,1,4,0:0:0:0:
109,192,23741,1,0,0:0:0:0:
402,192,23903,1,8,0:0:0:0:
182,192,23903,1,8,0:0:0:0:
329,192,23984,1,0,0:0:0:0:
256,192,24065,1,0,0:0:0:0:
36,192,24227,1,4,0:0:0:0:
109,192,24227,1,4,0:0:0:0:
475,192,24227,128,0,24389:0:0:0:0:
402,192,24389,1,0,0:0:0:0:
256,192,24552,1,8,0:0:0:0:
475,192,24552,128,0,24714:0:0:0:0:
182,192,24552,1,8,0:0:0:0:
109,192,24714,1,0,0:0:0:0:
329,192,24876,128,0,25038:0:0:0:0:
256,192,24876,1,4,0:0:0:0:
36,192,24876,1,4,0:0:0:0:
109,192,25038,1,0,0:0:0:0:
475,192,25200,1,8,0:0:0:0:
402,192,25200,1,8,0:0:0:0:
182,192,25281,1,0,0:0:0:0:
329,192,25362,128,0,25687:0:0:0:0:
36,192,25362,1,0,0:0:0:0:
402,192,25524,1,4,0:0:0:0:
109,192,25524,1,4,0:0:0:0:
182,192,25687,1,0,0:0:0:0:
109,192,25849,128,0,26173:0:0:0:0:
475,192,25849,1,8,0:0:0:0:
256,192,25849,1,8,0:0:0:0:
36,192,26011,128,0,26173:0:0:0:0:
402,192,26011,1,0,0:0:0:0:
475,192,26173,128,0,26335:0:0:0:0:
329,192,26173,1,4,0:0:0:0:
182,192,26173,1,4,0:0:0:0:
256,192,26335,1,0,0:0:0:0:
475,192,26497,128,8,26660:0:0:0:0:
402,192,26497,1,8,0:0:0:0:
36,192,26660,1,0,0:0:0:0:
475,192,26822,128,4,26984:0:0:0:0:
329,192,26822,1,4,0:0:0:0:
329,192,26984,128,0,27146:0:0:0:0:
182,192,26984,1,0,0:0:0:0:
182,192,27146,128,8,27308:0:0:0:0:
36,192,27146,1,8,0:0:0:0:
36,192,27308,128,0,27470:0:0:0:0:
256,192,27308,1,0,0:0:0:0:
475,192,27470,1,4,0:0:0:0:
402,192,27470,128,0,27633:0:0:0:0:
109,192,27470,1,4,0:0:0:0:
182,192,27633,1,0,0:0:0:0:
475,192,27795,1,8,0:0:0:0:
329,192,27795,1,8,0:0:0:0:
256,192,27876,1,0,0:0:0:0:
402,192,27957,128,0,28281:0:0:0:0:
182,192,27957,1,0,0:0:0:0:
109,192,28038,1,0,0:0:0:0:
36,192,28119,1,4,0:0:0:0:
329,192,28119,1,4,0:0:0:0:
109,192,28281,1,0,0:0:0:0:
475,192,28443,128,0,28768:0:0:0:0:
256,192,28443,1,8,0:0:0:0:
182,192,28443,1,8,0:0:0:0:
36,192,28606,1,0,0:0:0:0:
109,192,28687,1,0,0:0:0:0:
329,192,28768,1,4,0:0:0:0:
256,192,28768,1,4,0:0:0:0:
182,192,28768,128,0,29416:0:0:0:0:
256,192,29092,128,0,29416:0:0:0:0:
36,192,29092,1,8,0:0:0:0:
402,192,29092,1,8,0:0:0:0:
402,192,29416,1,4,0:0:0:0:
329,192,29416,128,0,29741:0:0:0:0:
475,192,29416,128,0,30065:0:0:0:0:
109,192,29416,1,4,0:0:0:0:
36,192,29741,1,8,0:0:0:0:
182,192,29741,1,8,0:0:0:0:
329,192,30065,1,4,0:0:0:0:
109,192,30065,128,0,30227:0:0:0:0:
182,192,30065,1,4,0:0:0:0:
475,192,30227,1,0,0:0:0:0:
109,192,30389,128,0,30552:0:0:0:0:
256,192,30389,1,4,0:0:0:0:
402,192,30389,1,4,0:0:0:0:
329,192,30552,1,0,0:0:0:0:
36,192,30714,1,0,0:0:0:0:
256,192,30714,1,0,0:0:0:0:
109,192,30795,1,0,0:0:0:0:
329,192,30795,1,0,0:0:0:0:
182,192,30876,1,0,0:0:0:0:
402,192,30876,1,0,0:0:0:0:
256,192,30957,1,0,0:0:0:0:
475,192,30957,1,0,0:0:0:0:
402,192,31038,1,0,0:0:0:0:
182,192,31038,1,0,0:0:0:0:
329,192,31119,1,0,0:0:0:0:
109,192,31119,1,0,0:0:0:0:
256,192,31200,1,0,0:0:0:0:
36,192,31200,1,0,0:0:0:0:
109,192,31281,1,0,0:0:0:0:
329,192,31281,1,0,0:0:0:0:
182,192,31362,1,0,0:0:0:0:
402,192,31362,1,0,0:0:0:0:
475,192,31362,128,0,31524:0:0:0:0:
256,192,31524,1,0,0:0:0:0:
475,192,31687,128,0,31849:0:0:0:0:
402,192,31687,1,0,0:0:0:0:
36,192,31849,1,0,0:0:0:0:
475,192,32011,128,0,32335:0:0:0:0:
109,192,32011,1,0,0:0:0:0:
256,192,32011,1,0,0:0:0:0:
182,192,32335,1,4,0:0:0:0:
402,192,32335,1,4,0:0:0:0:
36,192,32660,128,0,32984:0:0:0:0:
109,192,32660,1,8,0:0:0:0:
329,192,32660,1,4,0:0:0:0:
109,192,32984,128,0,33146:0:0:0:0:
182,192,32984,128,0,33470:0:0:0:0:
256,192,32984,1,0,0:0:0:0:
475,192,32984,1,12,0:0:0:0:
402,192,33146,1,12,0:0:0:0:
329,192,33146,1,0,0:0:0:0:
256,192,33470,128,0,35254:0:0:0:0:
36,192,33470,1,4,0:0:0:0:
475,192,33470,1,0,0:0:0:0:
402,192,33795,1,0,0:0:0:0:
109,192,33795,1,4,0:0:0:0:
182,192,34930,128,0,35254:0:0:0:0:
329,192,34930,128,0,35254:0:0:0:0:
36,192,35254,1,0,0:0:0:0:
475,192,35254,1,0,0:0:0:0:
256,192,35416,1,0,0:0:0:0:
36,192,35579,1,0,0:0:0:0:
475,192,35579,1,0,0:0:0:0:
109,192,35660,1,0,0:0:0:0:
402,192,35660,1,0,0:0:0:0:
182,192,35741,1,0,0:0:0:0:
329,192,35741,1,0,0:0:0:0:
475,192,35903,1,0,0:0:0:0:
36,192,35903,1,0,0:0:0:0:
109,192,35984,1,0,0:0:0:0:
402,192,35984,1,0,0:0:0:0:
182,192,36065,1,0,0:0:0:0:
329,192,36065,1,0,0:0:0:0:
36,192,36227,1,0,0:0:0:0:
475,192,36227,1,0,0:0:0:0:
256,192,36227,128,0,36552:0:0:0:0:
36,192,36552,128,0,37524:0:0:0:0:
109,192,36552,128,0,37200:0:0:0:0:
182,192,36552,128,0,36876:0:0:0:0:
402,192,36552,1,0,0:0:0:0:
402,192,36876,1,0,0:0:0:0:
256,192,36876,1,0,0:0:0:0:
475,192,37200,1,0,0:0:0:0:
329,192,37200,1,0,0:0:0:0:
402,192,37524,1,4,0:0:0:0:
256,192,37524,1,4,0:0:0:0:
329,192,37524,128,0,37849:0:0:0:0:
109,192,37849,1,4,2:0:0:0:
36,192,37849,1,4,0:0:0:0:
182,192,37849,1,4,2:0:0:0:
475,192,38011,1,0,0:0:0:0:
402,192,38173,1,8,0:0:0:0:
182,192,38173,1,0,0:0:0:0:
329,192,38173,1,8,0:0:0:0:
36,192,38335,1,0,0:0:0:0:
475,192,38497,1,0,0:0:0:0:
109,192,38497,1,4,0:0:0:0:
256,192,38497,1,4,0:0:0:0:
402,192,38579,1,0,0:0:0:0:
329,192,38660,1,0,0:0:0:0:
256,192,38741,1,0,0:0:0:0:
109,192,38822,1,8,0:0:0:0:
182,192,38822,1,8,0:0:0:0:
36,192,38822,1,0,0:0:0:0:
475,192,38984,1,0,0:0:0:0:
36,192,39146,1,0,0:0:0:0:
329,192,39146,1,4,0:0:0:0:
402,192,39146,1,4,0:0:0:0:
109,192,39308,1,0,0:0:0:0:
475,192,39470,1,0,0:0:0:0:
329,192,39470,1,8,0:0:0:0:
182,192,39470,1,8,0:0:0:0:
402,192,39552,1,0,0:0:0:0:
329,192,39633,1,0,0:0:0:0:
182,192,39795,1,4,0:0:0:0:
36,192,39795,1,4,0:0:0:0:
475,192,39795,1,0,0:0:0:0:
109,192,39957,1,0,0:0:0:0:
475,192,40119,1,0,0:0:0:0:
256,192,40119,1,8,0:0:0:0:
329,192,40119,1,8,0:0:0:0:
402,192,40281,1,0,0:0:0:0:
36,192,40443,1,4,0:0:0:0:
256,192,40443,1,0,0:0:0:0:
109,192,40443,1,4,0:0:0:0:
475,192,40606,1,0,0:0:0:0:
402,192,40768,1,0,0:0:0:0:
109,192,40768,1,8,0:0:0:0:
256,192,40768,1,8,0:0:0:0:
182,192,40930,1,0,0:0:0:0:
475,192,41092,1,4,0:0:0:0:
329,192,41092,1,4,0:0:0:0:
36,192,41092,1,0,0:0:0:0:
109,192,41173,1,0,0:0:0:0:
182,192,41254,1,0,0:0:0:0:
256,192,41335,1,0,0:0:0:0:
475,192,41416,1,8,0:0:0:0:
329,192,41416,1,8,0:0:0:0:
36,192,41416,1,0,0:0:0:0:
256,192,41579,1,0,0:0:0:0:
36,192,41741,1,4,0:0:0:0:
182,192,41741,1,4,0:0:0:0:
402,192,41741,128,0,41903:0:0:0:0:
329,192,41903,1,0,0:0:0:0:
402,192,42065,128,0,42227:0:0:0:0:
109,192,42065,1,8,0:0:0:0:
256,192,42065,1,8,0:0:0:0:
36,192,42389,128,0,43038:0:0:0:0:
329,192,42389,1,4,0:0:0:0:
182,192,42389,1,4,0:0:0:0:
475,192,42552,1,0,0:0:0:0:
402,192,42714,128,0,43038:0:0:0:0:
329,192,42714,1,8,0:0:0:0:
109,192,42714,1,8,0:0:0:0:
256,192,43038,1,4,0:0:0:0:
329,192,43038,128,4,43362:0:0:0:0:
182,192,43038,128,0,43362:0:0:0:0:
109,192,43200,1,0,0:0:0:0:
36,192,43362,1,8,0:0:0:0:
402,192,43362,1,8,0:0:0:0:
256,192,43524,128,0,43849:0:0:0:0:
109,192,43524,128,0,43849:0:0:0:0:
475,192,43524,1,0,0:0:0:0:
402,192,43687,1,4,0:0:0:0:
182,192,43687,1,4,0:0:0:0:
329,192,43849,1,0,0:0:0:0:
36,192,44011,1,8,0:0:0:0:
475,192,44011,1,0,0:0:0:0:
182,192,44011,1,8,0:0:0:0:
109,192,44173,1,0,0:0:0:0:
329,192,44335,128,0,44660:0:0:0:0:
475,192,44335,128,0,44660:0:0:0:0:
256,192,44335,1,4,0:0:0:0:
182,192,44335,1,4,0:0:0:0:
36,192,44497,1,0,0:0:0:0:
109,192,44497,1,0,0:0:0:0:
256,192,44660,1,8,0:0:0:0:
402,192,44660,1,8,0:0:0:0:
109,192,44822,1,0,0:0:0:0:
402,192,44984,128,0,45308:0:0:0:0:
182,192,44984,1,4,0:0:0:0:
329,192,44984,1,4,0:0:0:0:
36,192,45146,1,0,0:0:0:0:
109,192,45308,128,0,45633:0:0:0:0:
256,192,45308,1,8,0:0:0:0:
182,192,45308,1,8,0:0:0:0:
475,192,45470,1,0,0:0:0:0:
329,192,45633,128,4,45957:0:0:0:0:
402,192,45633,128,0,45957:0:0:0:0:
256,192,45633,1,4,0:0:0:0:
36,192,45795,1,0,0:0:0:0:
109,192,45957,1,8,0:0:0:0:
475,192,45957,1,8,0:0:0:0:
182,192,46119,128,0,46443:0:0:0:0:
256,192,46119,128,0,46443:0:0:0:0:
36,192,46119,1,0,0:0:0:0:
109,192,46281,1,4,0:0:0:0:
475,192,46281,1,4,0:0:0:0:
402,192,46443,1,0,0:0:0:0:
109,192,46606,1,8,0:0:0:0:
329,192,46606,1,8,0:0:0:0:
475,192,46606,1,0,0:0:0:0:
256,192,46768,1,0,0:0:0:0:
36,192,46930,128,0,47579:0:0:0:0:
109,192,46930,1,6,0:0:0:0:
182,192,47092,1,6,0:0:0:0:
256,192,47254,1,6,0:0:0:0:
329,192,47416,1,6,0:0:0:0:
402,192,47579,1,4,0:0:0:0:
109,192,47579,128,0,47903:0:0:0:0:
182,192,47903,1,4,0:0:0:0:
329,192,47903,128,0,48227:0:0:0:0:
475,192,47903,1,4,0:0:0:0:
256,192,48227,1,4,0:0:0:0:
402,192,48227,1,0,0:0:0:0:
36,192,48227,1,4,0:0:0:0:
475,192,48389,1,0,0:0:0:0:
329,192,48552,1,0,0:0:0:0:
182,192,48552,1,0,0:0:0:0:
109,192,48552,1,0,0:0:0:0:
475,192,48714,1,0,0:0:0:0:
402,192,48876,1,4,0:0:0:0:
329,192,48876,1,4,0:0:0:0:
36,192,48876,1,0,0:0:0:0:
109,192,49038,1,0,0:0:0:0:
475,192,49200,1,0,0:0:0:0:
256,192,49200,1,0,0:0:0:0:
402,192,49200,1,0,0:0:0:0:
36,192,49362,1,0,0:0:0:0:
402,192,49524,128,0,49687:0:0:0:0:
109,192,49524,1,4,0:0:0:0:
182,192,49524,1,4,0:0:0:0:
475,192,49687,128,0,49849:0:0:0:0:
329,192,49687,1,0,0:0:0:0:
402,192,49849,128,0,50011:0:0:0:0:
256,192,49849,1,0,0:0:0:0:
182,192,49849,1,0,0:0:0:0:
36,192,50011,128,0,50173:0:0:0:0:
109,192,50011,1,0,0:0:0:0:
182,192,50173,128,0,50822:0:0:0:0:
329,192,50173,1,4,0:0:0:0:
256,192,50173,1,4,0:0:0:0:
475,192,50335,1,0,0:0:0:0:
402,192,50497,1,0,0:0:0:0:
109,192,50497,1,0,0:0:0:0:
329,192,50497,1,0,0:0:0:0:
475,192,50660,1,0,0:0:0:0:
256,192,50822,1,4,0:0:0:0:
36,192,50822,1,4,0:0:0:0:
329,192,50984,1,0,0:0:0:0:
475,192,51146,1,0,0:0:0:0:
402,192,51146,1,0,0:0:0:0:
182,192,51146,1,0,0:0:0:0:
36,192,51308,1,0,0:0:0:0:
329,192,51470,1,0,0:0:0:0:
182,192,51470,1,4,0:0:0:0:
109,192,51470,1,4,0:0:0:0:
256,192,51633,1,0,0:0:0:0:
475,192,51795,1,0,0:0:0:0:
402,192,51795,1,0,0:0:0:0:
36,192,51795,1,0,0:0:0:0:
256,192,51957,1,0,0:0:0:0:
109,192,52119,1,4,0:0:0:0:
329,192,52119,1,4,0:0:0:0:
36,192,52119,128,0,52281:0:0:0:0:
475,192,52281,1,0,0:0:0:0:
256,192,52281,128,0,52443:0:0:0:0:
402,192,52443,128,0,52606:0:0:0:0:
109,192,52443,1,0,0:0:0:0:
329,192,52443,1,0,0:0:0:0:
182,192,52606,128,0,52768:0:0:0:0:
475,192,52606,1,0,0:0:0:0:
256,192,52768,1,0,0:0:0:0:
36,192,52768,1,0,0:0:0:0:
475,192,52768,128,0,52930:0:0:0:0:
109,192,52930,128,0,53092:0:0:0:0:
402,192,52930,1,0,0:0:0:0:
36,192,53092,1,0,0:0:0:0:
329,192,53092,1,0,0:0:0:0:
182,192,53092,128,0,53416:0:0:0:0:
475,192,53416,128,0,53903:0:0:0:0:
329,192,53416,1,4,0:0:0:0:
256,192,53416,1,4,0:0:0:0:
402,192,53579,1,0,0:0:0:0:
256,192,53741,1,0,0:0:0:0:
36,192,53741,1,0,0:0:0:0:
182,192,53903,128,0,55849:0:0:0:0:
109,192,53903,1,0,0:0:0:0:
36,192,54065,1,0,0:0:0:0:
256,192,54065,1,0,0:0:0:0:
329,192,54227,1,0,0:0:0:0:
475,192,54389,1,0,0:0:0:0:
402,192,54389,1,0,0:0:0:0:
36,192,54552,1,0,0:0:0:0:
475,192,54714,128,0,55200:0:0:0:0:
329,192,54714,1,4,0:0:0:0:
256,192,54714,1,4,0:0:0:0:
109,192,54876,1,0,0:0:0:0:
36,192,55038,1,0,0:0:0:0:
256,192,55038,1,0,0:0:0:0:
329,192,55200,128,0,55524:0:0:0:0:
402,192,55200,1,0,0:0:0:0:
36,192,55524,128,0,55687:0:0:0:0:
109,192,55524,1,0,0:0:0:0:
475,192,55687,128,0,55849:0:0:0:0:
402,192,55849,1,0,0:0:0:0:
256,192,55849,1,0,0:0:0:0:
475,192,56173,1,0,0:0:0:0:
329,192,56173,1,0,0:0:0:0:
36,192,56173,1,0,0:0:0:0:
475,192,56416,1,0,0:0:0:0:
182,192,56416,1,0,0:0:0:0:
36,192,56416,1,0,0:0:0:0:
475,192,56660,1,0,0:0:0:0:
329,192,56660,1,0,0:0:0:0:
36,192,56660,1,0,0:0:0:0:
182,192,56903,1,0,0:0:0:0:
36,192,56903,1,0,0:0:0:0:
475,192,56903,1,0,0:0:0:0:
36,192,57146,1,0,0:0:0:0:
475,192,57146,1,0,0:0:0:0:
329,192,57146,1,0,0:0:0:0:
256,192,57227,1,0,0:0:0:0:
36,192,57470,1,0,0:0:0:0:
256,192,57470,1,0,0:0:0:0:
475,192,57470,1,0,0:0:0:0:
402,192,57714,1,0,0:0:0:0:
256,192,57714,1,0,0:0:0:0:
109,192,57714,1,0,0:0:0:0:
475,192,57957,1,0,0:0:0:0:
36,192,57957,1,0,0:0:0:0:
256,192,57957,1,0,0:0:0:0:
329,192,58038,1,0,0:0:0:0:
36,192,58119,1,0,0:0:0:0:
402,192,58200,1,0,0:0:0:0:
256,192,58200,1,0,0:0:0:0:
182,192,58200,1,0,0:0:0:0:
475,192,58281,1,0,0:0:0:0:
329,192,58362,1,0,0:0:0:0:
109,192,58443,1,0,0:0:0:0:
256,192,58443,1,0,0:0:0:0:
475,192,58443,1,0,0:0:0:0:
329,192,58524,1,0,0:0:0:0:
475,192,58606,128,0,61200:0:0:0:0:
36,192,58606,1,0,0:0:0:0:
182,192,58606,1,4,0:0:0:0:
36,192,59579,128,0,59903:0:0:0:0:
182,192,59903,128,0,60227:0:0:0:0:
402,192,60227,128,0,60389:0:0:0:0:
109,192,60389,128,0,60552:0:0:0:0:
329,192,60552,1,0,0:0:0:0:
256,192,60633,1,0,0:0:0:0:
182,192,60714,1,0,0:0:0:0:
329,192,60876,128,0,61200:0:0:0:0:
36,192,60876,1,8,1:0:0:0:
402,192,60876,1,0,0:0:0:0:
36,192,61200,1,4,2:0:0:0:
182,192,61200,1,4,2:0:0:0:
109,192,61362,1,0,0:0:0:0:
402,192,61362,1,0,0:0:0:0:
475,192,61524,1,0,0:0:0:0:
329,192,61524,1,0,0:0:0:0:
256,192,61524,1,0,0:0:0:0:
182,192,61687,1,0,0:0:0:0:
109,192,61687,1,0,0:0:0:0:
475,192,61849,1,0,0:0:0:0:
402,192,61849,1,0,0:0:0:0:
36,192,61849,1,0,0:0:0:0:
109,192,62011,1,0,0:0:0:0:
329,192,62011,1,0,0:0:0:0:
182,192,62092,1,0,0:0:0:0:
402,192,62092,1,0,0:0:0:0:
475,192,62254,1,0,0:0:0:0:
256,192,62254,1,0,0:0:0:0:
402,192,62335,1,0,0:0:0:0:
182,192,62335,1,0,0:0:0:0:
36,192,62497,1,0,0:0:0:0:
256,192,62497,1,0,0:0:0:0:
329,192,62497,1,0,0:0:0:0:
402,192,62660,1,0,0:0:0:0:
109,192,62660,1,0,0:0:0:0:
329,192,62741,1,0,0:0:0:0:
182,192,62741,1,0,0:0:0:0:
402,192,62822,1,0,0:0:0:0:
109,192,62822,1,0,0:0:0:0:
36,192,62984,1,0,0:0:0:0:
475,192,62984,1,0,0:0:0:0:
402,192,63146,1,0,0:0:0:0:
329,192,63146,1,0,0:0:0:0:
256,192,63146,1,0,0:0:0:0:
475,192,63308,1,0,0:0:0:0:
182,192,63308,1,0,0:0:0:0:
402,192,63389,1,0,0:0:0:0:
109,192,63389,1,0,0:0:0:0:
36,192,63470,1,0,0:0:0:0:
329,192,63470,1,0,0:0:0:0:
182,192,63633,1,0,0:0:0:0:
402,192,63633,1,0,0:0:0:0:
329,192,63714,1,0,0:0:0:0:
109,192,63714,1,0,0:0:0:0:
475,192,63795,1,0,0:0:0:0:
36,192,63795,1,0,0:0:0:0:
256,192,63795,1,0,0:0:0:0:
402,192,63957,1,0,0:0:0:0:
36,192,64119,1,0,0:0:0:0:
109,192,64119,1,0,0:0:0:0:
256,192,64119,1,0,0:0:0:0:
329,192,64281,1,0,0:0:0:0:
475,192,64443,1,0,0:0:0:0:
402,192,64443,1,0,0:0:0:0:
182,192,64443,1,0,0:0:0:0:
256,192,64606,1,0,0:0:0:0:
109,192,64606,1,0,0:0:0:0:
329,192,64687,1,0,0:0:0:0:
182,192,64687,1,0,0:0:0:0:
36,192,64849,1,0,0:0:0:0:
182,192,64849,1,0,0:0:0:0:
109,192,64930,1,0,0:0:0:0:
256,192,64930,1,0,0:0:0:0:
329,192,65092,1,0,0:0:0:0:
475,192,65092,1,0,0:0:0:0:
402,192,65092,128,0,65254:0:0:0:0:
256,192,65254,128,0,65416:0:0:0:0:
36,192,65254,1,0,0:0:0:0:
109,192,65416,128,0,65579:0:0:0:0:
182,192,65416,1,0,0:0:0:0:
402,192,65579,128,0,65741:0:0:0:0:
329,192,65579,1,0,0:0:0:0:
256,192,65741,128,0,65903:0:0:0:0:
475,192,65741,1,0,0:0:0:0:
109,192,65903,128,0,66065:0:0:0:0:
36,192,65903,1,0,0:0:0:0:
182,192,65984,1,0,0:0:0:0:
402,192,66065,128,0,66389:0:0:0:0:
329,192,66065,1,0,0:0:0:0:
182,192,66227,1,0,0:0:0:0:
256,192,66308,1,0,0:0:0:0:
475,192,66389,128,0,67687:0:0:0:0:
329,192,66389,1,0,0:0:0:0:
36,192,66389,1,0,0:0:0:0:
109,192,66552,1,0,0:0:0:0:
402,192,66714,1,0,0:0:0:0:
256,192,66714,1,0,0:0:0:0:
36,192,66714,1,0,0:0:0:0:
109,192,66876,1,0,0:0:0:0:
329,192,67038,1,0,0:0:0:0:
256,192,67038,1,0,0:0:0:0:
182,192,67038,1,0,0:0:0:0:
402,192,67200,1,0,0:0:0:0:
36,192,67200,1,0,0:0:0:0:
329,192,67281,1,0,0:0:0:0:
109,192,67281,1,0,0:0:0:0:
256,192,67443,1,0,0:0:0:0:
109,192,67443,1,0,0:0:0:0:
182,192,67524,1,0,0:0:0:0:
36,192,67524,1,0,0:0:0:0:
256,192,67687,1,0,0:0:0:0:
402,192,67687,1,0,0:0:0:0:
109,192,67849,1,0,0:0:0:0:
402,192,67849,1,0,0:0:0:0:
182,192,67930,1,0,0:0:0:0:
329,192,67930,1,0,0:0:0:0:
109,192,68011,1,0,0:0:0:0:
402,192,68011,1,0,0:0:0:0:
182,192,68173,1,0,0:0:0:0:
329,192,68173,1,0,0:0:0:0:
475,192,68335,1,0,0:0:0:0:
402,192,68335,1,0,0:0:0:0:
36,192,68335,1,0,0:0:0:0:
329,192,68497,1,0,0:0:0:0:
109,192,68497,1,0,0:0:0:0:
256,192,68579,1,0,0:0:0:0:
36,192,68579,1,0,0:0:0:0:
329,192,68660,1,0,0:0:0:0:
109,192,68660,1,0,0:0:0:0:
182,192,68822,1,0,0:0:0:0:
256,192,68822,1,0,0:0:0:0:
402,192,68903,1,0,0:0:0:0:
109,192,68984,128,0,70281:0:0:0:0:
329,192,68984,1,0,0:0:0:0:
36,192,68984,1,0,0:0:0:0:
402,192,69146,1,0,0:0:0:0:
182,192,69308,1,0,0:0:0:0:
256,192,69308,1,0,0:0:0:0:
475,192,69308,1,0,0:0:0:0:
329,192,69470,1,0,0:0:0:0:
329,192,69633,1,0,0:0:0:0:
475,192,69633,1,0,0:0:0:0:
36,192,69633,1,0,0:0:0:0:
402,192,69795,1,0,0:0:0:0:
256,192,69795,1,0,0:0:0:0:
329,192,69876,1,0,0:0:0:0:
475,192,69876,1,0,0:0:0:0:
256,192,70038,1,0,0:0:0:0:
402,192,70038,1,0,0:0:0:0:
329,192,70119,1,0,0:0:0:0:
182,192,70119,1,0,0:0:0:0:
329,192,70281,128,0,70443:0:0:0:0:
256,192,70281,1,0,0:0:0:0:
475,192,70281,1,0,0:0:0:0:
36,192,70281,1,0,0:0:0:0:
182,192,70443,1,0,0:0:0:0:
329,192,70606,128,0,70768:0:0:0:0:
475,192,70606,1,0,0:0:0:0:
109,192,70606,1,0,0:0:0:0:
36,192,70768,1,0,0:0:0:0:
329,192,70930,128,0,71254:0:0:0:0:
256,192,70930,1,0,0:0:0:0:
402,192,70930,1,0,0:0:0:0:
109,192,71092,1,0,0:0:0:0:
182,192,71173,1,0,0:0:0:0:
256,192,71254,1,0,0:0:0:0:
402,192,71254,1,4,0:0:0:0:
475,192,71254,1,4,0:0:0:0:
36,192,71254,128,0,71579:0:0:0:0:
256,192,71579,128,0,71741:0:0:0:0:
182,192,71579,1,0,0:0:0:0:
329,192,71579,1,0,0:0:0:0:
475,192,71741,1,0,0:0:0:0:
109,192,71903,1,0,0:0:0:0:
402,192,72065,1,0,0:0:0:0:
256,192,72065,128,0,72389:0:0:0:0:
36,192,72227,1,0,0:0:0:0:
329,192,72227,1,0,0:0:0:0:
475,192,72389,1,0,0:0:0:0:
182,192,72552,1,0,0:0:0:0:
109,192,72552,1,0,0:0:0:0:
402,192,72714,1,0,0:0:0:0:
36,192,72876,128,0,73200:0:0:0:0:
182,192,72876,1,0,0:0:0:0:
475,192,72876,1,0,0:0:0:0:
329,192,73038,1,0,0:0:0:0:
109,192,73200,1,0,0:0:0:0:
256,192,73200,1,0,0:0:0:0:
475,192,73362,1,0,0:0:0:0:
36,192,73524,128,0,73687:0:0:0:0:
256,192,73524,1,0,0:0:0:0:
182,192,73524,1,0,0:0:0:0:
402,192,73687,1,0,0:0:0:0:
36,192,73849,128,0,74011:0:0:0:0:
109,192,73849,1,0,0:0:0:0:
475,192,73849,1,0,0:0:0:0:
329,192,74011,1,0,0:0:0:0:
475,192,74173,128,0,74335:0:0:0:0:
109,192,74173,1,0,0:0:0:0:
402,192,74173,1,0,0:0:0:0:
256,192,74335,1,0,0:0:0:0:
182,192,74497,1,0,0:0:0:0:
402,192,74497,1,0,0:0:0:0:
475,192,74660,128,0,74984:0:0:0:0:
329,192,74660,1,0,0:0:0:0:
36,192,74822,1,0,0:0:0:0:
182,192,74822,1,0,0:0:0:0:
402,192,74984,1,0,0:0:0:0:
109,192,75146,1,0,0:0:0:0:
256,192,75308,1,0,0:0:0:0:
36,192,75470,128,0,75633:0:0:0:0:
182,192,75470,1,0,0:0:0:0:
329,192,75470,1,0,0:0:0:0:
109,192,75633,1,0,0:0:0:0:
36,192,75795,128,0,75957:0:0:0:0:
475,192,75795,1,0,0:0:0:0:
256,192,75957,1,0,0:0:0:0:
36,192,76119,128,0,76768:0:0:0:0:
402,192,76119,1,0,0:0:0:0:
329,192,76281,1,0,0:0:0:0:
256,192,76443,1,0,0:0:0:0:
182,192,76606,1,0,0:0:0:0:
475,192,76768,128,0,77416:0:0:0:0:
109,192,76768,1,4,0:0:0:0:
256,192,76768,1,4,0:0:0:0:
402,192,76930,1,0,0:0:0:0:
329,192,77092,1,0,0:0:0:0:
109,192,77092,1,0,0:0:0:0:
182,192,77254,1,0,0:0:0:0:
109,192,77416,128,0,78065:0:0:0:0:
329,192,77416,1,4,0:0:0:0:
36,192,77416,1,4,0:0:0:0:
182,192,77579,1,0,0:0:0:0:
475,192,77741,1,0,0:0:0:0:
256,192,77741,1,0,0:0:0:0:
36,192,77903,1,0,0:0:0:0:
475,192,78065,1,4,0:0:0:0:
402,192,78065,128,0,78714:0:0:0:0:
256,192,78065,1,4,0:0:0:0:
182,192,78227,1,0,0:0:0:0:
475,192,78389,1,0,0:0:0:0:
256,192,78389,1,0,0:0:0:0:
36,192,78552,1,0,0:0:0:0:
475,192,78714,1,4,0:0:0:0:
182,192,78714,128,0,79362:0:0:0:0:
329,192,78714,1,4,0:0:0:0:
256,192,78876,1,0,0:0:0:0:
329,192,79038,1,0,0:0:0:0:
109,192,79038,1,0,0:0:0:0:
475,192,79200,1,0,0:0:0:0:
36,192,79362,128,0,79687:0:0:0:0:
256,192,79362,1,4,0:0:0:0:
329,192,79362,1,4,0:0:0:0:
109,192,79524,1,0,0:0:0:0:
475,192,79687,128,0,80011:0:0:0:0:
182,192,79687,1,4,0:0:0:0:
256,192,79687,1,4,0:0:0:0:
402,192,79849,1,0,0:0:0:0:
329,192,80011,1,0,0:0:0:0:
182,192,80011,1,0,0:0:0:0:
402,192,80092,1,0,0:0:0:0:
109,192,80092,1,0,0:0:0:0:
475,192,80173,1,0,0:0:0:0:
36,192,80173,1,0,0:0:0:0:
402,192,80254,1,0,0:0:0:0:
109,192,80254,1,0,0:0:0:0:
329,192,80335,1,0,0:0:0:0:
182,192,80335,1,0,0:0:0:0:
402,192,80416,1,0,0:0:0:0:
109,192,80416,1,0,0:0:0:0:
475,192,80497,1,0,0:0:0:0:
36,192,80497,1,0,0:0:0:0:
402,192,80579,1,0,0:0:0:0:
109,192,80579,1,0,0:0:0:0:
182,192,80660,128,0,81633:0:0:0:0:
329,192,80660,128,0,81633:0:0:0:0:
256,192,81633,128,0,81957:0:0:0:0:
36,192,81633,1,4,0:0:0:0:
475,192,81633,1,4,0:0:0:0:
109,192,81957,1,4,0:0:0:0:
475,192,81957,1,0,0:0:0:0:
402,192,81957,1,4,0:0:0:0:
182,192,81957,1,0,0:0:0:0:
329,192,81957,1,0,0:0:0:0:
36,192,82119,1,0,0:0:0:0:
256,192,82281,1,0,0:0:0:0:
329,192,82281,1,0,0:0:0:0:
475,192,82362,1,0,0:0:0:0:
182,192,82443,1,0,0:0:0:0:
36,192,82606,1,0,0:0:0:0:
109,192,82606,1,0,0:0:0:0:
256,192,82606,1,0,0:0:0:0:
329,192,82606,1,4,0:0:0:0:
402,192,82606,1,4,0:0:0:0:
182,192,82768,1,0,0:0:0:0:
475,192,82930,1,0,0:0:0:0:
256,192,82930,1,0,0:0:0:0:
402,192,83011,1,0,0:0:0:0:
329,192,83092,1,0,0:0:0:0:
182,192,83254,1,4,0:0:0:0:
256,192,83254,1,4,0:0:0:0:
475,192,83254,1,0,0:0:0:0:
109,192,83254,1,0,0:0:0:0:
36,192,83254,1,0,0:0:0:0:
402,192,83416,1,0,0:0:0:0:
109,192,83579,1,0,0:0:0:0:
329,192,83579,1,0,0:0:0:0:
36,192,83660,1,0,0:0:0:0:
256,192,83741,1,0,0:0:0:0:
402,192,83903,1,0,0:0:0:0:
329,192,83903,1,0,0:0:0:0:
182,192,83903,1,4,0:0:0:0:
475,192,83903,1,0,0:0:0:0:
109,192,83903,1,4,0:0:0:0:
256,192,84065,1,0,0:0:0:0:
475,192,84227,1,0,0:0:0:0:
109,192,84227,1,0,0:0:0:0:
402,192,84308,1,0,0:0:0:0:
329,192,84389,1,0,0:0:0:0:
36,192,84552,1,0,0:0:0:0:
475,192,84552,128,0,84714:0:0:0:0:
256,192,84552,1,0,0:0:0:0:
109,192,84633,1,0,0:0:0:0:
182,192,84714,1,0,0:0:0:0:
256,192,84795,1,0,0:0:0:0:
329,192,84876,1,0,0:0:0:0:
109,192,84876,1,0,0:0:0:0:
182,192,84957,1,0,0:0:0:0:
256,192,85038,1,0,0:0:0:0:
329,192,85119,1,0,0:0:0:0:
402,192,85200,1,0,0:0:0:0:
182,192,85200,1,0,0:0:0:0:
256,192,85281,1,0,0:0:0:0:
329,192,85362,1,0,0:0:0:0:
402,192,85443,1,0,0:0:0:0:
475,192,85524,1,0,0:0:0:0:
256,192,85524,1,0,0:0:0:0:
329,192,85606,1,0,0:0:0:0:
402,192,85687,1,0,0:0:0:0:
475,192,85768,1,0,0:0:0:0:
329,192,86011,1,12,0:0:0:0:
182,192,86011,1,12,0:0:0:0:
256,192,86335,128,0,86497:0:0:0:0:
36,192,86335,1,12,0:0:0:0:
475,192,86335,1,12,0:0:0:0:
109,192,86497,1,12,0:0:0:0:
402,192,86497,1,12,0:0:0:0:
256,192,86660,128,0,86822:0:0:0:0:
182,192,86822,1,4,2:0:0:0:
329,192,86822,1,4,2:0:0:0:
475,192,87146,128,0,88443:0:0:0:0:
109,192,87146,1,4,2:0:0:0:
329,192,87146,1,4,2:0:0:0:
402,192,87308,1,0,0:0:0:0:
182,192,87308,1,0,0:0:0:0:
36,192,87470,1,8,0:0:0:0:
256,192,87470,1,8,0:0:0:0:
109,192,87552,1,0,0:0:0:0:
182,192,87633,1,0,0:0:0:0:
329,192,87633,1,0,0:0:0:0:
402,192,87795,1,4,0:0:0:0:
329,192,87795,1,4,0:0:0:0:
36,192,87795,1,0,0:0:0:0:
256,192,87957,1,0,0:0:0:0:
109,192,87957,1,0,0:0:0:0:
36,192,88119,1,8,0:0:0:0:
402,192,88119,1,8,0:0:0:0:
182,192,88281,1,0,0:0:0:0:
109,192,88281,1,0,0:0:0:0:
329,192,88443,1,4,0:0:0:0:
256,192,88443,128,0,89741:0:0:0:0:
402,192,88443,1,4,0:0:0:0:
36,192,88606,1,0,0:0:0:0:
182,192,88606,1,0,0:0:0:0:
109,192,88768,1,0,0:0:0:0:
329,192,88768,1,8,0:0:0:0:
475,192,88768,1,8,0:0:0:0:
402,192,88849,1,0,0:0:0:0:
329,192,88930,1,0,0:0:0:0:
109,192,89092,1,4,0:0:0:0:
182,192,89092,1,4,0:0:0:0:
475,192,89092,1,0,0:0:0:0:
329,192,89254,1,0,0:0:0:0:
36,192,89254,1,0,0:0:0:0:
109,192,89416,1,8,0:0:0:0:
182,192,89416,1,8,0:0:0:0:
475,192,89579,1,0,0:0:0:0:
329,192,89579,1,0,0:0:0:0:
402,192,89741,1,4,0:0:0:0:
36,192,89741,1,4,0:0:0:0:
109,192,89741,128,0,91038:0:0:0:0:
182,192,89903,1,0,0:0:0:0:
329,192,89903,1,0,0:0:0:0:
256,192,90065,1,8,0:0:0:0:
475,192,90065,1,8,0:0:0:0:
402,192,90146,1,0,0:0:0:0:
329,192,90227,1,0,0:0:0:0:
36,192,90389,1,4,0:0:0:0:
182,192,90389,1,4,0:0:0:0:
475,192,90552,1,0,0:0:0:0:
402,192,90552,1,0,0:0:0:0:
402,192,90714,1,8,0:0:0:0:
256,192,90714,1,8,0:0:0:0:
329,192,90876,1,0,0:0:0:0:
182,192,90876,1,0,0:0:0:0:
475,192,91038,128,0,92335:0:0:0:0:
36,192,91038,1,4,0:0:0:0:
402,192,91038,1,4,0:0:0:0:
329,192,91119,1,0,0:0:0:0:
256,192,91200,1,0,0:0:0:0:
182,192,91281,1,0,0:0:0:0:
402,192,91362,128,0,92335:0:0:0:0:
109,192,91362,1,8,0:0:0:0:
329,192,91362,1,8,0:0:0:0:
256,192,91443,1,0,0:0:0:0:
182,192,91524,1,0,0:0:0:0:
109,192,91606,1,0,0:0:0:0:
329,192,91687,128,0,92335:0:0:0:0:
36,192,91687,1,4,0:0:0:0:
256,192,91687,1,4,0:0:0:0:
182,192,91768,1,0,0:0:0:0:
109,192,91849,1,0,0:0:0:0:
36,192,91930,1,0,0:0:0:0:
256,192,92011,128,8,92335:0:0:0:0:
182,192,92011,1,8,0:0:0:0:
109,192,92173,1,0,0:0:0:0:
182,192,92335,1,4,0:0:0:0:
36,192,92335,128,0,93633:0:0:0:0:
109,192,92335,1,4,0:0:0:0:
402,192,92497,1,0,0:0:0:0:
182,192,92497,1,0,0:0:0:0:
475,192,92660,1,8,0:0:0:0:
256,192,92660,1,8,0:0:0:0:
402,192,92741,1,0,0:0:0:0:
329,192,92822,1,0,0:0:0:0:
256,192,92984,1,4,0:0:0:0:
182,192,92984,1,4,0:0:0:0:
329,192,93146,1,0,0:0:0:0:
109,192,93146,128,0,93308:0:0:0:0:
475,192,93146,1,0,0:0:0:0:
475,192,93308,128,0,93470:0:0:0:0:
402,192,93308,1,8,0:0:0:0:
256,192,93308,1,8,0:0:0:0:
182,192,93470,1,0,0:0:0:0:
256,192,93633,128,0,94930:0:0:0:0:
402,192,93633,1,0,0:0:0:0:
109,192,93633,1,0,0:0:0:0:
329,192,93795,1,0,0:0:0:0:
475,192,93795,1,0,0:0:0:0:
402,192,93957,1,8,0:0:0:0:
182,192,93957,1,8,0:0:0:0:
109,192,94038,1,0,0:0:0:0:
36,192,94119,1,0,0:0:0:0:
475,192,94281,1,4,0:0:0:0:
182,192,94281,1,4,0:0:0:0:
109,192,94443,128,0,94606:0:0:0:0:
402,192,94443,1,0,0:0:0:0:
475,192,94606,128,8,94768:0:0:0:0:
36,192,94606,1,8,0:0:0:0:
402,192,94768,1,0,0:0:0:0:
36,192,94930,1,4,0:0:0:0:
329,192,94930,1,4,0:0:0:0:
182,192,94930,128,0,95579:0:0:0:0:
475,192,95092,1,0,0:0:0:0:
402,192,95092,1,0,0:0:0:0:
329,192,95254,1,8,0:0:0:0:
109,192,95254,1,8,0:0:0:0:
256,192,95416,1,0,0:0:0:0:
402,192,95416,1,0,0:0:0:0:
36,192,95579,128,4,95741:0:0:0:0:
475,192,95579,128,4,95741:0:0:0:0:
402,192,95741,128,0,95903:0:0:0:0:
109,192,95741,128,0,95903:0:0:0:0:
182,192,95903,128,8,96065:0:0:0:0:
329,192,95903,128,8,96065:0:0:0:0:
256,192,96065,128,0,96227:0:0:0:0:
36,192,96227,128,0,96389:0:0:0:0:
329,192,96227,1,4,0:0:0:0:
109,192,96227,1,4,0:0:0:0:
475,192,96389,128,0,96552:0:0:0:0:
182,192,96389,1,0,0:0:0:0:
109,192,96552,128,8,96714:0:0:0:0:
329,192,96552,1,8,0:0:0:0:
402,192,96714,128,0,96876:0:0:0:0:
182,192,96714,1,0,0:0:0:0:
256,192,96876,128,4,97200:0:0:0:0:
475,192,96876,1,4,0:0:0:0:
36,192,97200,1,0,0:0:0:0:
109,192,97241,1,0,0:0:0:0:
182,192,97281,1,0,0:0:0:0:
256,192,97322,1,0,0:0:0:0:
329,192,97362,1,0,0:0:0:0:
402,192,97403,1,0,0:0:0:0:
475,192,97443,1,0,0:0:0:0:
256,192,97484,1,0,0:0:0:0:
329,192,97524,1,4,2:0:0:0:
36,192,97524,128,0,98822:0:0:0:0:
109,192,97524,128,0,97687:0:0:0:0:
182,192,97524,1,4,2:0:0:0:
402,192,97687,1,0,0:0:0:0:
256,192,97687,1,0,0:0:0:0:
182,192,97849,1,8,0:0:0:0:
475,192,97849,1,8,0:0:0:0:
109,192,98011,128,0,98335:0:0:0:0:
402,192,98011,1,0,0:0:0:0:
329,192,98011,1,0,0:0:0:0:
182,192,98173,1,4,0:0:0:0:
256,192,98173,1,4,0:0:0:0:
475,192,98335,1,0,0:0:0:0:
329,192,98335,1,0,0:0:0:0:
256,192,98497,1,8,0:0:0:0:
402,192,98497,1,8,0:0:0:0:
182,192,98660,1,0,0:0:0:0:
475,192,98660,1,0,0:0:0:0:
402,192,98822,1,4,0:0:0:0:
109,192,98822,1,4,0:0:0:0:
329,192,98822,128,0,100119:0:0:0:0:
256,192,98984,1,0,0:0:0:0:
475,192,98984,1,0,0:0:0:0:
402,192,99146,1,8,0:0:0:0:
182,192,99146,1,8,0:0:0:0:
475,192,99308,1,0,0:0:0:0:
36,192,99308,1,0,0:0:0:0:
256,192,99470,128,0,99633:0:0:0:0:
109,192,99470,1,4,0:0:0:0:
402,192,99470,1,4,0:0:0:0:
182,192,99633,1,0,0:0:0:0:
475,192,99633,1,0,0:0:0:0:
256,192,99795,128,0,99957:0:0:0:0:
402,192,99795,1,8,0:0:0:0:
109,192,99795,1,8,0:0:0:0:
182,192,99957,1,0,0:0:0:0:
475,192,99957,1,0,0:0:0:0:
475,192,100119,128,0,100281:0:0:0:0:
109,192,100119,1,4,0:0:0:0:
256,192,100119,1,4,0:0:0:0:
36,192,100119,128,0,101416:0:0:0:0:
182,192,100281,1,0,0:0:0:0:
402,192,100281,1,0,0:0:0:0:
329,192,100443,1,8,0:0:0:0:
256,192,100443,1,8,0:0:0:0:
475,192,100606,128,0,100930:0:0:0:0:
402,192,100606,1,0,0:0:0:0:
109,192,100606,1,0,0:0:0:0:
329,192,100768,1,4,0:0:0:0:
182,192,100768,1,4,0:0:0:0:
109,192,100930,1,0,0:0:0:0:
256,192,100930,1,0,0:0:0:0:
329,192,101092,128,0,101254:0:0:0:0:
475,192,101092,1,8,0:0:0:0:
402,192,101092,1,8,0:0:0:0:
109,192,101254,1,0,0:0:0:0:
256,192,101254,1,0,0:0:0:0:
182,192,101416,128,0,102714:0:0:0:0:
475,192,101416,128,0,101579:0:0:0:0:
402,192,101416,1,4,0:0:0:0:
329,192,101416,1,4,0:0:0:0:
402,192,101579,1,0,0:0:0:0:
109,192,101579,1,0,0:0:0:0:
256,192,101741,128,0,101903:0:0:0:0:
475,192,101741,1,8,0:0:0:0:
329,192,101741,1,8,0:0:0:0:
36,192,101903,1,0,0:0:0:0:
402,192,101903,1,0,0:0:0:0:
475,192,102065,128,0,102227:0:0:0:0:
109,192,102065,1,4,0:0:0:0:
329,192,102065,1,4,0:0:0:0:
402,192,102227,128,0,102389:0:0:0:0:
256,192,102227,1,0,0:0:0:0:
329,192,102389,128,0,102552:0:0:0:0:
36,192,102389,1,8,0:0:0:0:
109,192,102389,1,8,0:0:0:0:
256,192,102552,128,0,102714:0:0:0:0:
475,192,102552,1,0,0:0:0:0:
36,192,102714,128,4,102876:0:0:0:0:
402,192,102714,1,4,0:0:0:0:
109,192,102714,128,0,104011:0:0:0:0:
182,192,102876,1,0,0:0:0:0:
329,192,102876,1,0,0:0:0:0:
256,192,103038,1,8,0:0:0:0:
475,192,103038,1,8,0:0:0:0:
36,192,103200,128,0,103524:0:0:0:0:
402,192,103200,1,0,0:0:0:0:
329,192,103200,1,0,0:0:0:0:
182,192,103362,1,4,0:0:0:0:
475,192,103362,1,4,0:0:0:0:
256,192,103524,1,0,0:0:0:0:
402,192,103524,1,0,0:0:0:0:
329,192,103687,128,0,104011:0:0:0:0:
36,192,103687,1,8,0:0:0:0:
182,192,103687,1,8,0:0:0:0:
256,192,103849,128,0,104011:0:0:0:0:
475,192,103849,1,0,0:0:0:0:
402,192,104011,1,4,0:0:0:0:
182,192,104011,1,4,0:0:0:0:
36,192,104173,1,0,0:0:0:0:
182,192,104173,1,0,0:0:0:0:
475,192,104335,1,8,0:0:0:0:
256,192,104335,1,8,0:0:0:0:
109,192,104335,128,0,104660:0:0:0:0:
402,192,104497,1,0,0:0:0:0:
182,192,104660,1,4,0:0:0:0:
475,192,104660,128,0,104822:0:0:0:0:
329,192,104660,1,4,0:0:0:0:
402,192,104822,128,0,104984:0:0:0:0:
36,192,104822,1,0,0:0:0:0:
329,192,104984,128,0,105308:0:0:0:0:
182,192,104984,1,8,0:0:0:0:
256,192,104984,1,8,0:0:0:0:
36,192,105308,128,0,105470:0:0:0:0:
182,192,105308,1,4,0:0:0:0:
109,192,105308,1,4,0:0:0:0:
402,192,105470,1,0,0:0:0:0:
256,192,105470,1,0,0:0:0:0:
36,192,105633,128,0,105795:0:0:0:0:
182,192,105633,1,8,0:0:0:0:
475,192,105633,1,8,0:0:0:0:
475,192,105795,1,0,0:0:0:0:
329,192,105795,1,0,0:0:0:0:
109,192,105957,1,0,0:0:0:0:
402,192,105957,1,0,0:0:0:0:
182,192,106038,1,0,0:0:0:0:
329,192,106038,1,0,0:0:0:0:
109,192,106119,1,0,0:0:0:0:
402,192,106119,1,0,0:0:0:0:
36,192,106200,1,0,0:0:0:0:
475,192,106200,1,0,0:0:0:0:
109,192,106281,1,0,0:0:0:0:
402,192,106281,1,0,0:0:0:0:
182,192,106362,1,0,0:0:0:0:
329,192,106362,1,0,0:0:0:0:
109,192,106443,1,0,0:0:0:0:
402,192,106443,1,0,0:0:0:0:
36,192,106524,1,0,0:0:0:0:
475,192,106524,1,0,0:0:0:0:
36,192,106930,128,0,110497:0:0:0:0:
256,192,106930,128,0,107579:0:0:0:0:
402,192,107579,128,0,107903:0:0:0:0:
109,192,107579,1,4,0:0:0:0:
182,192,107579,1,4,0:0:0:0:
329,192,107579,1,0,0:0:0:0:
475,192,107903,128,0,110497:0:0:0:0:
182,192,107903,1,0,0:0:0:0:
182,192,110497,1,4,2:0:0:0:
329,192,110497,1,4,2:0:0:0:
