osu file format v12

[General]
AudioFilename: TRIGGER HAPPY.mp3
AudioLeadIn: 0
PreviewTime: 86822
Countdown: 0
SampleSet: Normal
StackLeniency: 0.7
Mode: 3
LetterboxInBreaks: 0
SpecialStyle: 0
WidescreenStoryboard: 1

[Editor]
DistanceSpacing: 0.7
BeatDivisor: 4
GridSize: 8

[Metadata]
Title:TRIGGER*HAPPY
TitleUnicode:TRIGGER★HAPPY
Artist:P*Light
ArtistUnicode:P*Light
Creator:Kuo Kyoka
Version:4K BASIC Lv.4
Source:SOUND VOLTEX BOOTH
Tags:SDVX Spy KONAMI BEMANI infinite infection REFLEC BEAT colette -Spring- RB KAC2012 happy hardcore jubeat BS NOV ADV EXH INF
BeatmapID:320155
BeatmapSetID:125856

[Difficulty]
HPDrainRate:6
CircleSize:4
OverallDifficulty:7
ApproachRate:1
SliderMultiplier:1.4
SliderTickRate:1

[Events]
//Background and Video events
0,0,"KK TRIGGER HAPPY BG.png",0,0
//Break Periods
//Storyboard Layer 0 (Background)
//Storyboard Layer 1 (Fail)
//Storyboard Layer 2 (Pass)
//Storyboard Layer 3 (Foreground)
//Storyboard Sound Samples
//Background Colour Transformations
3,100,163,162,255

[TimingPoints]
1525,324.324324324324,4,1,1,60,1,0
11903,-100,4,1,1,60,0,1
21957,-100,4,1,1,60,0,0
22281,-100,4,1,1,60,0,1
31362,-100,4,1,1,60,0,0
61200,-100,4,2,1,60,0,0
71579,-100,4,1,1,60,0,0
87146,-100,4,1,1,60,0,1
97200,-100,4,1,1,60,0,0
97524,-100,4,1,1,60,0,1
106606,-100,4,1,1,60,0,0

[Colours]
Combo1 : 255,219,144
Combo2 : 255,255,255

[HitObjects]
64,192,1525,1,0,0:0:0:0:
448,192,1525,1,0,0:0:0:0:
64,192,2011,1,0,0:0:0:0:
448,192,2011,1,0,0:0:0:0:
192,192,2822,1,0,0:0:0:0:
320,192,2822,1,0,0:0:0:0:
192,192,3308,1,0,0:0:0:0:
320,192,3308,1,0,0:0:0:0:
64,192,4119,1,0,0:0:0:0:
448,192,4119,1,0,0:0:0:0:
64,192,4606,1,0,0:0:0:0:
448,192,4606,1,0,0:0:0:0:
320,192,5416,1,0,0:0:0:0:
192,192,5416,1,0,0:0:0:0:
192,192,5903,1,0,0:0:0:0:
64,192,5903,1,0,0:0:0:0:
448,192,6065,1,0,0:0:0:0:
320,192,6065,128,0,6389:0:0:0:0:
192,192,6389,1,0,0:0:0:0:
64,192,6714,1,4,0:0:0:0:
320,192,7038,1,8,0:0:0:0:
192,192,7362,1,4,0:0:0:0:
448,192,7687,1,8,0:0:0:0:
64,192,8011,1,4,0:0:0:0:
320,192,8335,1,8,0:0:0:0:
192,192,8660,1,4,0:0:0:0:
448,192,8984,1,8,0:0:0:0:
64,192,9308,1,4,0:0:0:0:
320,192,9633,1,4,0:0:0:0:
192,192,9957,1,4,0:0:0:0:
448,192,10281,1,4,0:0:0:0:
320,192,10606,1,4,0:0:0:0:
64,192,10606,1,0,0:0:0:0:
320,192,11579,1,0,0:0:0:0:
448,192,11579,1,4,0:0:0:0:
192,192,11903,1,4,0:0:0:0:
448,192,12227,1,8,0:0:0:0:
64,192,12552,1,4,0:0:0:0:
320,192,12876,1,8,0:0:0:0:
192,192,13200,1,4,0:0:0:0:
448,192,13524,1,8,0:0:0:0:
64,192,13849,1,4,0:0:0:0:
448,192,14173,1,8,0:0:0:0:
320,192,14335,1,0,0:0:0:0:
192,192,14497,1,4,0:0:0:0:
448,192,14822,1,8,0:0:0:0:
64,192,15146,1,4,0:0:0:0:
320,192,15470,1,8,0:0:0:0:
192,192,15795,1,4,0:0:0:0:
448,192,16119,1,8,0:0:0:0:
64,192,16443,1,4,0:0:0:0:
320,192,16768,1,8,0:0:0:0:
448,192,16768,128,0,17092:0:0:0:0:
192,192,17092,1,4,0:0:0:0:
64,192,17416,1,8,0:0:0:0:
448,192,17741,1,4,0:0:0:0:
192,192,18065,1,8,0:0:0:0:
320,192,18389,1,4,0:0:0:0:
64,192,18714,1,8,0:0:0:0:
448,192,19038,1,4,0:0:0:0:
192,192,19362,1,8,0:0:0:0:
320,192,19687,1,4,0:0:0:0:
192,192,20011,1,8,0:0:0:0:
64,192,20335,1,4,0:0:0:0:
192,192,20660,1,8,0:0:0:0:
320,192,20984,1,4,0:0:0:0:
448,192,21308,1,8,0:0:0:0:
320,192,21470,1,0,0:0:0:0:
192,192,21633,1,4,0:0:0:0:
64,192,21957,128,0,22281:0:0:0:0:
192,192,22281,1,4,0:0:0:0:
448,192,22606,1,8,0:0:0:0:
64,192,22930,1,4,0:0:0:0:
320,192,23254,1,8,0:0:0:0:
192,192,23579,1,4,0:0:0:0:
448,192,23903,1,8,0:0:0:0:
64,192,24227,1,4,0:0:0:0:
448,192,24552,1,8,0:0:0:0:
192,192,24876,1,4,0:0:0:0:
448,192,25200,1,8,0:0:0:0:
64,192,25524,1,4,0:0:0:0:
320,192,25849,1,8,0:0:0:0:
64,192,26173,1,4,0:0:0:0:
448,192,26497,1,8,0:0:0:0:
64,192,26822,1,4,0:0:0:0:
448,192,27146,1,8,0:0:0:0:
320,192,27308,1,0,0:0:0:0:
192,192,27470,1,4,0:0:0:0:
448,192,27795,1,8,0:0:0:0:
64,192,28119,1,4,0:0:0:0:
320,192,28443,1,8,0:0:0:0:
192,192,28768,1,4,0:0:0:0:
448,192,29092,1,8,0:0:0:0:
64,192,29416,1,4,0:0:0:0:
320,192,29741,1,8,0:0:0:0:
448,192,30065,1,4,0:0:0:0:
320,192,30389,1,8,0:0:0:0:
192,192,30714,1,4,0:0:0:0:
64,192,31038,1,8,0:0:0:0:
448,192,31362,1,4,0:0:0:0:
192,192,31362,128,0,32335:0:0:0:0:
448,192,32335,1,0,0:0:0:0:
64,192,32335,1,0,0:0:0:0:
320,192,32660,1,0,0:0:0:0:
448,192,32984,1,0,0:0:0:0:
320,192,33146,1,0,0:0:0:0:
64,192,33470,1,0,0:0:0:0:
320,192,33795,128,0,35254:0:0:0:0:
192,192,33795,1,0,0:0:0:0:
64,192,34930,1,0,0:0:0:0:
448,192,35254,1,0,0:0:0:0:
192,192,35579,1,0,0:0:0:0:
448,192,35903,1,0,0:0:0:0:
64,192,36227,1,0,0:0:0:0:
320,192,36552,1,0,0:0:0:0:
320,192,37524,1,0,0:0:0:0:
192,192,37524,1,4,0:0:0:0:
64,192,37849,1,0,0:0:0:0:
448,192,38173,1,8,0:0:0:0:
64,192,38497,1,4,0:0:0:0:
192,192,38822,1,8,0:0:0:0:
320,192,39146,1,4,0:0:0:0:
448,192,39470,1,8,0:0:0:0:
64,192,39795,1,4,0:0:0:0:
320,192,40119,1,8,0:0:0:0:
64,192,40443,1,4,0:0:0:0:
448,192,40768,1,8,0:0:0:0:
64,192,41092,1,4,0:0:0:0:
448,192,41416,1,8,0:0:0:0:
192,192,41741,1,4,0:0:0:0:
64,192,42065,1,8,0:0:0:0:
448,192,42389,1,4,0:0:0:0:
320,192,42552,1,0,0:0:0:0:
192,192,42714,1,8,0:0:0:0:
64,192,43038,1,4,0:0:0:0:
192,192,43524,1,0,0:0:0:0:
320,192,44011,1,8,0:0:0:0:
64,192,44335,1,4,0:0:0:0:
448,192,44497,1,0,0:0:0:0:
320,192,44822,1,0,0:0:0:0:
192,192,45308,1,8,0:0:0:0:
448,192,45308,1,0,0:0:0:0:
64,192,45633,1,0,0:0:0:0:
192,192,46119,1,0,0:0:0:0:
64,192,46606,1,8,0:0:0:0:
320,192,46606,1,0,0:0:0:0:
448,192,46930,128,0,47579:0:0:0:0:
320,192,47579,1,0,0:0:0:0:
192,192,47903,1,8,0:0:0:0:
64,192,47903,1,0,0:0:0:0:
320,192,48227,1,0,0:0:0:0:
192,192,48876,128,0,49524:0:0:0:0:
64,192,49524,1,0,0:0:0:0:
448,192,50173,128,0,50822:0:0:0:0:
64,192,50822,1,0,0:0:0:0:
192,192,51470,1,0,0:0:0:0:
320,192,52119,128,0,52768:0:0:0:0:
192,192,52768,128,0,53416:0:0:0:0:
64,192,53416,128,0,54714:0:0:0:0:
448,192,54714,128,0,55849:0:0:0:0:
64,192,55849,1,0,0:0:0:0:
320,192,56173,1,0,0:0:0:0:
192,192,56416,1,0,0:0:0:0:
448,192,56660,1,0,0:0:0:0:
64,192,56903,1,0,0:0:0:0:
448,192,57146,1,0,0:0:0:0:
192,192,57470,1,0,0:0:0:0:
448,192,57714,1,0,0:0:0:0:
64,192,57957,1,0,0:0:0:0:
320,192,58200,1,0,0:0:0:0:
64,192,58443,1,0,0:0:0:0:
320,192,58606,1,4,0:0:0:0:
448,192,58606,128,0,60876:0:0:0:0:
320,192,60876,1,8,0:0:0:0:
64,192,60876,1,0,0:0:0:0:
192,192,61200,1,4,0:0:0:0:
64,192,61849,1,0,0:0:0:0:
448,192,62497,1,0,0:0:0:0:
192,192,63146,1,0,0:0:0:0:
448,192,63795,1,0,0:0:0:0:
320,192,64443,1,0,0:0:0:0:
64,192,65092,1,0,0:0:0:0:
448,192,65416,1,0,0:0:0:0:
192,192,65741,1,0,0:0:0:0:
448,192,66065,1,0,0:0:0:0:
320,192,66389,128,0,67687:0:0:0:0:
448,192,67687,1,0,0:0:0:0:
64,192,68984,128,0,70281:0:0:0:0:
320,192,70281,1,0,0:0:0:0:
192,192,70606,1,0,0:0:0:0:
64,192,70930,128,0,71254:0:0:0:0:
320,192,71254,1,0,0:0:0:0:
448,192,71254,1,0,0:0:0:0:
192,192,71579,1,4,0:0:0:0:
64,192,71903,1,8,0:0:0:0:
192,192,72552,128,0,72876:0:0:0:0:
448,192,72876,1,4,0:0:0:0:
64,192,73200,1,8,0:0:0:0:
320,192,73849,128,0,74173:0:0:0:0:
64,192,74173,1,4,0:0:0:0:
448,192,74497,1,8,0:0:0:0:
64,192,75146,128,0,75470:0:0:0:0:
192,192,75470,1,4,0:0:0:0:
448,192,75795,1,8,0:0:0:0:
64,192,76119,128,0,76768:0:0:0:0:
192,192,76119,1,4,0:0:0:0:
448,192,76443,1,8,0:0:0:0:
320,192,76768,1,4,0:0:0:0:
320,192,77416,1,4,0:0:0:0:
64,192,77416,1,0,0:0:0:0:
192,192,78065,1,0,0:0:0:0:
448,192,78065,1,4,0:0:0:0:
64,192,78714,1,0,0:0:0:0:
448,192,78714,1,4,0:0:0:0:
192,192,79362,1,0,0:0:0:0:
448,192,79362,1,4,0:0:0:0:
64,192,79687,1,0,0:0:0:0:
320,192,79687,1,4,0:0:0:0:
448,192,80011,1,4,0:0:0:0:
192,192,80011,128,0,80660:0:0:0:0:
320,192,80660,1,0,0:0:0:0:
320,192,81633,1,0,0:0:0:0:
64,192,81633,1,0,0:0:0:0:
192,192,81957,1,0,0:0:0:0:
448,192,81957,1,4,0:0:0:0:
320,192,82606,1,4,0:0:0:0:
64,192,82606,1,0,0:0:0:0:
192,192,83254,1,0,0:0:0:0:
320,192,83254,1,4,0:0:0:0:
64,192,83903,1,0,0:0:0:0:
448,192,83903,1,4,0:0:0:0:
448,192,84552,1,4,0:0:0:0:
320,192,84552,1,0,0:0:0:0:
64,192,84876,1,0,0:0:0:0:
192,192,85200,1,0,0:0:0:0:
320,192,85524,1,0,0:0:0:0:
448,192,85687,1,0,0:0:0:0:
192,192,86011,1,0,0:0:0:0:
320,192,86335,1,0,0:0:0:0:
64,192,86497,1,0,0:0:0:0:
192,192,86822,1,0,0:0:0:0:
448,192,86822,1,0,0:0:0:0:
64,192,87146,1,4,0:0:0:0:
320,192,87470,1,8,0:0:0:0:
192,192,87795,1,4,0:0:0:0:
448,192,88119,1,8,0:0:0:0:
320,192,88443,1,4,0:0:0:0:
192,192,88768,1,8,0:0:0:0:
64,192,89092,1,4,0:0:0:0:
448,192,89416,1,8,0:0:0:0:
320,192,89741,1,4,0:0:0:0:
192,192,90065,1,8,0:0:0:0:
64,192,90389,1,4,0:0:0:0:
448,192,90714,1,8,0:0:0:0:
320,192,91038,1,4,0:0:0:0:
64,192,91362,1,8,0:0:0:0:
448,192,91687,1,4,0:0:0:0:
192,192,92011,1,8,0:0:0:0:
320,192,92173,1,0,0:0:0:0:
64,192,92335,1,4,0:0:0:0:
320,192,92660,1,8,0:0:0:0:
192,192,92984,1,4,0:0:0:0:
448,192,93308,1,8,0:0:0:0:
64,192,93633,1,4,0:0:0:0:
448,192,93957,1,8,0:0:0:0:
64,192,94281,1,4,0:0:0:0:
448,192,94606,1,8,0:0:0:0:
320,192,94930,1,4,0:0:0:0:
192,192,95254,1,8,0:0:0:0:
64,192,95579,1,4,0:0:0:0:
192,192,95903,1,8,0:0:0:0:
320,192,96227,1,4,0:0:0:0:
448,192,96227,1,0,0:0:0:0:
192,192,96552,1,8,0:0:0:0:
320,192,96714,1,0,0:0:0:0:
64,192,96876,1,4,0:0:0:0:
192,192,97200,128,0,97524:0:0:0:0:
320,192,97524,1,0,0:0:0:0:
64,192,97849,1,8,0:0:0:0:
192,192,98173,1,4,0:0:0:0:
320,192,98497,1,8,0:0:0:0:
448,192,98822,1,4,0:0:0:0:
320,192,99146,1,8,0:0:0:0:
192,192,99470,1,4,0:0:0:0:
320,192,99795,1,8,0:0:0:0:
64,192,100119,1,4,0:0:0:0:
448,192,100443,1,8,0:0:0:0:
192,192,100768,1,4,0:0:0:0:
320,192,101092,1,8,0:0:0:0:
448,192,101416,1,4,0:0:0:0:
192,192,101741,1,8,0:0:0:0:
64,192,102065,1,4,0:0:0:0:
320,192,102389,1,8,0:0:0:0:
192,192,102552,1,0,0:0:0:0:
448,192,102714,1,4,0:0:0:0:
64,192,103038,1,8,0:0:0:0:
192,192,103362,1,4,0:0:0:0:
320,192,103687,1,8,0:0:0:0:
192,192,104011,1,4,0:0:0:0:
64,192,104011,128,0,104335:0:0:0:0:
320,192,104335,1,8,0:0:0:0:
448,192,104660,128,0,104984:0:0:0:0:
192,192,104660,1,4,0:0:0:0:
64,192,104984,1,8,0:0:0:0:
320,192,105308,1,4,0:0:0:0:
448,192,105633,1,8,0:0:0:0:
64,192,105957,1,4,0:0:0:0:
448,192,106281,1,8,0:0:0:0:
192,192,106443,1,0,0:0:0:0:
64,192,106930,128,0,107579:0:0:0:0:
320,192,106930,1,4,0:0:0:0:
192,192,107579,1,0,0:0:0:0:
448,192,107903,1,0,0:0:0:0:
320,192,107903,128,0,110497:0:0:0:0:
64,192,110497,1,4,2:0:0:0:
