osu file format v12

[General]
AudioFilename: TRIGGERHAPPY.mp3
AudioLeadIn: 1000
PreviewTime: 86822
Countdown: 0
SampleSet: Normal
StackLeniency: 0.7
Mode: 3
LetterboxInBreaks: 0
SpecialStyle: 0
WidescreenStoryboard: 1

[Editor]
DistanceSpacing: 1
BeatDivisor: 4
GridSize: 4

[Metadata]
Title:TRIGGER*HAPPY
TitleUnicode:TRIGGER★HAPPY
Artist:P*Light
ArtistUnicode:P*Light
Creator:- R u m i a -
Version:NM
Source:SOUND VOLTEX BOOTH
Tags:SDVX REFLEC BEAT Expew
BeatmapID:361995
BeatmapSetID:146049

[Difficulty]
HPDrainRate:8
CircleSize:7
OverallDifficulty:7
ApproachRate:8
SliderMultiplier:1.9
SliderTickRate:2

[Events]
//Background and Video events
0,0,"BG.jpg",0,0
//Break Periods
//Storyboard Layer 0 (Background)
//Storyboard Layer 1 (Fail)
//Storyboard Layer 2 (Pass)
//Storyboard Layer 3 (Foreground)
//Storyboard Sound Samples
//Background Colour Transformations
3,100,163,162,255

[TimingPoints]
1525,324.324324324324,4,1,1,45,1,0
58606,-100,4,2,1,45,0,0
71579,-100,4,1,1,45,0,0
87146,-100,4,1,1,45,0,1
107903,-100,4,1,1,45,0,0

[Colours]
Combo1 : 128,128,128
Combo2 : 255,136,17
Combo3 : 0,128,255

[HitObjects]
36,192,1525,1,0,0:0:0:0:
475,192,1687,1,0,0:0:0:0:
36,192,2011,1,0,0:0:0:0:
475,192,2173,1,0,0:0:0:0:
256,192,2497,1,0,0:0:0:0:
36,192,2822,1,0,0:0:0:0:
475,192,2984,1,0,0:0:0:0:
36,192,3308,1,0,0:0:0:0:
475,192,3470,1,0,0:0:0:0:
329,192,3795,128,0,4119:0:0:0:0:
182,192,4119,1,0,0:0:0:0:
36,192,4281,1,0,0:0:0:0:
329,192,4606,1,0,0:0:0:0:
475,192,4768,1,0,0:0:0:0:
109,192,5092,1,0,0:0:0:0:
256,192,5416,1,0,0:0:0:0:
475,192,5579,1,0,0:0:0:0:
182,192,5903,1,0,0:0:0:0:
402,192,6065,128,0,6389:0:0:0:0:
109,192,6389,128,0,6714:0:0:0:0:
36,192,6714,1,0,0:0:0:0:
475,192,6876,1,0,0:0:0:0:
36,192,7200,1,0,0:0:0:0:
475,192,7362,1,0,0:0:0:0:
182,192,7687,1,8,0:0:0:0:
256,192,8011,1,0,0:0:0:0:
36,192,8011,1,4,0:0:0:0:
36,192,8660,1,4,0:0:0:0:
329,192,8660,1,0,0:0:0:0:
182,192,8984,1,8,0:0:0:0:
109,192,9146,1,0,0:0:0:0:
36,192,9308,1,0,0:0:0:0:
475,192,9470,1,0,0:0:0:0:
36,192,9633,1,0,0:0:0:0:
475,192,9795,1,0,0:0:0:0:
256,192,9957,128,0,10606:0:0:0:0:
402,192,10606,1,0,0:0:0:0:
109,192,10606,1,0,0:0:0:0:
329,192,10768,1,0,0:0:0:0:
109,192,10930,1,0,0:0:0:0:
329,192,11092,1,0,0:0:0:0:
256,192,11254,1,0,0:0:0:0:
182,192,11579,1,4,0:0:0:0:
329,192,11579,1,4,0:0:0:0:
475,192,11903,1,4,2:0:0:0:
36,192,12065,1,0,0:0:0:0:
182,192,12227,1,8,0:0:0:0:
329,192,12308,1,0,0:0:0:0:
402,192,12552,128,0,12876:0:0:0:0:
182,192,13200,1,4,0:0:0:0:
36,192,13362,1,0,0:0:0:0:
329,192,13524,1,8,0:0:0:0:
475,192,13606,1,0,0:0:0:0:
256,192,13768,1,0,0:0:0:0:
182,192,14011,128,0,14173:0:0:0:0:
329,192,14173,128,8,14335:0:0:0:0:
182,192,14335,128,0,14497:0:0:0:0:
36,192,14497,1,4,0:0:0:0:
109,192,14822,1,8,0:0:0:0:
329,192,14822,1,0,0:0:0:0:
109,192,15146,128,0,15470:0:0:0:0:
256,192,15470,1,8,0:0:0:0:
402,192,15633,1,0,0:0:0:0:
182,192,15795,1,4,0:0:0:0:
256,192,16119,1,8,0:0:0:0:
329,192,16443,1,4,0:0:0:0:
402,192,16768,128,8,17092:0:0:0:0:
36,192,17092,1,4,0:0:0:0:
475,192,17092,1,4,0:0:0:0:
182,192,17416,1,8,0:0:0:0:
329,192,17416,1,0,0:0:0:0:
256,192,17741,128,0,18065:0:0:0:0:
182,192,18065,1,8,0:0:0:0:
329,192,18227,1,0,0:0:0:0:
36,192,18389,1,0,0:0:0:0:
475,192,18389,1,4,0:0:0:0:
329,192,18714,1,8,0:0:0:0:
182,192,18714,1,0,0:0:0:0:
256,192,19038,128,0,19362:0:0:0:0:
182,192,19362,1,8,0:0:0:0:
329,192,19524,1,0,0:0:0:0:
36,192,19687,1,0,0:0:0:0:
475,192,19687,1,4,0:0:0:0:
329,192,20011,1,8,0:0:0:0:
182,192,20011,1,0,0:0:0:0:
36,192,20335,1,4,0:0:0:0:
475,192,20335,1,4,0:0:0:0:
329,192,20497,1,0,0:0:0:0:
182,192,20660,1,8,0:0:0:0:
329,192,20822,1,0,0:0:0:0:
36,192,20984,1,0,0:0:0:0:
475,192,20984,1,4,0:0:0:0:
329,192,21146,1,0,0:0:0:0:
182,192,21308,1,8,0:0:0:0:
256,192,21470,1,0,0:0:0:0:
329,192,21633,1,4,0:0:0:0:
182,192,21957,128,0,22281:0:0:0:0:
475,192,22281,1,0,2:0:0:0:
36,192,22281,1,4,2:0:0:0:
329,192,22443,1,0,0:0:0:0:
475,192,22768,1,0,0:0:0:0:
36,192,22768,1,0,0:0:0:0:
329,192,22930,1,4,0:0:0:0:
182,192,23254,1,8,0:0:0:0:
402,192,23416,1,0,0:0:0:0:
36,192,23579,1,4,0:0:0:0:
109,192,23579,1,4,0:0:0:0:
256,192,23741,1,0,0:0:0:0:
36,192,24065,1,0,0:0:0:0:
109,192,24065,1,0,0:0:0:0:
256,192,24227,1,4,0:0:0:0:
402,192,24389,1,0,0:0:0:0:
256,192,24552,1,8,0:0:0:0:
402,192,24714,1,0,0:0:0:0:
36,192,24876,1,4,0:0:0:0:
182,192,24876,1,4,0:0:0:0:
475,192,25038,1,0,0:0:0:0:
182,192,25362,1,0,0:0:0:0:
36,192,25362,1,0,0:0:0:0:
475,192,25524,1,4,0:0:0:0:
329,192,25849,1,8,0:0:0:0:
182,192,25849,1,8,0:0:0:0:
109,192,26011,1,0,0:0:0:0:
36,192,26173,1,4,0:0:0:0:
475,192,26173,1,4,0:0:0:0:
256,192,26335,1,0,0:0:0:0:
36,192,26497,1,8,0:0:0:0:
475,192,26497,1,8,0:0:0:0:
256,192,26660,1,0,0:0:0:0:
109,192,26822,1,4,0:0:0:0:
256,192,26984,1,0,0:0:0:0:
402,192,27146,128,8,27470:0:0:0:0:
36,192,27470,1,4,0:0:0:0:
475,192,27470,1,0,0:0:0:0:
256,192,27795,1,8,0:0:0:0:
182,192,28119,1,4,0:0:0:0:
329,192,28443,1,8,0:0:0:0:
36,192,28768,1,0,0:0:0:0:
475,192,28768,1,4,0:0:0:0:
182,192,28930,1,0,0:0:0:0:
329,192,29092,1,8,0:0:0:0:
402,192,29254,1,0,0:0:0:0:
402,192,29416,1,4,0:0:0:0:
256,192,29579,1,0,0:0:0:0:
109,192,29741,1,8,0:0:0:0:
36,192,30065,1,4,0:0:0:0:
256,192,30065,1,0,0:0:0:0:
256,192,30389,1,4,0:0:0:0:
36,192,30389,1,0,0:0:0:0:
36,192,30714,1,0,0:0:0:0:
256,192,30714,1,0,0:0:0:0:
402,192,30876,1,0,0:0:0:0:
256,192,31038,1,0,0:0:0:0:
402,192,31200,1,0,0:0:0:0:
256,192,31362,128,0,32335:0:0:0:0:
109,192,32335,1,4,0:0:0:0:
402,192,32335,1,4,0:0:0:0:
36,192,32660,1,4,0:0:0:0:
329,192,32660,1,8,0:0:0:0:
329,192,32984,1,4,0:0:0:0:
36,192,32984,1,8,0:0:0:0:
475,192,33146,1,4,0:0:0:0:
109,192,33470,1,0,0:0:0:0:
402,192,33470,1,4,0:0:0:0:
402,192,33795,128,4,34930:0:0:0:0:
109,192,33795,128,4,34930:0:0:0:0:
256,192,34930,128,0,35254:0:0:0:0:
36,192,35254,1,0,0:0:0:0:
475,192,35254,1,4,0:0:0:0:
329,192,35416,1,0,0:0:0:0:
182,192,35579,1,0,0:0:0:0:
109,192,35741,1,0,0:0:0:0:
36,192,35903,1,0,0:0:0:0:
475,192,36065,1,0,0:0:0:0:
36,192,36227,1,0,0:0:0:0:
256,192,36227,1,0,0:0:0:0:
109,192,36552,1,0,0:0:0:0:
256,192,36876,1,0,0:0:0:0:
402,192,37200,1,0,0:0:0:0:
182,192,37524,1,4,0:0:0:0:
329,192,37524,1,0,0:0:0:0:
475,192,37849,1,4,2:0:0:0:
36,192,38011,1,0,0:0:0:0:
475,192,38173,1,8,0:0:0:0:
36,192,38335,1,0,0:0:0:0:
475,192,38497,1,4,0:0:0:0:
36,192,38660,1,0,0:0:0:0:
475,192,38822,1,8,0:0:0:0:
36,192,38984,1,0,0:0:0:0:
329,192,39146,1,4,0:0:0:0:
109,192,39308,1,0,0:0:0:0:
329,192,39470,1,8,0:0:0:0:
109,192,39633,1,0,0:0:0:0:
329,192,39795,1,4,0:0:0:0:
182,192,39957,1,0,0:0:0:0:
329,192,40119,1,8,0:0:0:0:
475,192,40281,1,0,0:0:0:0:
182,192,40443,1,4,0:0:0:0:
36,192,40443,1,0,0:0:0:0:
329,192,40606,1,0,0:0:0:0:
36,192,40768,1,8,0:0:0:0:
329,192,40930,1,0,0:0:0:0:
36,192,41092,1,4,0:0:0:0:
329,192,41254,1,0,0:0:0:0:
182,192,41416,1,8,0:0:0:0:
36,192,41579,1,0,0:0:0:0:
329,192,41741,1,4,0:0:0:0:
475,192,41741,1,4,0:0:0:0:
182,192,41903,1,0,0:0:0:0:
329,192,42065,1,8,0:0:0:0:
109,192,42227,1,0,0:0:0:0:
256,192,42389,128,4,42714:0:0:0:0:
402,192,42714,1,8,0:0:0:0:
109,192,42714,1,8,0:0:0:0:
256,192,43038,1,4,0:0:0:0:
182,192,43362,1,0,0:0:0:0:
329,192,43362,1,0,0:0:0:0:
256,192,43524,1,0,0:0:0:0:
182,192,43849,1,0,0:0:0:0:
329,192,43849,1,0,0:0:0:0:
36,192,44011,1,8,0:0:0:0:
475,192,44173,1,0,0:0:0:0:
109,192,44335,1,4,0:0:0:0:
402,192,44335,1,4,0:0:0:0:
402,192,44497,1,0,0:0:0:0:
109,192,44497,1,0,0:0:0:0:
182,192,44822,1,0,0:0:0:0:
329,192,44984,1,4,0:0:0:0:
182,192,45308,1,8,0:0:0:0:
109,192,45633,1,4,0:0:0:0:
402,192,45633,1,0,0:0:0:0:
109,192,46119,1,0,0:0:0:0:
402,192,46119,1,0,0:0:0:0:
182,192,46606,1,8,0:0:0:0:
329,192,46768,1,0,0:0:0:0:
36,192,46930,1,6,0:0:0:0:
475,192,47092,1,6,0:0:0:0:
36,192,47254,1,6,0:0:0:0:
475,192,47416,1,6,0:0:0:0:
36,192,47579,128,6,47903:0:0:0:0:
402,192,47903,1,4,0:0:0:0:
256,192,47903,128,0,48227:0:0:0:0:
109,192,48227,1,4,0:0:0:0:
402,192,48389,1,0,0:0:0:0:
109,192,48552,1,0,0:0:0:0:
402,192,48714,1,0,0:0:0:0:
182,192,48876,128,0,49524:0:0:0:0:
329,192,49200,128,0,49524:0:0:0:0:
109,192,49524,128,4,49687:0:0:0:0:
182,192,49687,128,0,49849:0:0:0:0:
256,192,49849,128,0,50011:0:0:0:0:
329,192,50011,128,0,50173:0:0:0:0:
402,192,50173,128,4,50822:0:0:0:0:
475,192,50822,1,4,0:0:0:0:
36,192,50822,1,4,0:0:0:0:
182,192,51146,1,0,0:0:0:0:
329,192,51308,1,0,0:0:0:0:
109,192,51470,1,4,0:0:0:0:
182,192,51795,1,0,0:0:0:0:
402,192,52119,128,4,52281:0:0:0:0:
329,192,52281,128,0,52443:0:0:0:0:
256,192,52443,128,0,52606:0:0:0:0:
182,192,52606,128,0,52768:0:0:0:0:
109,192,52768,128,0,52930:0:0:0:0:
36,192,52930,128,0,53092:0:0:0:0:
109,192,53092,128,0,53416:0:0:0:0:
329,192,53092,1,0,0:0:0:0:
475,192,53416,1,4,0:0:0:0:
182,192,53416,128,4,53903:0:0:0:0:
329,192,53903,128,0,54389:0:0:0:0:
402,192,54389,128,0,54714:0:0:0:0:
475,192,54714,1,4,0:0:0:0:
36,192,54714,1,4,0:0:0:0:
36,192,54876,1,0,0:0:0:0:
182,192,55038,1,0,0:0:0:0:
329,192,55038,1,0,0:0:0:0:
256,192,55200,1,0,0:0:0:0:
256,192,55524,1,0,0:0:0:0:
182,192,55687,1,0,0:0:0:0:
36,192,55687,1,0,0:0:0:0:
256,192,55849,1,0,0:0:0:0:
36,192,56173,1,0,0:0:0:0:
475,192,56173,1,4,0:0:0:0:
475,192,56416,1,4,0:0:0:0:
36,192,56416,1,0,0:0:0:0:
36,192,56660,1,0,0:0:0:0:
475,192,56660,1,4,0:0:0:0:
475,192,56903,1,4,0:0:0:0:
36,192,56903,1,0,0:0:0:0:
36,192,57146,1,0,0:0:0:0:
475,192,57146,1,4,0:0:0:0:
109,192,57470,1,0,0:0:0:0:
402,192,57470,1,4,0:0:0:0:
402,192,57714,1,4,0:0:0:0:
109,192,57714,1,0,0:0:0:0:
329,192,57957,1,4,0:0:0:0:
182,192,57957,1,0,0:0:0:0:
329,192,58200,1,4,0:0:0:0:
182,192,58200,1,0,0:0:0:0:
329,192,58443,1,4,0:0:0:0:
182,192,58443,1,0,0:0:0:0:
256,192,58606,128,0,59579:0:0:0:0:
36,192,59579,1,0,0:0:0:0:
475,192,59903,1,0,0:0:0:0:
36,192,60227,1,0,0:0:0:0:
475,192,60389,1,0,0:0:0:0:
109,192,60552,1,0,0:0:0:0:
256,192,60633,1,0,0:0:0:0:
402,192,60714,1,0,0:0:0:0:
182,192,60876,1,0,1:0:0:0:
329,192,60876,1,0,0:0:0:0:
36,192,61200,1,4,2:0:0:0:
475,192,61524,1,0,0:0:0:0:
329,192,61849,1,0,0:0:0:0:
182,192,62011,1,0,0:0:0:0:
182,192,62335,1,0,0:0:0:0:
475,192,62497,1,0,0:0:0:0:
329,192,62660,128,0,62822:0:0:0:0:
182,192,62822,1,0,0:0:0:0:
36,192,62984,1,0,0:0:0:0:
182,192,63146,1,0,0:0:0:0:
329,192,63308,128,0,63470:0:0:0:0:
109,192,63470,1,0,0:0:0:0:
402,192,63633,128,0,63795:0:0:0:0:
182,192,63795,1,0,0:0:0:0:
36,192,63957,1,0,0:0:0:0:
256,192,64119,1,0,0:0:0:0:
109,192,64281,1,0,0:0:0:0:
182,192,64443,1,0,0:0:0:0:
329,192,64606,1,0,0:0:0:0:
329,192,64930,1,0,0:0:0:0:
182,192,65092,1,0,0:0:0:0:
256,192,65254,1,0,0:0:0:0:
329,192,65416,1,0,0:0:0:0:
402,192,65579,1,0,0:0:0:0:
475,192,65741,1,0,0:0:0:0:
402,192,65903,128,0,66065:0:0:0:0:
182,192,66065,1,0,0:0:0:0:
329,192,66227,128,0,66389:0:0:0:0:
109,192,66389,128,0,67038:0:0:0:0:
256,192,67038,128,0,67687:0:0:0:0:
402,192,67687,128,0,68173:0:0:0:0:
182,192,68173,128,0,68660:0:0:0:0:
329,192,68660,128,0,68984:0:0:0:0:
109,192,68984,1,0,0:0:0:0:
109,192,69146,1,0,0:0:0:0:
256,192,69308,1,0,0:0:0:0:
36,192,69633,1,0,0:0:0:0:
402,192,69795,1,0,0:0:0:0:
402,192,70119,1,0,0:0:0:0:
36,192,70281,1,0,0:0:0:0:
475,192,70443,1,0,0:0:0:0:
36,192,70606,1,0,0:0:0:0:
475,192,70768,1,0,0:0:0:0:
109,192,70930,128,0,71254:0:0:0:0:
402,192,71254,128,4,71579:0:0:0:0:
329,192,71579,128,0,71903:0:0:0:0:
475,192,71579,1,0,0:0:0:0:
182,192,71903,1,8,0:0:0:0:
36,192,72065,128,0,73687:0:0:0:0:
182,192,73687,128,0,73849:0:0:0:0:
109,192,73849,128,0,74011:0:0:0:0:
329,192,74011,128,0,74173:0:0:0:0:
402,192,74173,128,0,74335:0:0:0:0:
256,192,74335,128,0,74497:0:0:0:0:
182,192,74497,128,0,74660:0:0:0:0:
109,192,74660,128,0,74822:0:0:0:0:
36,192,74822,128,0,75470:0:0:0:0:
182,192,75470,128,0,76443:0:0:0:0:
329,192,76443,128,0,76768:0:0:0:0:
36,192,76768,1,0,0:0:0:0:
475,192,76768,1,0,0:0:0:0:
36,192,77416,1,0,0:0:0:0:
475,192,77416,1,4,0:0:0:0:
475,192,78065,1,4,0:0:0:0:
36,192,78065,1,0,0:0:0:0:
36,192,78714,1,4,0:0:0:0:
475,192,78714,1,0,0:0:0:0:
36,192,79362,1,4,0:0:0:0:
475,192,79362,1,4,0:0:0:0:
36,192,79687,1,4,0:0:0:0:
475,192,79687,1,4,0:0:0:0:
36,192,80011,1,0,0:0:0:0:
475,192,80011,1,4,0:0:0:0:
256,192,80011,128,0,80660:0:0:0:0:
182,192,80660,128,0,81633:0:0:0:0:
256,192,81633,1,0,0:0:0:0:
329,192,81957,1,4,0:0:0:0:
36,192,82119,1,0,0:0:0:0:
256,192,82281,1,0,0:0:0:0:
36,192,82606,1,0,0:0:0:0:
475,192,82606,1,4,0:0:0:0:
182,192,82768,1,0,0:0:0:0:
329,192,82930,1,0,0:0:0:0:
475,192,83254,1,4,0:0:0:0:
36,192,83254,1,0,0:0:0:0:
329,192,83416,1,0,0:0:0:0:
475,192,83579,128,0,83903:0:0:0:0:
329,192,83903,1,4,0:0:0:0:
36,192,83903,1,0,0:0:0:0:
182,192,84065,1,0,0:0:0:0:
402,192,84227,1,0,0:0:0:0:
256,192,84552,1,0,0:0:0:0:
36,192,84552,1,0,0:0:0:0:
402,192,84714,1,0,0:0:0:0:
256,192,84876,1,0,0:0:0:0:
402,192,85038,1,0,0:0:0:0:
182,192,85200,128,0,86011:0:0:0:0:
329,192,85524,128,0,86011:0:0:0:0:
36,192,86011,1,0,0:0:0:0:
475,192,86011,1,12,0:0:0:0:
475,192,86335,1,12,0:0:0:0:
36,192,86335,1,0,0:0:0:0:
402,192,86497,1,12,0:0:0:0:
109,192,86497,1,12,0:0:0:0:
329,192,86822,128,4,87146:2:0:0:0:
182,192,86822,128,4,87146:2:0:0:0:
109,192,87146,1,0,2:0:0:0:
402,192,87146,1,4,2:0:0:0:
36,192,87146,128,0,88443:0:0:0:0:
475,192,87470,1,8,0:0:0:0:
329,192,87470,1,0,0:0:0:0:
182,192,87795,1,4,0:0:0:0:
402,192,88119,1,8,0:0:0:0:
256,192,88119,1,0,0:0:0:0:
329,192,88443,1,4,0:0:0:0:
109,192,88443,1,0,0:0:0:0:
402,192,88768,1,8,0:0:0:0:
182,192,88768,1,0,0:0:0:0:
36,192,89092,1,4,0:0:0:0:
256,192,89092,1,4,0:0:0:0:
329,192,89416,1,8,0:0:0:0:
109,192,89416,1,0,0:0:0:0:
402,192,89741,1,0,0:0:0:0:
182,192,89741,1,4,0:0:0:0:
256,192,89741,128,0,91038:0:0:0:0:
329,192,90065,1,8,0:0:0:0:
402,192,90389,1,4,0:0:0:0:
109,192,90389,1,4,0:0:0:0:
36,192,90714,1,8,0:0:0:0:
475,192,91038,128,4,91362:0:0:0:0:
329,192,91362,128,8,91687:0:0:0:0:
182,192,91687,128,4,92011:0:0:0:0:
329,192,92011,128,8,92335:0:0:0:0:
109,192,92335,1,4,0:0:0:0:
36,192,92335,128,4,93633:0:0:0:0:
475,192,92335,1,0,0:0:0:0:
182,192,92660,1,8,0:0:0:0:
402,192,92984,1,4,0:0:0:0:
256,192,92984,1,4,0:0:0:0:
109,192,93308,1,8,0:0:0:0:
182,192,93633,1,0,0:0:0:0:
329,192,93633,1,4,0:0:0:0:
475,192,93957,1,8,0:0:0:0:
402,192,94281,1,4,0:0:0:0:
109,192,94281,1,4,0:0:0:0:
329,192,94606,1,8,0:0:0:0:
182,192,94768,1,0,0:0:0:0:
475,192,94930,1,4,0:0:0:0:
36,192,94930,1,4,0:0:0:0:
109,192,95254,1,8,0:0:0:0:
402,192,95254,1,8,0:0:0:0:
256,192,95579,128,4,96227:0:0:0:0:
475,192,95579,1,4,0:0:0:0:
36,192,95579,1,0,0:0:0:0:
182,192,96227,1,4,0:0:0:0:
329,192,96389,1,0,0:0:0:0:
475,192,96552,1,8,0:0:0:0:
402,192,96714,1,0,0:0:0:0:
329,192,96876,128,0,97200:0:0:0:0:
109,192,97200,128,0,97524:0:0:0:0:
182,192,97524,1,4,2:0:0:0:
36,192,97687,1,0,0:0:0:0:
329,192,98011,1,0,0:0:0:0:
475,192,98173,1,4,0:0:0:0:
109,192,98497,1,8,0:0:0:0:
256,192,98660,1,0,0:0:0:0:
402,192,98822,1,4,0:0:0:0:
109,192,98984,1,0,0:0:0:0:
402,192,99308,1,0,0:0:0:0:
109,192,99470,1,4,0:0:0:0:
329,192,99633,1,0,0:0:0:0:
36,192,99795,1,8,0:0:0:0:
329,192,99957,1,0,0:0:0:0:
182,192,100119,1,4,0:0:0:0:
36,192,100281,1,0,0:0:0:0:
329,192,100606,1,0,0:0:0:0:
475,192,100768,1,4,0:0:0:0:
109,192,101092,1,8,0:0:0:0:
329,192,101092,1,8,0:0:0:0:
182,192,101416,1,4,0:0:0:0:
402,192,101416,1,4,0:0:0:0:
109,192,101741,1,8,0:0:0:0:
329,192,101741,1,8,0:0:0:0:
36,192,102065,1,4,0:0:0:0:
256,192,102065,1,4,0:0:0:0:
329,192,102389,1,8,0:0:0:0:
109,192,102389,1,8,0:0:0:0:
475,192,102714,1,4,0:0:0:0:
36,192,102714,1,4,0:0:0:0:
329,192,102876,1,0,0:0:0:0:
109,192,103200,1,0,0:0:0:0:
256,192,103362,1,4,0:0:0:0:
329,192,103687,1,8,0:0:0:0:
182,192,103849,1,0,0:0:0:0:
36,192,104011,1,4,0:0:0:0:
475,192,104011,1,4,0:0:0:0:
256,192,104335,1,8,0:0:0:0:
182,192,104660,1,4,0:0:0:0:
402,192,104660,1,0,0:0:0:0:
109,192,104822,1,0,0:0:0:0:
256,192,104984,128,8,105308:0:0:0:0:
36,192,104984,1,8,0:0:0:0:
475,192,105308,1,4,0:0:0:0:
402,192,105308,1,4,0:0:0:0:
36,192,105633,1,8,0:0:0:0:
109,192,105633,1,8,0:0:0:0:
402,192,105957,1,0,0:0:0:0:
475,192,105957,1,0,0:0:0:0:
182,192,105957,128,0,106606:0:0:0:0:
256,192,106930,128,0,107579:0:0:0:0:
182,192,107579,1,4,0:0:0:0:
475,192,107579,1,4,0:0:0:0:
402,192,107903,128,0,110497:0:0:0:0:
109,192,110497,1,4,0:0:0:0:
