osu file format v12

[General]
AudioFilename: TRIGGERHAPPY.mp3
AudioLeadIn: 1000
PreviewTime: 86822
Countdown: 0
SampleSet: Normal
StackLeniency: 0.7
Mode: 3
LetterboxInBreaks: 0
SpecialStyle: 0
WidescreenStoryboard: 1

[Editor]
DistanceSpacing: 1
BeatDivisor: 4
GridSize: 4
TimelineZoom: 2.3

[Metadata]
Title:TRIGGER*HAPPY
TitleUnicode:TRIGGER★HAPPY
Artist:P*Light
ArtistUnicode:P*Light
Creator:- R u m i a -
Version:MX
Source:SOUND VOLTEX BOOTH
Tags:SDVX REFLEC BEAT Expew
BeatmapID:361994
BeatmapSetID:146049

[Difficulty]
HPDrainRate:8
CircleSize:7
OverallDifficulty:8
ApproachRate:8
SliderMultiplier:1.9
SliderTickRate:2

[Events]
//Background and Video events
0,0,"BG.jpg",0,0
//Break Periods
//Storyboard Layer 0 (Background)
//Storyboard Layer 1 (Fail)
//Storyboard Layer 2 (Pass)
//Storyboard Layer 3 (Foreground)
//Storyboard Sound Samples
//Background Colour Transformations
3,100,163,162,255

[TimingPoints]
1525,324.324324324324,4,1,1,45,1,0
1687,-100,4,1,1,45,0,0
1768,-400,4,1,1,45,0,0
1849,-80,4,1,1,45,0,0
2011,-100,4,1,1,45,0,0
2173,-100,4,1,1,45,0,0
2254,-400,4,1,1,45,0,0
2335,-80,4,1,1,45,0,0
2497,-666.666666666667,4,1,1,45,0,0
2538,-80,4,1,1,45,0,0
2660,-666.666666666667,4,1,1,45,0,0
2680,-80,4,1,1,45,0,0
2741,-666.666666666667,4,1,1,45,0,0
2761,-80,4,1,1,45,0,0
2822,-100,4,1,1,45,0,0
2984,-100,4,1,1,45,0,0
3065,-400,4,1,1,45,0,0
3146,-80,4,1,1,45,0,0
3308,-100,4,1,1,45,0,0
3795,-666.666666666667,4,1,1,45,0,0
3815,-80,4,1,1,45,0,0
3876,-666.666666666667,4,1,1,45,0,0
3896,-80,4,1,1,45,0,0
3957,-666.666666666667,4,1,1,45,0,0
3977,-80,4,1,1,45,0,0
4038,-666.666666666667,4,1,1,45,0,0
4058,-80,4,1,1,45,0,0
4119,-100,4,1,1,45,0,0
4281,-100,4,1,1,45,0,0
4362,-400,4,1,1,45,0,0
4443,-80,4,1,1,45,0,0
4606,-100,4,1,1,45,0,0
4768,-100,4,1,1,45,0,0
4849,-400,4,1,1,45,0,0
4930,-80,4,1,1,45,0,0
5092,-666.666666666667,4,1,1,45,0,0
5133,-80,4,1,1,45,0,0
5254,-666.666666666667,4,1,1,45,0,0
5274,-80,4,1,1,45,0,0
5335,-666.666666666667,4,1,1,45,0,0
5356,-80,4,1,1,45,0,0
5416,-100,4,1,1,45,0,0
5579,-100,4,1,1,45,0,0
5660,-400,4,1,1,45,0,0
5741,-80,4,1,1,45,0,0
5903,-100,4,1,1,45,0,0
6065,-80,4,1,1,45,0,0
6308,-400,4,1,1,45,0,0
6389,-80,4,1,1,45,0,0
6633,-400,4,1,1,45,0,0
6714,-100,4,1,1,45,0,0
11579,-80,4,1,1,45,0,0
11741,-400,4,1,1,45,0,0
11903,-100,4,1,1,45,0,0
20335,-666.666666666667,4,1,1,45,0,0
20376,-71.4285714285714,4,1,1,45,0,0
20497,-666.666666666667,4,1,1,45,0,0
20538,-71.4285714285714,4,1,1,45,0,0
20660,-666.666666666667,4,1,1,45,0,0
20700,-71.4285714285714,4,1,1,45,0,0
20822,-666.666666666667,4,1,1,45,0,0
20862,-71.4285714285714,4,1,1,45,0,0
20984,-100,4,1,1,45,0,0
21633,-80,4,1,1,45,0,0
21795,-400,4,1,1,45,0,0
21957,-666.666666666667,4,1,1,30,0,0
21997,-71.4285714285714,4,1,1,30,0,0
22038,-666.666666666667,4,1,1,30,0,0
22079,-71.4285714285714,4,1,1,30,0,0
22119,-666.666666666667,4,1,1,30,0,0
22160,-71.4285714285714,4,1,1,30,0,0
22200,-666.666666666667,4,1,1,30,0,0
22241,-71.4285714285714,4,1,1,30,0,0
22281,-100,4,1,1,45,0,0
30065,-666.666666666667,4,1,1,45,0,0
30106,-80,4,1,1,45,0,0
30227,-666.666666666667,4,1,1,45,0,0
30268,-80,4,1,1,45,0,0
30389,-666.666666666667,4,1,1,45,0,0
30430,-80,4,1,1,45,0,0
30552,-666.666666666667,4,1,1,45,0,0
30592,-80,4,1,1,45,0,0
30714,-666.666666666667,4,1,1,45,0,0
30734,-80,4,1,1,45,0,0
30795,-666.666666666667,4,1,1,45,0,0
30815,-80,4,1,1,45,0,0
30876,-666.666666666667,4,1,1,45,0,0
30896,-80,4,1,1,45,0,0
30957,-666.666666666667,4,1,1,45,0,0
30977,-80,4,1,1,45,0,0
31038,-666.666666666667,4,1,1,45,0,0
31058,-80,4,1,1,45,0,0
31125,-666.666666666667,4,1,1,45,0,0
31139,-80,4,1,1,45,0,0
31200,-666.666666666667,4,1,1,45,0,0
31220,-80,4,1,1,45,0,0
31281,-666.666666666667,4,1,1,45,0,0
31302,-80,4,1,1,45,0,0
31362,-100,4,1,1,45,0,0
32335,-100,4,1,1,45,0,0
32416,-400,4,1,1,45,0,0
32497,-80,4,1,1,45,0,0
32660,-100,4,1,1,45,0,0
32741,-400,4,1,1,45,0,0
32822,-80,4,1,1,45,0,0
32984,-100,4,1,1,45,0,0
33024,-400,4,1,1,45,0,0
33065,-80,4,1,1,45,0,0
33146,-100,4,1,1,45,0,0
33227,-400,4,1,1,45,0,0
33308,-80,4,1,1,45,0,0
33470,-100,4,1,1,45,0,0
33552,-400,4,1,1,45,0,0
33633,-80,4,1,1,45,0,0
33795,-100,4,1,1,45,0,0
43038,-80,4,1,1,45,0,0
43119,-400,4,1,1,45,0,0
43200,-100,4,1,1,45,0,0
43524,-80,4,1,1,45,0,0
43606,-400,4,1,1,45,0,0
43687,-100,4,1,1,45,0,0
44335,-80,4,1,1,45,0,0
44416,-400,4,1,1,45,0,0
44497,-80,4,1,1,45,0,0
44579,-400,4,1,1,45,0,0
44660,-100,4,1,1,45,0,0
45633,-80,4,1,1,45,0,0
45714,-400,4,1,1,45,0,0
45795,-100,4,1,1,45,0,0
46119,-80,4,1,1,45,0,0
46200,-400,4,1,1,45,0,0
46281,-100,4,1,1,45,0,0
46930,-666.666666666667,4,1,1,45,0,0
46970,-71.4285714285714,4,1,1,45,0,0
47092,-666.666666666667,4,1,1,45,0,0
47133,-71.4285714285714,4,1,1,45,0,0
47254,-666.666666666667,4,1,1,45,0,0
47295,-71.4285714285714,4,1,1,45,0,0
47416,-666.666666666667,4,1,1,45,0,0
47457,-80,4,1,1,45,0,0
47741,-400,4,1,1,45,0,0
47903,-100,4,1,1,45,0,0
47984,-400,4,1,1,45,0,0
48065,-80,4,1,1,45,0,0
48227,-100,4,1,1,45,0,0
56011,-666.666666666667,4,1,1,45,0,0
56052,-71.4285714285714,4,1,1,45,0,0
56173,-666.666666666667,4,1,1,45,0,0
56295,-71.4285714285714,4,1,1,45,0,0
56416,-666.666666666667,4,1,1,45,0,0
56538,-71.4285714285714,4,1,1,45,0,0
56660,-666.666666666667,4,1,1,45,0,0
56781,-71.4285714285714,4,1,1,45,0,0
56903,-666.666666666667,4,1,1,45,0,0
57024,-71.4285714285714,4,1,1,45,0,0
57146,-666.666666666667,4,1,1,45,0,0
57166,-71.4285714285714,4,1,1,45,0,0
57227,-666.666666666667,4,1,1,45,0,0
57349,-71.4285714285714,4,1,1,45,0,0
57470,-666.666666666667,4,1,1,45,0,0
57592,-71.4285714285714,4,1,1,45,0,0
57714,-666.666666666667,4,1,1,45,0,0
57835,-71.4285714285714,4,1,1,45,0,0
57957,-100,4,1,1,45,0,0
58606,-100,4,2,1,45,0,0
61200,-125,4,2,1,45,0,0
66389,-111.111111111111,4,2,1,45,0,0
71254,-100,4,2,1,45,0,0
71335,-400,4,2,1,45,0,0
71416,-80,4,2,1,45,0,0
71579,-100,4,1,1,45,0,0
80660,-400,4,1,1,45,0,0
81308,-100,4,1,1,45,0,0
81389,-400,4,1,1,45,0,0
81470,-80,4,1,1,45,0,0
81633,-100,4,1,1,45,0,0
81714,-400,4,1,1,45,0,0
81795,-80,4,1,1,45,0,0
81957,-100,4,1,1,45,0,0
85768,-66.6666666666667,4,1,1,45,0,0
85849,-1000,4,1,1,45,0,0
86011,-100,4,1,1,45,0,0
86092,-400,4,1,1,45,0,0
86173,-80,4,1,1,45,0,0
86335,-100,4,1,1,45,0,0
86376,-400,4,1,1,45,0,0
86416,-80,4,1,1,45,0,0
86497,-100,4,1,1,45,0,0
86579,-400,4,1,1,45,0,0
86660,-80,4,1,1,45,0,0
86822,-100,4,1,1,45,0,0
86903,-400,4,1,1,45,0,0
86984,-80,4,1,1,45,0,0
87146,-100,4,1,1,45,0,1
95579,-666.666666666667,4,1,1,45,0,1
95619,-80,4,1,1,45,0,1
95741,-666.666666666667,4,1,1,45,0,1
95781,-80,4,1,1,45,0,1
95903,-666.666666666667,4,1,1,45,0,1
95943,-80,4,1,1,45,0,1
96065,-666.666666666667,4,1,1,45,0,1
96106,-80,4,1,1,45,0,1
96227,-100,4,1,1,45,0,1
105308,-666.666666666667,4,1,1,45,0,1
105349,-80,4,1,1,45,0,1
105470,-666.666666666667,4,1,1,45,0,1
105511,-80,4,1,1,45,0,1
105633,-666.666666666667,4,1,1,45,0,1
105673,-80,4,1,1,45,0,1
105795,-666.666666666667,4,1,1,45,0,1
105835,-80,4,1,1,45,0,1
105957,-666.666666666667,4,1,1,45,0,1
105977,-80,4,1,1,45,0,1
106038,-666.666666666667,4,1,1,45,0,1
106058,-80,4,1,1,45,0,1
106119,-666.666666666667,4,1,1,45,0,1
106139,-80,4,1,1,45,0,1
106200,-666.666666666667,4,1,1,45,0,1
106220,-80,4,1,1,45,0,1
106281,-666.666666666667,4,1,1,45,0,1
106302,-80,4,1,1,45,0,1
106362,-666.666666666667,4,1,1,45,0,1
106383,-80,4,1,1,45,0,1
106443,-666.666666666667,4,1,1,45,0,1
106464,-80,4,1,1,45,0,1
106524,-666.666666666667,4,1,1,45,0,1
106545,-80,4,1,1,45,0,1
106606,-333.333333333333,4,1,1,45,0,1
106930,-80,4,1,1,45,0,1
107903,-100,4,1,1,45,0,0

[Colours]
Combo1 : 128,128,128
Combo2 : 255,136,17
Combo3 : 0,128,255

[HitObjects]
36,192,1525,5,0,0:0:0:0:
329,192,1525,1,0,0:0:0:0:
475,192,1687,128,0,2011:0:0:0:0:
36,192,2011,1,0,0:0:0:0:
329,192,2011,1,0,0:0:0:0:
475,192,2173,128,0,2497:0:0:0:0:
182,192,2497,1,0,0:0:0:0:
182,192,2660,1,0,0:0:0:0:
256,192,2741,1,0,0:0:0:0:
329,192,2822,1,0,0:0:0:0:
36,192,2822,1,0,0:0:0:0:
475,192,2984,128,0,3308:0:0:0:0:
36,192,3308,1,0,0:0:0:0:
329,192,3308,1,0,0:0:0:0:
475,192,3470,128,0,3633:0:0:0:0:
329,192,3633,128,0,3795:0:0:0:0:
36,192,3795,1,0,0:0:0:0:
182,192,3876,1,0,0:0:0:0:
475,192,3957,1,0,0:0:0:0:
329,192,4038,1,0,0:0:0:0:
36,192,4119,1,0,0:0:0:0:
109,192,4119,1,0,0:0:0:0:
402,192,4281,1,0,0:0:0:0:
36,192,4606,1,0,0:0:0:0:
109,192,4606,1,0,0:0:0:0:
402,192,4768,1,0,0:0:0:0:
182,192,5092,1,0,0:0:0:0:
182,192,5254,1,0,0:0:0:0:
329,192,5335,1,0,0:0:0:0:
475,192,5416,1,0,0:0:0:0:
36,192,5416,1,0,0:0:0:0:
256,192,5579,1,0,0:0:0:0:
36,192,5903,1,0,0:0:0:0:
475,192,5903,1,0,0:0:0:0:
182,192,6065,128,0,6389:0:0:0:0:
256,192,6065,1,0,0:0:0:0:
475,192,6389,1,0,0:0:0:0:
329,192,6389,128,0,6714:0:0:0:0:
402,192,6389,1,0,0:0:0:0:
36,192,6714,1,0,0:0:0:0:
256,192,6714,1,0,0:0:0:0:
475,192,6714,1,0,0:0:0:0:
109,192,6876,1,0,0:0:0:0:
256,192,7038,1,8,0:0:0:0:
475,192,7038,1,8,0:0:0:0:
329,192,7200,1,0,0:0:0:0:
475,192,7362,1,0,0:0:0:0:
36,192,7362,1,0,0:0:0:0:
182,192,7524,1,0,0:0:0:0:
256,192,7606,1,0,0:0:0:0:
36,192,7687,1,8,0:0:0:0:
329,192,7687,1,8,0:0:0:0:
182,192,7849,1,0,0:0:0:0:
256,192,7930,1,0,0:0:0:0:
329,192,8011,1,0,0:0:0:0:
36,192,8011,1,4,0:0:0:0:
475,192,8011,1,0,0:0:0:0:
402,192,8173,1,0,0:0:0:0:
256,192,8335,1,8,0:0:0:0:
109,192,8335,1,8,0:0:0:0:
475,192,8497,1,0,0:0:0:0:
329,192,8579,1,0,0:0:0:0:
36,192,8660,1,4,0:0:0:0:
182,192,8660,128,0,8822:0:0:0:0:
36,192,8822,1,0,0:0:0:0:
329,192,8903,128,0,9065:0:0:0:0:
36,192,8984,1,8,0:0:0:0:
36,192,9146,1,0,0:0:0:0:
402,192,9146,128,0,9308:0:0:0:0:
36,192,9308,1,0,0:0:0:0:
475,192,9308,128,0,10606:0:0:0:0:
182,192,9308,1,4,0:0:0:0:
36,192,9470,1,0,0:0:0:0:
36,192,9633,1,0,0:0:0:0:
182,192,9633,1,4,0:0:0:0:
36,192,9795,1,0,0:0:0:0:
36,192,9957,1,4,0:0:0:0:
109,192,10038,1,0,0:0:0:0:
182,192,10119,1,0,0:0:0:0:
256,192,10200,1,0,0:0:0:0:
329,192,10281,1,4,0:0:0:0:
256,192,10362,1,0,0:0:0:0:
182,192,10443,1,0,0:0:0:0:
109,192,10524,1,0,0:0:0:0:
36,192,10606,1,0,0:0:0:0:
402,192,10606,1,4,0:0:0:0:
475,192,10768,1,0,0:0:0:0:
256,192,10849,1,0,0:0:0:0:
109,192,10930,1,0,0:0:0:0:
256,192,11011,1,0,0:0:0:0:
402,192,11092,1,0,0:0:0:0:
182,192,11254,1,0,0:0:0:0:
329,192,11254,1,0,0:0:0:0:
36,192,11579,128,4,11903:0:0:0:0:
475,192,11579,128,4,11903:0:0:0:0:
256,192,11579,1,4,0:0:0:0:
329,192,11903,1,4,2:0:0:0:
109,192,11903,1,4,2:0:0:0:
182,192,11903,1,0,0:0:0:0:
402,192,11903,1,0,0:0:0:0:
256,192,12065,1,0,0:0:0:0:
109,192,12227,1,8,0:0:0:0:
475,192,12227,1,8,0:0:0:0:
402,192,12308,128,0,12470:0:0:0:0:
329,192,12389,1,0,0:0:0:0:
109,192,12470,128,0,12714:0:0:0:0:
182,192,12470,1,0,0:0:0:0:
475,192,12552,1,4,0:0:0:0:
36,192,12552,1,4,0:0:0:0:
182,192,12714,1,0,0:0:0:0:
256,192,12795,1,0,0:0:0:0:
329,192,12876,1,8,0:0:0:0:
475,192,12876,1,8,0:0:0:0:
256,192,13038,1,0,0:0:0:0:
402,192,13038,1,0,0:0:0:0:
36,192,13200,1,4,0:0:0:0:
475,192,13200,1,4,0:0:0:0:
182,192,13200,1,0,0:0:0:0:
329,192,13362,1,0,0:0:0:0:
182,192,13524,1,8,0:0:0:0:
36,192,13524,1,8,0:0:0:0:
329,192,13606,128,0,13768:0:0:0:0:
402,192,13606,1,0,0:0:0:0:
182,192,13768,128,0,14011:0:0:0:0:
256,192,13768,1,0,0:0:0:0:
36,192,13849,1,4,0:0:0:0:
256,192,14011,1,0,0:0:0:0:
402,192,14092,1,0,0:0:0:0:
182,192,14173,1,8,0:0:0:0:
36,192,14173,1,8,0:0:0:0:
329,192,14254,1,0,0:0:0:0:
109,192,14335,128,0,14497:0:0:0:0:
36,192,14497,1,4,0:0:0:0:
475,192,14497,1,4,0:0:0:0:
256,192,14660,1,0,0:0:0:0:
402,192,14822,1,8,0:0:0:0:
36,192,14822,1,8,0:0:0:0:
256,192,14903,128,0,15065:0:0:0:0:
109,192,14903,1,0,0:0:0:0:
182,192,15065,128,0,15308:0:0:0:0:
36,192,15065,1,0,0:0:0:0:
109,192,15146,1,4,0:0:0:0:
329,192,15308,1,0,0:0:0:0:
475,192,15389,1,0,0:0:0:0:
256,192,15470,1,8,0:0:0:0:
36,192,15470,1,8,0:0:0:0:
402,192,15552,1,0,0:0:0:0:
182,192,15633,1,0,0:0:0:0:
329,192,15714,1,0,0:0:0:0:
36,192,15795,1,4,0:0:0:0:
109,192,15795,128,4,15876:0:0:0:0:
182,192,15876,128,0,15957:0:0:0:0:
475,192,15957,128,0,16038:0:0:0:0:
402,192,16038,128,0,16119:0:0:0:0:
109,192,16119,128,8,16200:0:0:0:0:
36,192,16119,1,8,0:0:0:0:
182,192,16200,128,0,16281:0:0:0:0:
402,192,16281,128,0,16362:0:0:0:0:
329,192,16362,128,0,16443:0:0:0:0:
36,192,16443,128,4,16524:0:0:0:0:
475,192,16443,1,4,0:0:0:0:
109,192,16524,128,0,16606:0:0:0:0:
329,192,16606,128,0,16687:0:0:0:0:
256,192,16687,128,0,16768:0:0:0:0:
182,192,16768,128,8,17092:0:0:0:0:
475,192,16768,1,8,0:0:0:0:
329,192,17092,1,4,0:0:0:0:
475,192,17092,1,0,0:0:0:0:
36,192,17092,1,0,0:0:0:0:
109,192,17254,1,0,0:0:0:0:
36,192,17335,1,4,0:0:0:0:
256,192,17416,1,8,0:0:0:0:
402,192,17497,128,0,17660:0:0:0:0:
109,192,17579,1,0,0:0:0:0:
256,192,17660,128,0,17903:0:0:0:0:
475,192,17741,1,4,0:0:0:0:
36,192,17741,1,4,0:0:0:0:
109,192,17903,1,0,0:0:0:0:
329,192,17984,1,0,0:0:0:0:
36,192,18065,1,8,0:0:0:0:
182,192,18146,1,0,0:0:0:0:
329,192,18227,1,0,0:0:0:0:
36,192,18389,1,4,0:0:0:0:
475,192,18389,1,4,0:0:0:0:
256,192,18389,1,0,0:0:0:0:
402,192,18389,1,0,0:0:0:0:
329,192,18552,1,0,0:0:0:0:
475,192,18714,1,8,0:0:0:0:
36,192,18714,1,8,0:0:0:0:
182,192,18795,128,0,18957:0:0:0:0:
402,192,18795,1,0,0:0:0:0:
256,192,18876,1,0,0:0:0:0:
475,192,18957,1,0,0:0:0:0:
329,192,18957,128,0,19119:0:0:0:0:
402,192,19038,1,4,0:0:0:0:
109,192,19038,1,4,0:0:0:0:
36,192,19200,128,0,19281:0:0:0:0:
109,192,19281,128,0,19362:0:0:0:0:
182,192,19362,128,8,19443:0:0:0:0:
475,192,19362,1,8,0:0:0:0:
256,192,19443,128,0,19524:0:0:0:0:
329,192,19524,128,0,19687:0:0:0:0:
475,192,19687,1,4,0:0:0:0:
36,192,19687,1,4,0:0:0:0:
109,192,19687,1,0,0:0:0:0:
256,192,19849,1,0,0:0:0:0:
329,192,20011,1,8,0:0:0:0:
182,192,20092,1,0,0:0:0:0:
329,192,20254,1,0,0:0:0:0:
36,192,20335,1,4,0:0:0:0:
475,192,20335,1,4,0:0:0:0:
475,192,20497,1,0,0:0:0:0:
36,192,20497,1,0,0:0:0:0:
36,192,20660,1,8,0:0:0:0:
475,192,20660,1,8,0:0:0:0:
475,192,20822,1,0,0:0:0:0:
36,192,20822,1,0,0:0:0:0:
256,192,20984,128,4,22281:0:0:0:0:
109,192,20984,1,4,0:0:0:0:
402,192,20984,1,0,0:0:0:0:
182,192,21146,1,0,0:0:0:0:
329,192,21146,1,0,0:0:0:0:
109,192,21227,1,0,0:0:0:0:
402,192,21227,1,0,0:0:0:0:
36,192,21308,1,8,0:0:0:0:
475,192,21308,1,8,0:0:0:0:
475,192,21470,1,0,0:0:0:0:
36,192,21470,1,0,0:0:0:0:
109,192,21633,128,4,21957:0:0:0:0:
402,192,21633,128,4,21957:0:0:0:0:
329,192,21957,128,0,22281:0:0:0:0:
182,192,21957,128,0,22281:0:0:0:0:
36,192,22281,128,4,22443:2:0:0:0:
475,192,22281,128,4,22362:2:0:0:0:
109,192,22281,1,0,0:0:0:0:
402,192,22281,1,0,0:0:0:0:
402,192,22443,1,0,0:0:0:0:
256,192,22606,128,8,22687:0:0:0:0:
109,192,22606,1,8,0:0:0:0:
182,192,22606,1,0,0:0:0:0:
402,192,22687,128,0,22768:0:0:0:0:
329,192,22687,1,0,0:0:0:0:
36,192,22768,128,0,22930:0:0:0:0:
475,192,22768,1,0,0:0:0:0:
182,192,22849,128,0,22930:0:0:0:0:
109,192,22930,1,4,0:0:0:0:
256,192,22930,1,4,0:0:0:0:
329,192,23092,1,0,0:0:0:0:
402,192,23173,1,0,0:0:0:0:
36,192,23254,1,8,0:0:0:0:
475,192,23254,1,8,0:0:0:0:
402,192,23335,1,0,0:0:0:0:
182,192,23416,1,0,0:0:0:0:
329,192,23416,1,0,0:0:0:0:
182,192,23497,1,0,0:0:0:0:
36,192,23579,128,4,23741:0:0:0:0:
256,192,23579,1,4,0:0:0:0:
402,192,23579,1,0,0:0:0:0:
182,192,23741,1,0,0:0:0:0:
475,192,23903,128,8,24065:0:0:0:0:
256,192,23903,1,8,0:0:0:0:
402,192,23903,1,0,0:0:0:0:
109,192,23984,1,0,0:0:0:0:
329,192,24065,128,0,24227:0:0:0:0:
402,192,24146,1,0,0:0:0:0:
36,192,24227,1,4,0:0:0:0:
182,192,24227,1,4,0:0:0:0:
256,192,24308,1,0,0:0:0:0:
329,192,24389,1,0,0:0:0:0:
402,192,24470,1,0,0:0:0:0:
109,192,24552,1,8,0:0:0:0:
475,192,24552,1,0,0:0:0:0:
182,192,24552,1,0,0:0:0:0:
256,192,24633,1,0,0:0:0:0:
329,192,24714,1,0,0:0:0:0:
182,192,24714,1,0,0:0:0:0:
475,192,24876,128,4,25038:0:0:0:0:
182,192,24876,1,4,0:0:0:0:
36,192,25038,128,0,25200:0:0:0:0:
329,192,25038,1,0,0:0:0:0:
256,192,25200,1,8,0:0:0:0:
109,192,25200,1,8,0:0:0:0:
475,192,25362,128,0,25524:0:0:0:0:
402,192,25362,1,0,0:0:0:0:
36,192,25524,128,4,25687:0:0:0:0:
329,192,25524,1,4,0:0:0:0:
182,192,25524,1,0,0:0:0:0:
256,192,25687,1,0,0:0:0:0:
329,192,25768,1,0,0:0:0:0:
182,192,25849,1,8,0:0:0:0:
402,192,25849,1,8,0:0:0:0:
329,192,26011,1,0,0:0:0:0:
182,192,26092,1,0,0:0:0:0:
36,192,26173,128,4,26497:0:0:0:0:
109,192,26173,1,4,0:0:0:0:
329,192,26173,128,0,26254:0:0:0:0:
402,192,26254,128,0,26335:0:0:0:0:
475,192,26335,128,0,26416:0:0:0:0:
402,192,26416,128,0,26497:0:0:0:0:
109,192,26497,128,8,26822:0:0:0:0:
182,192,26497,1,8,0:0:0:0:
329,192,26497,128,0,26579:0:0:0:0:
402,192,26579,128,0,26660:0:0:0:0:
329,192,26660,128,0,26741:0:0:0:0:
402,192,26741,128,0,26822:0:0:0:0:
36,192,26822,1,4,0:0:0:0:
475,192,26822,128,4,26903:0:0:0:0:
402,192,26903,128,0,26984:0:0:0:0:
36,192,26984,1,0,0:0:0:0:
329,192,26984,128,0,27065:0:0:0:0:
402,192,27065,128,0,27146:0:0:0:0:
182,192,27146,128,8,27470:0:0:0:0:
36,192,27146,1,8,0:0:0:0:
475,192,27146,1,0,0:0:0:0:
475,192,27308,1,0,0:0:0:0:
36,192,27308,1,0,0:0:0:0:
36,192,27470,1,4,0:0:0:0:
475,192,27470,1,0,0:0:0:0:
329,192,27470,1,0,0:0:0:0:
402,192,27470,128,0,27633:0:0:0:0:
109,192,27633,128,0,27795:0:0:0:0:
256,192,27633,1,0,0:0:0:0:
475,192,27795,1,8,0:0:0:0:
329,192,27795,1,8,0:0:0:0:
402,192,27876,128,0,28038:0:0:0:0:
182,192,27957,1,0,0:0:0:0:
256,192,28038,1,0,0:0:0:0:
109,192,28038,128,4,28200:0:0:0:0:
475,192,28119,1,0,0:0:0:0:
329,192,28119,1,4,0:0:0:0:
256,192,28281,1,0,0:0:0:0:
329,192,28362,1,0,0:0:0:0:
182,192,28443,1,8,0:0:0:0:
475,192,28443,1,8,0:0:0:0:
36,192,28443,1,0,0:0:0:0:
329,192,28606,1,0,0:0:0:0:
182,192,28687,1,0,0:0:0:0:
329,192,28768,1,4,0:0:0:0:
475,192,28768,128,4,28930:0:0:0:0:
36,192,28768,1,0,0:0:0:0:
402,192,28768,1,0,0:0:0:0:
109,192,28930,1,0,0:0:0:0:
329,192,29092,128,8,29254:0:0:0:0:
256,192,29092,1,8,0:0:0:0:
109,192,29254,1,0,0:0:0:0:
402,192,29254,1,0,0:0:0:0:
109,192,29335,1,0,0:0:0:0:
402,192,29335,1,0,0:0:0:0:
182,192,29416,128,4,29579:0:0:0:0:
475,192,29416,128,4,29579:0:0:0:0:
256,192,29416,1,4,0:0:0:0:
36,192,29416,1,0,0:0:0:0:
109,192,29579,128,0,29741:0:0:0:0:
402,192,29579,128,0,29741:0:0:0:0:
36,192,29741,128,8,29903:0:0:0:0:
329,192,29741,128,8,29903:0:0:0:0:
109,192,29903,1,0,0:0:0:0:
182,192,29943,1,0,0:0:0:0:
256,192,29984,1,0,0:0:0:0:
329,192,30024,1,0,0:0:0:0:
402,192,30065,1,4,0:0:0:0:
36,192,30065,1,0,0:0:0:0:
475,192,30065,1,0,0:0:0:0:
109,192,30227,1,0,0:0:0:0:
475,192,30227,1,0,0:0:0:0:
36,192,30389,1,4,0:0:0:0:
329,192,30389,1,4,0:0:0:0:
402,192,30552,1,0,0:0:0:0:
109,192,30552,1,0,0:0:0:0:
475,192,30714,1,0,0:0:0:0:
329,192,30714,1,0,0:0:0:0:
182,192,30795,1,0,0:0:0:0:
36,192,30795,1,0,0:0:0:0:
475,192,30876,1,0,0:0:0:0:
402,192,30876,1,0,0:0:0:0:
109,192,30957,1,0,0:0:0:0:
36,192,30957,1,0,0:0:0:0:
475,192,31038,1,0,0:0:0:0:
329,192,31038,1,0,0:0:0:0:
182,192,31119,1,0,0:0:0:0:
36,192,31119,1,0,0:0:0:0:
329,192,31200,1,0,0:0:0:0:
402,192,31200,1,0,0:0:0:0:
182,192,31281,1,0,0:0:0:0:
109,192,31281,1,0,0:0:0:0:
329,192,31362,1,0,0:0:0:0:
475,192,31362,1,0,0:0:0:0:
402,192,31362,128,0,32335:0:0:0:0:
182,192,32335,1,4,0:0:0:0:
329,192,32335,1,4,0:0:0:0:
36,192,32335,1,0,0:0:0:0:
475,192,32335,1,0,0:0:0:0:
36,192,32660,1,0,0:0:0:0:
109,192,32660,1,8,0:0:0:0:
475,192,32660,1,0,0:0:0:0:
402,192,32660,1,0,0:0:0:0:
182,192,32984,1,8,0:0:0:0:
329,192,32984,1,0,0:0:0:0:
36,192,32984,1,0,0:0:0:0:
109,192,33146,1,8,0:0:0:0:
256,192,33146,1,0,0:0:0:0:
402,192,33146,1,4,0:0:0:0:
109,192,33470,1,8,0:0:0:0:
402,192,33470,1,0,0:0:0:0:
256,192,33470,1,0,0:0:0:0:
109,192,33795,128,4,34849:0:0:0:0:
402,192,33795,128,4,34849:0:0:0:0:
256,192,33795,1,0,0:0:0:0:
256,192,34849,128,0,35254:0:0:0:0:
182,192,35254,1,0,0:0:0:0:
36,192,35254,1,0,0:0:0:0:
36,192,35416,1,0,0:0:0:0:
182,192,35416,1,0,0:0:0:0:
109,192,35579,1,0,0:0:0:0:
329,192,35579,1,0,0:0:0:0:
182,192,35660,1,0,0:0:0:0:
402,192,35660,1,0,0:0:0:0:
256,192,35741,1,0,0:0:0:0:
475,192,35741,1,0,0:0:0:0:
109,192,35903,1,0,0:0:0:0:
329,192,35903,1,0,0:0:0:0:
256,192,35984,1,0,0:0:0:0:
36,192,35984,1,0,0:0:0:0:
182,192,36065,1,0,0:0:0:0:
402,192,36065,1,0,0:0:0:0:
475,192,36146,1,0,0:0:0:0:
256,192,36146,1,0,0:0:0:0:
36,192,36227,1,0,0:0:0:0:
402,192,36227,1,8,0:0:0:0:
182,192,36227,1,0,0:0:0:0:
36,192,36552,1,0,0:0:0:0:
329,192,36552,1,0,0:0:0:0:
36,192,36876,1,0,0:0:0:0:
402,192,36876,1,0,0:0:0:0:
256,192,37200,128,0,37524:0:0:0:0:
475,192,37200,1,0,0:0:0:0:
402,192,37524,1,0,0:0:0:0:
329,192,37524,1,0,0:0:0:0:
36,192,37524,1,8,0:0:0:0:
109,192,37524,1,4,0:0:0:0:
256,192,37849,1,4,2:0:0:0:
36,192,37849,1,4,0:0:0:0:
475,192,37849,1,0,0:0:0:0:
329,192,38011,128,0,38173:0:0:0:0:
109,192,38011,1,0,0:0:0:0:
402,192,38173,1,8,0:0:0:0:
256,192,38173,1,0,0:0:0:0:
182,192,38173,128,0,38497:0:0:0:0:
36,192,38335,128,0,38497:0:0:0:0:
475,192,38497,1,4,0:0:0:0:
256,192,38497,1,4,0:0:0:0:
402,192,38497,1,0,0:0:0:0:
329,192,38579,1,0,0:0:0:0:
402,192,38660,1,0,0:0:0:0:
109,192,38660,128,0,38822:0:0:0:0:
256,192,38741,1,0,0:0:0:0:
36,192,38822,1,8,0:0:0:0:
329,192,38822,1,8,0:0:0:0:
475,192,38984,1,0,0:0:0:0:
182,192,38984,1,0,0:0:0:0:
256,192,39065,1,0,0:0:0:0:
36,192,39146,1,4,0:0:0:0:
402,192,39146,1,4,0:0:0:0:
329,192,39146,128,0,39308:0:0:0:0:
109,192,39308,128,0,39470:0:0:0:0:
329,192,39470,1,8,0:0:0:0:
182,192,39470,1,8,0:0:0:0:
36,192,39470,1,0,0:0:0:0:
402,192,39552,1,0,0:0:0:0:
475,192,39633,1,0,0:0:0:0:
256,192,39714,1,0,0:0:0:0:
182,192,39795,1,4,0:0:0:0:
36,192,39795,1,4,0:0:0:0:
475,192,39795,128,0,39957:0:0:0:0:
109,192,39957,1,0,0:0:0:0:
402,192,39957,128,0,40119:0:0:0:0:
256,192,40119,1,8,0:0:0:0:
329,192,40119,128,8,40281:0:0:0:0:
36,192,40119,1,0,0:0:0:0:
182,192,40281,1,0,0:0:0:0:
402,192,40281,128,0,40443:0:0:0:0:
36,192,40443,1,4,0:0:0:0:
475,192,40443,1,0,0:0:0:0:
182,192,40606,128,0,40768:0:0:0:0:
329,192,40606,128,0,40768:0:0:0:0:
256,192,40768,1,8,0:0:0:0:
36,192,40768,1,8,0:0:0:0:
475,192,40768,1,0,0:0:0:0:
182,192,40930,1,0,0:0:0:0:
402,192,40930,128,0,41092:0:0:0:0:
109,192,40930,128,0,41092:0:0:0:0:
475,192,41092,1,4,0:0:0:0:
329,192,41092,1,4,0:0:0:0:
36,192,41092,1,0,0:0:0:0:
256,192,41173,1,0,0:0:0:0:
109,192,41254,1,0,0:0:0:0:
329,192,41335,1,0,0:0:0:0:
475,192,41416,1,8,0:0:0:0:
36,192,41416,1,8,0:0:0:0:
182,192,41416,1,0,0:0:0:0:
256,192,41579,1,0,0:0:0:0:
402,192,41579,1,0,0:0:0:0:
36,192,41741,1,4,0:0:0:0:
182,192,41741,1,4,0:0:0:0:
475,192,41741,128,0,41903:0:0:0:0:
256,192,41903,1,0,0:0:0:0:
109,192,41903,1,0,0:0:0:0:
329,192,41903,128,0,42065:0:0:0:0:
402,192,42065,128,8,42227:0:0:0:0:
36,192,42065,1,8,0:0:0:0:
182,192,42065,1,0,0:0:0:0:
109,192,42227,1,0,0:0:0:0:
256,192,42227,1,0,0:0:0:0:
475,192,42227,128,0,42389:0:0:0:0:
182,192,42308,1,0,0:0:0:0:
329,192,42308,1,0,0:0:0:0:
36,192,42389,128,4,43038:0:0:0:0:
256,192,42389,1,4,0:0:0:0:
402,192,42389,128,0,42552:0:0:0:0:
109,192,42552,128,0,42714:0:0:0:0:
402,192,42714,128,8,43038:0:0:0:0:
329,192,42714,1,8,0:0:0:0:
182,192,42714,1,0,0:0:0:0:
475,192,42714,1,0,0:0:0:0:
475,192,43038,1,4,0:0:0:0:
256,192,43038,128,4,43200:0:0:0:0:
109,192,43200,1,0,0:0:0:0:
36,192,43362,1,8,0:0:0:0:
329,192,43362,1,8,0:0:0:0:
475,192,43524,1,0,0:0:0:0:
109,192,43524,128,0,43687:0:0:0:0:
402,192,43687,1,4,0:0:0:0:
329,192,43849,1,0,0:0:0:0:
36,192,44011,1,8,0:0:0:0:
475,192,44011,1,0,0:0:0:0:
182,192,44011,1,0,0:0:0:0:
109,192,44173,1,0,0:0:0:0:
256,192,44335,1,4,0:0:0:0:
475,192,44335,128,4,44497:0:0:0:0:
36,192,44335,1,4,0:0:0:0:
36,192,44497,1,0,0:0:0:0:
256,192,44497,1,0,0:0:0:0:
402,192,44497,128,0,44660:0:0:0:0:
182,192,44660,1,8,0:0:0:0:
329,192,44660,1,8,0:0:0:0:
36,192,44822,1,0,0:0:0:0:
475,192,44822,1,0,0:0:0:0:
182,192,44984,1,4,0:0:0:0:
329,192,44984,1,4,0:0:0:0:
402,192,44984,128,0,45146:0:0:0:0:
36,192,45146,1,0,0:0:0:0:
256,192,45146,128,0,45308:0:0:0:0:
182,192,45308,1,8,0:0:0:0:
109,192,45308,128,8,45470:0:0:0:0:
475,192,45470,1,0,0:0:0:0:
402,192,45470,128,0,45633:0:0:0:0:
256,192,45633,1,4,0:0:0:0:
36,192,45633,1,0,0:0:0:0:
329,192,45633,128,0,45795:0:0:0:0:
109,192,45795,1,0,0:0:0:0:
475,192,45957,1,8,0:0:0:0:
182,192,45957,1,8,0:0:0:0:
36,192,46119,1,0,0:0:0:0:
256,192,46119,128,0,46281:0:0:0:0:
109,192,46281,1,4,0:0:0:0:
475,192,46281,1,4,0:0:0:0:
402,192,46443,1,0,0:0:0:0:
109,192,46606,1,8,0:0:0:0:
475,192,46606,1,8,0:0:0:0:
329,192,46606,128,0,46768:0:0:0:0:
182,192,46768,128,0,46930:0:0:0:0:
256,192,46930,128,6,47579:0:0:0:0:
36,192,46930,1,2,0:0:0:0:
475,192,46930,1,0,0:0:0:0:
36,192,47092,1,2,0:0:0:0:
475,192,47092,1,0,0:0:0:0:
36,192,47254,1,2,0:0:0:0:
475,192,47254,1,0,0:0:0:0:
36,192,47416,1,2,0:0:0:0:
475,192,47416,1,0,0:0:0:0:
36,192,47579,1,2,0:0:0:0:
402,192,47579,128,0,47903:0:0:0:0:
475,192,47579,1,0,0:0:0:0:
182,192,47579,128,0,47903:0:0:0:0:
36,192,47903,1,4,0:0:0:0:
109,192,47903,128,0,48227:0:0:0:0:
475,192,47903,1,0,0:0:0:0:
329,192,47903,128,0,48227:0:0:0:0:
256,192,48227,1,4,0:0:0:0:
402,192,48227,1,0,0:0:0:0:
36,192,48227,1,0,0:0:0:0:
475,192,48389,1,0,0:0:0:0:
182,192,48389,1,0,0:0:0:0:
256,192,48470,1,0,0:0:0:0:
329,192,48552,1,0,0:0:0:0:
109,192,48552,1,0,0:0:0:0:
36,192,48552,1,0,0:0:0:0:
256,192,48633,1,0,0:0:0:0:
402,192,48714,1,0,0:0:0:0:
182,192,48714,1,0,0:0:0:0:
475,192,48876,1,4,0:0:0:0:
36,192,48876,1,4,0:0:0:0:
329,192,48957,1,0,0:0:0:0:
182,192,48957,1,0,0:0:0:0:
475,192,49038,1,0,0:0:0:0:
36,192,49038,1,0,0:0:0:0:
182,192,49119,1,0,0:0:0:0:
329,192,49119,1,0,0:0:0:0:
475,192,49200,1,0,0:0:0:0:
36,192,49200,1,0,0:0:0:0:
256,192,49200,128,0,49524:0:0:0:0:
109,192,49362,128,0,49524:0:0:0:0:
329,192,49524,128,4,49687:0:0:0:0:
475,192,49524,1,4,0:0:0:0:
36,192,49524,1,0,0:0:0:0:
182,192,49687,128,0,49849:0:0:0:0:
402,192,49687,1,0,0:0:0:0:
329,192,49849,128,0,50011:0:0:0:0:
36,192,49849,1,0,0:0:0:0:
475,192,49849,1,0,0:0:0:0:
402,192,50011,128,0,50173:0:0:0:0:
109,192,50011,1,0,0:0:0:0:
475,192,50173,128,4,50822:0:0:0:0:
36,192,50173,1,4,0:0:0:0:
256,192,50173,1,0,0:0:0:0:
36,192,50335,1,0,0:0:0:0:
256,192,50335,1,0,0:0:0:0:
109,192,50497,1,0,0:0:0:0:
36,192,50497,1,0,0:0:0:0:
182,192,50497,128,0,50822:0:0:0:0:
402,192,50579,1,0,0:0:0:0:
329,192,50579,1,0,0:0:0:0:
109,192,50660,1,0,0:0:0:0:
36,192,50660,1,0,0:0:0:0:
329,192,50741,1,0,0:0:0:0:
402,192,50741,1,0,0:0:0:0:
36,192,50822,1,4,0:0:0:0:
256,192,50822,1,4,0:0:0:0:
109,192,50903,1,0,0:0:0:0:
329,192,50903,1,0,0:0:0:0:
182,192,50984,1,0,0:0:0:0:
402,192,50984,1,0,0:0:0:0:
475,192,51065,1,0,0:0:0:0:
256,192,51065,1,0,0:0:0:0:
402,192,51146,1,0,0:0:0:0:
182,192,51146,1,0,0:0:0:0:
329,192,51227,1,0,0:0:0:0:
109,192,51227,1,0,0:0:0:0:
36,192,51308,1,0,0:0:0:0:
256,192,51308,1,0,0:0:0:0:
109,192,51470,1,4,0:0:0:0:
182,192,51470,1,4,0:0:0:0:
329,192,51552,1,0,0:0:0:0:
402,192,51552,1,0,0:0:0:0:
182,192,51633,1,0,0:0:0:0:
109,192,51633,1,0,0:0:0:0:
256,192,51714,1,0,0:0:0:0:
329,192,51714,1,0,0:0:0:0:
36,192,51795,1,0,0:0:0:0:
475,192,51795,1,0,0:0:0:0:
402,192,51795,128,0,52119:0:0:0:0:
256,192,51957,1,0,0:0:0:0:
36,192,52119,1,4,0:0:0:0:
329,192,52119,1,4,0:0:0:0:
475,192,52119,128,0,52281:0:0:0:0:
109,192,52281,1,0,0:0:0:0:
256,192,52281,128,0,52443:0:0:0:0:
402,192,52443,128,0,52606:0:0:0:0:
329,192,52443,1,0,0:0:0:0:
36,192,52443,1,0,0:0:0:0:
182,192,52606,128,0,52768:0:0:0:0:
109,192,52606,1,0,0:0:0:0:
256,192,52768,1,0,0:0:0:0:
36,192,52768,1,0,0:0:0:0:
329,192,52768,128,0,52930:0:0:0:0:
475,192,52930,128,0,53092:0:0:0:0:
109,192,52930,1,0,0:0:0:0:
256,192,53092,1,0,0:0:0:0:
182,192,53092,128,0,53416:0:0:0:0:
402,192,53092,1,0,0:0:0:0:
256,192,53416,1,4,0:0:0:0:
36,192,53416,1,8,0:0:0:0:
475,192,53416,128,0,53903:0:0:0:0:
402,192,53416,1,0,0:0:0:0:
182,192,53741,1,0,0:0:0:0:
329,192,53741,1,8,0:0:0:0:
109,192,53903,1,0,0:0:0:0:
36,192,53903,128,0,54389:0:0:0:0:
256,192,53903,1,0,0:0:0:0:
402,192,54065,1,0,0:0:0:0:
256,192,54227,1,0,0:0:0:0:
109,192,54227,1,0,0:0:0:0:
329,192,54389,1,0,0:0:0:0:
182,192,54389,128,0,54714:0:0:0:0:
475,192,54389,1,8,0:0:0:0:
475,192,54714,128,4,55200:0:0:0:0:
402,192,54714,1,4,0:0:0:0:
109,192,54714,1,0,0:0:0:0:
402,192,54876,1,0,0:0:0:0:
109,192,54876,1,0,0:0:0:0:
36,192,55038,1,0,0:0:0:0:
256,192,55038,1,8,0:0:0:0:
329,192,55200,128,0,55524:0:0:0:0:
402,192,55200,1,0,0:0:0:0:
109,192,55200,1,0,0:0:0:0:
256,192,55524,1,0,0:0:0:0:
402,192,55524,128,0,55687:0:0:0:0:
36,192,55524,1,0,0:0:0:0:
475,192,55687,128,0,55849:0:0:0:0:
182,192,55687,1,8,0:0:0:0:
109,192,55768,1,0,0:0:0:0:
256,192,55849,128,0,56011:0:0:0:0:
329,192,55849,1,0,0:0:0:0:
36,192,55849,1,0,0:0:0:0:
475,192,56173,1,4,0:0:0:0:
329,192,56173,1,0,0:0:0:0:
36,192,56173,1,8,0:0:0:0:
475,192,56416,1,4,0:0:0:0:
182,192,56416,1,0,0:0:0:0:
36,192,56416,1,8,0:0:0:0:
475,192,56660,1,4,0:0:0:0:
329,192,56660,1,0,0:0:0:0:
36,192,56660,1,8,0:0:0:0:
182,192,56903,1,0,0:0:0:0:
36,192,56903,1,8,0:0:0:0:
475,192,56903,1,4,0:0:0:0:
36,192,57146,1,8,0:0:0:0:
475,192,57146,1,4,0:0:0:0:
329,192,57146,1,0,0:0:0:0:
109,192,57227,1,0,0:0:0:0:
256,192,57227,1,4,0:0:0:0:
36,192,57470,1,4,0:0:0:0:
475,192,57470,1,8,0:0:0:0:
329,192,57470,1,0,0:0:0:0:
402,192,57714,1,0,0:0:0:0:
256,192,57714,1,0,0:0:0:0:
109,192,57714,1,4,0:0:0:0:
475,192,57957,1,8,0:0:0:0:
36,192,57957,1,4,0:0:0:0:
182,192,57957,1,0,0:0:0:0:
329,192,58038,1,0,0:0:0:0:
109,192,58119,1,4,0:0:0:0:
402,192,58200,1,0,0:0:0:0:
256,192,58200,1,4,0:0:0:0:
475,192,58200,1,8,0:0:0:0:
36,192,58281,1,4,0:0:0:0:
182,192,58362,1,4,0:0:0:0:
329,192,58443,1,4,0:0:0:0:
475,192,58443,1,0,0:0:0:0:
182,192,58524,1,4,0:0:0:0:
256,192,58606,128,0,61200:0:0:0:0:
36,192,58606,1,8,0:0:0:0:
475,192,58606,1,0,0:0:0:0:
36,192,59579,128,0,59903:0:0:0:0:
475,192,59903,128,0,60227:0:0:0:0:
109,192,60227,128,0,60389:0:0:0:0:
402,192,60389,128,0,60552:0:0:0:0:
329,192,60552,1,0,0:0:0:0:
109,192,60552,128,0,60714:0:0:0:0:
182,192,60633,1,0,0:0:0:0:
329,192,60714,1,0,0:0:0:0:
402,192,60714,128,0,60876:0:0:0:0:
36,192,60876,1,0,1:0:0:0:
475,192,60876,1,0,0:0:0:0:
36,192,61200,1,4,2:0:0:0:
329,192,61200,1,4,2:0:0:0:
475,192,61200,1,0,0:0:0:0:
182,192,61200,1,0,0:0:0:0:
109,192,61362,1,0,0:0:0:0:
402,192,61362,1,0,0:0:0:0:
475,192,61524,1,0,0:0:0:0:
329,192,61524,1,0,0:0:0:0:
256,192,61687,1,0,0:0:0:0:
109,192,61687,1,0,0:0:0:0:
475,192,61849,1,0,0:0:0:0:
182,192,61849,1,0,0:0:0:0:
36,192,61849,1,0,0:0:0:0:
36,192,62011,1,0,0:0:0:0:
329,192,62011,1,0,0:0:0:0:
182,192,62092,1,0,0:0:0:0:
475,192,62092,1,0,0:0:0:0:
475,192,62254,1,0,0:0:0:0:
182,192,62254,1,0,0:0:0:0:
329,192,62335,1,0,0:0:0:0:
36,192,62335,1,0,0:0:0:0:
36,192,62497,1,0,0:0:0:0:
256,192,62497,1,0,0:0:0:0:
475,192,62497,1,0,0:0:0:0:
402,192,62660,1,0,0:0:0:0:
109,192,62660,1,0,0:0:0:0:
329,192,62741,1,0,0:0:0:0:
36,192,62741,1,0,0:0:0:0:
402,192,62822,1,0,0:0:0:0:
109,192,62822,1,0,0:0:0:0:
182,192,62984,1,0,0:0:0:0:
475,192,62984,1,0,0:0:0:0:
402,192,63146,1,0,0:0:0:0:
109,192,63146,1,0,0:0:0:0:
475,192,63308,1,0,0:0:0:0:
182,192,63308,1,0,0:0:0:0:
402,192,63389,1,0,0:0:0:0:
109,192,63389,1,0,0:0:0:0:
182,192,63470,1,0,0:0:0:0:
475,192,63470,1,0,0:0:0:0:
109,192,63633,1,0,0:0:0:0:
329,192,63633,1,0,0:0:0:0:
182,192,63714,1,0,0:0:0:0:
402,192,63714,1,0,0:0:0:0:
475,192,63795,1,0,0:0:0:0:
256,192,63795,1,0,0:0:0:0:
402,192,63957,1,0,0:0:0:0:
182,192,63957,1,0,0:0:0:0:
36,192,64119,1,0,0:0:0:0:
256,192,64119,1,0,0:0:0:0:
329,192,64281,1,0,0:0:0:0:
109,192,64281,1,0,0:0:0:0:
402,192,64443,1,0,0:0:0:0:
182,192,64443,1,0,0:0:0:0:
256,192,64606,1,0,0:0:0:0:
109,192,64606,1,0,0:0:0:0:
329,192,64687,1,0,0:0:0:0:
182,192,64687,1,0,0:0:0:0:
36,192,64849,1,0,0:0:0:0:
182,192,64849,1,0,0:0:0:0:
109,192,64930,1,0,0:0:0:0:
256,192,64930,1,0,0:0:0:0:
402,192,65092,1,0,0:0:0:0:
475,192,65092,128,0,65254:0:0:0:0:
329,192,65254,128,0,65416:0:0:0:0:
256,192,65254,1,0,0:0:0:0:
182,192,65416,128,0,65579:0:0:0:0:
109,192,65416,1,0,0:0:0:0:
36,192,65579,128,0,65741:0:0:0:0:
402,192,65579,1,0,0:0:0:0:
475,192,65741,128,0,65903:0:0:0:0:
329,192,65741,1,0,0:0:0:0:
256,192,65903,1,0,0:0:0:0:
109,192,65984,1,0,0:0:0:0:
256,192,66065,128,0,66227:0:0:0:0:
402,192,66065,1,0,0:0:0:0:
329,192,66227,1,0,0:0:0:0:
182,192,66308,1,0,0:0:0:0:
475,192,66389,128,0,67687:0:0:0:0:
329,192,66389,1,0,0:0:0:0:
36,192,66389,1,0,0:0:0:0:
109,192,66552,1,0,0:0:0:0:
402,192,66552,1,0,0:0:0:0:
36,192,66714,1,0,0:0:0:0:
329,192,66714,1,0,0:0:0:0:
109,192,66876,1,0,0:0:0:0:
402,192,66876,1,0,0:0:0:0:
329,192,67038,1,0,0:0:0:0:
36,192,67038,1,0,0:0:0:0:
402,192,67200,1,0,0:0:0:0:
182,192,67200,1,0,0:0:0:0:
329,192,67281,1,0,0:0:0:0:
109,192,67281,1,0,0:0:0:0:
329,192,67443,1,0,0:0:0:0:
109,192,67443,1,0,0:0:0:0:
256,192,67524,1,0,0:0:0:0:
36,192,67524,1,0,0:0:0:0:
256,192,67687,1,0,0:0:0:0:
402,192,67687,1,0,0:0:0:0:
36,192,67849,1,0,0:0:0:0:
329,192,67849,1,0,0:0:0:0:
109,192,67930,1,0,0:0:0:0:
402,192,67930,1,0,0:0:0:0:
182,192,68011,1,0,0:0:0:0:
475,192,68011,1,0,0:0:0:0:
109,192,68173,1,0,0:0:0:0:
402,192,68173,1,0,0:0:0:0:
475,192,68335,1,0,0:0:0:0:
256,192,68335,1,0,0:0:0:0:
36,192,68335,1,0,0:0:0:0:
402,192,68497,1,0,0:0:0:0:
109,192,68497,1,0,0:0:0:0:
329,192,68579,1,0,0:0:0:0:
36,192,68579,1,0,0:0:0:0:
402,192,68660,1,0,0:0:0:0:
109,192,68660,1,0,0:0:0:0:
36,192,68822,1,0,0:0:0:0:
329,192,68822,1,0,0:0:0:0:
182,192,68903,1,0,0:0:0:0:
475,192,68903,1,0,0:0:0:0:
256,192,68984,128,0,70281:0:0:0:0:
329,192,68984,1,0,0:0:0:0:
36,192,68984,1,0,0:0:0:0:
402,192,69146,1,0,0:0:0:0:
109,192,69146,1,0,0:0:0:0:
182,192,69308,1,0,0:0:0:0:
36,192,69308,1,0,0:0:0:0:
475,192,69308,1,0,0:0:0:0:
329,192,69470,1,0,0:0:0:0:
182,192,69552,1,0,0:0:0:0:
329,192,69633,1,0,0:0:0:0:
475,192,69633,1,0,0:0:0:0:
36,192,69633,1,0,0:0:0:0:
182,192,69795,1,0,0:0:0:0:
36,192,69795,1,0,0:0:0:0:
329,192,69876,1,0,0:0:0:0:
475,192,69876,1,0,0:0:0:0:
329,192,70038,1,0,0:0:0:0:
475,192,70038,1,0,0:0:0:0:
182,192,70119,1,0,0:0:0:0:
36,192,70119,1,0,0:0:0:0:
329,192,70281,128,0,70443:0:0:0:0:
402,192,70281,1,0,0:0:0:0:
36,192,70281,1,0,0:0:0:0:
182,192,70443,1,0,0:0:0:0:
329,192,70606,128,0,70768:0:0:0:0:
475,192,70606,1,0,0:0:0:0:
109,192,70606,1,0,0:0:0:0:
182,192,70768,1,0,0:0:0:0:
36,192,70930,1,0,0:0:0:0:
402,192,70930,1,0,0:0:0:0:
256,192,70930,128,0,71092:0:0:0:0:
109,192,71092,128,0,71254:0:0:0:0:
402,192,71254,1,4,0:0:0:0:
475,192,71254,128,4,71579:0:0:0:0:
36,192,71254,1,0,0:0:0:0:
182,192,71579,1,0,0:0:0:0:
36,192,71579,1,0,0:0:0:0:
256,192,71579,128,0,71903:0:0:0:0:
329,192,71579,1,0,0:0:0:0:
36,192,71741,1,0,0:0:0:0:
329,192,71741,1,0,0:0:0:0:
182,192,71903,128,0,72065:0:0:0:0:
109,192,71903,1,0,0:0:0:0:
475,192,71903,1,0,0:0:0:0:
402,192,71903,1,0,0:0:0:0:
109,192,72065,128,0,72876:0:0:0:0:
329,192,72065,1,0,0:0:0:0:
36,192,72065,1,0,0:0:0:0:
475,192,72227,1,0,0:0:0:0:
256,192,72227,1,0,0:0:0:0:
402,192,72389,1,0,0:0:0:0:
329,192,72470,1,0,0:0:0:0:
182,192,72552,1,0,0:0:0:0:
36,192,72552,1,0,0:0:0:0:
256,192,72633,1,0,0:0:0:0:
402,192,72714,1,0,0:0:0:0:
182,192,72876,1,0,0:0:0:0:
475,192,72876,1,0,0:0:0:0:
36,192,72876,128,0,73038:0:0:0:0:
329,192,73038,1,0,0:0:0:0:
475,192,73119,1,0,0:0:0:0:
109,192,73200,1,0,0:0:0:0:
256,192,73200,1,0,0:0:0:0:
475,192,73362,1,0,0:0:0:0:
182,192,73362,1,0,0:0:0:0:
36,192,73524,128,0,73687:0:0:0:0:
256,192,73524,1,0,0:0:0:0:
402,192,73524,1,0,0:0:0:0:
329,192,73687,1,0,0:0:0:0:
475,192,73687,128,0,73849:0:0:0:0:
182,192,73768,1,0,0:0:0:0:
36,192,73849,128,0,74011:0:0:0:0:
109,192,73849,1,0,0:0:0:0:
256,192,73849,1,0,0:0:0:0:
329,192,73930,1,0,0:0:0:0:
182,192,74011,128,0,74173:0:0:0:0:
475,192,74173,128,0,74335:0:0:0:0:
109,192,74173,1,0,0:0:0:0:
402,192,74173,1,0,0:0:0:0:
36,192,74335,128,0,74497:0:0:0:0:
329,192,74335,1,0,0:0:0:0:
182,192,74497,1,0,0:0:0:0:
402,192,74497,128,0,74660:0:0:0:0:
329,192,74660,1,0,0:0:0:0:
36,192,74660,128,0,74822:0:0:0:0:
256,192,74660,128,0,75470:0:0:0:0:
182,192,74822,1,0,0:0:0:0:
475,192,74822,1,0,0:0:0:0:
402,192,74984,1,0,0:0:0:0:
109,192,74984,1,0,0:0:0:0:
36,192,75065,1,0,0:0:0:0:
329,192,75065,1,0,0:0:0:0:
109,192,75146,1,0,0:0:0:0:
402,192,75146,1,0,0:0:0:0:
475,192,75227,1,0,0:0:0:0:
182,192,75227,1,0,0:0:0:0:
109,192,75308,1,0,0:0:0:0:
402,192,75308,1,0,0:0:0:0:
36,192,75470,128,0,75633:0:0:0:0:
182,192,75470,1,0,0:0:0:0:
329,192,75470,1,0,0:0:0:0:
109,192,75633,1,0,0:0:0:0:
36,192,75795,128,0,75957:0:0:0:0:
475,192,75795,1,0,0:0:0:0:
329,192,75795,1,0,0:0:0:0:
256,192,75957,1,0,0:0:0:0:
36,192,76119,128,0,76768:0:0:0:0:
402,192,76119,1,0,0:0:0:0:
109,192,76281,1,0,0:0:0:0:
329,192,76362,1,0,0:0:0:0:
109,192,76443,1,0,0:0:0:0:
182,192,76606,1,0,0:0:0:0:
329,192,76606,1,0,0:0:0:0:
402,192,76687,1,0,0:0:0:0:
256,192,76687,1,0,0:0:0:0:
475,192,76768,128,4,77416:0:0:0:0:
109,192,76768,1,4,0:0:0:0:
329,192,76768,1,0,0:0:0:0:
402,192,76930,1,0,0:0:0:0:
329,192,77092,1,0,0:0:0:0:
109,192,77092,1,0,0:0:0:0:
182,192,77254,1,0,0:0:0:0:
109,192,77416,128,4,78065:0:0:0:0:
329,192,77416,1,4,0:0:0:0:
36,192,77416,1,0,0:0:0:0:
402,192,77416,1,0,0:0:0:0:
182,192,77579,1,0,0:0:0:0:
475,192,77741,1,0,0:0:0:0:
256,192,77741,1,0,0:0:0:0:
36,192,77903,1,0,0:0:0:0:
182,192,77984,1,0,0:0:0:0:
475,192,78065,1,4,0:0:0:0:
402,192,78065,128,0,78714:0:0:0:0:
256,192,78065,1,0,0:0:0:0:
329,192,78065,1,0,0:0:0:0:
182,192,78227,1,0,0:0:0:0:
109,192,78308,1,0,0:0:0:0:
475,192,78389,1,0,0:0:0:0:
256,192,78389,1,0,0:0:0:0:
36,192,78552,1,0,0:0:0:0:
109,192,78633,1,0,0:0:0:0:
475,192,78714,1,4,0:0:0:0:
182,192,78714,128,0,79362:0:0:0:0:
329,192,78714,1,0,0:0:0:0:
256,192,78714,1,0,0:0:0:0:
36,192,78876,1,0,0:0:0:0:
109,192,78957,1,0,0:0:0:0:
329,192,79038,1,0,0:0:0:0:
475,192,79038,1,0,0:0:0:0:
402,192,79200,1,0,0:0:0:0:
329,192,79281,1,0,0:0:0:0:
36,192,79362,128,4,79687:0:0:0:0:
256,192,79362,1,4,0:0:0:0:
109,192,79362,1,0,0:0:0:0:
475,192,79362,1,0,0:0:0:0:
109,192,79524,1,0,0:0:0:0:
329,192,79524,1,0,0:0:0:0:
475,192,79687,128,4,80011:0:0:0:0:
182,192,79687,1,4,0:0:0:0:
256,192,79687,1,0,0:0:0:0:
402,192,79687,1,0,0:0:0:0:
402,192,79849,1,0,0:0:0:0:
109,192,79849,1,0,0:0:0:0:
329,192,80011,1,0,0:0:0:0:
182,192,80011,1,0,0:0:0:0:
402,192,80092,1,0,0:0:0:0:
109,192,80092,1,0,0:0:0:0:
475,192,80173,1,0,0:0:0:0:
36,192,80173,1,0,0:0:0:0:
402,192,80254,1,0,0:0:0:0:
109,192,80254,1,0,0:0:0:0:
329,192,80335,1,0,0:0:0:0:
182,192,80335,1,0,0:0:0:0:
402,192,80416,1,0,0:0:0:0:
109,192,80416,1,0,0:0:0:0:
475,192,80497,1,0,0:0:0:0:
36,192,80497,1,0,0:0:0:0:
402,192,80579,1,0,0:0:0:0:
109,192,80579,1,0,0:0:0:0:
182,192,80660,128,0,81633:0:0:0:0:
329,192,80660,128,0,81633:0:0:0:0:
256,192,81633,128,4,81957:0:0:0:0:
36,192,81633,1,4,0:0:0:0:
475,192,81633,1,0,0:0:0:0:
109,192,81957,1,4,0:0:0:0:
475,192,81957,1,0,0:0:0:0:
402,192,81957,1,0,0:0:0:0:
36,192,82119,1,0,0:0:0:0:
256,192,82281,1,0,0:0:0:0:
329,192,82281,1,0,0:0:0:0:
475,192,82362,1,0,0:0:0:0:
182,192,82524,1,0,0:0:0:0:
36,192,82606,1,4,0:0:0:0:
329,192,82606,1,4,0:0:0:0:
402,192,82606,1,4,0:0:0:0:
256,192,82606,128,0,82687:0:0:0:0:
109,192,82687,128,0,82768:0:0:0:0:
182,192,82768,128,0,82849:0:0:0:0:
329,192,82849,128,0,82930:0:0:0:0:
475,192,82930,128,0,83011:0:0:0:0:
402,192,83011,128,0,83092:0:0:0:0:
182,192,83092,128,0,83173:0:0:0:0:
109,192,83173,128,0,83254:0:0:0:0:
256,192,83254,1,4,0:0:0:0:
475,192,83254,1,4,0:0:0:0:
36,192,83254,1,0,0:0:0:0:
329,192,83335,1,0,0:0:0:0:
402,192,83416,1,0,0:0:0:0:
256,192,83497,1,0,0:0:0:0:
109,192,83579,1,0,0:0:0:0:
329,192,83579,1,0,0:0:0:0:
36,192,83660,1,0,0:0:0:0:
256,192,83741,1,0,0:0:0:0:
402,192,83903,1,4,0:0:0:0:
329,192,83903,1,0,0:0:0:0:
475,192,83903,1,0,0:0:0:0:
182,192,83903,128,0,83984:0:0:0:0:
109,192,83984,128,0,84065:0:0:0:0:
256,192,84065,1,0,0:0:0:0:
36,192,84065,128,0,84146:0:0:0:0:
182,192,84146,128,0,84227:0:0:0:0:
475,192,84227,1,0,0:0:0:0:
109,192,84227,128,0,84308:0:0:0:0:
402,192,84308,128,0,84389:0:0:0:0:
329,192,84389,128,0,84470:0:0:0:0:
109,192,84470,128,0,84552:0:0:0:0:
182,192,84552,1,0,0:0:0:0:
36,192,84552,128,0,84714:0:0:0:0:
256,192,84633,1,0,0:0:0:0:
329,192,84714,1,0,0:0:0:0:
402,192,84714,128,0,84876:0:0:0:0:
475,192,84795,1,0,0:0:0:0:
109,192,84876,128,0,85038:0:0:0:0:
182,192,84876,1,0,0:0:0:0:
256,192,84957,1,0,0:0:0:0:
329,192,85038,128,0,85200:0:0:0:0:
475,192,85038,1,0,0:0:0:0:
36,192,85119,1,0,0:0:0:0:
256,192,85200,1,0,0:0:0:0:
475,192,85200,1,0,0:0:0:0:
182,192,85281,1,0,0:0:0:0:
402,192,85281,1,0,0:0:0:0:
109,192,85362,1,0,0:0:0:0:
329,192,85362,1,0,0:0:0:0:
36,192,85443,1,0,0:0:0:0:
256,192,85443,1,0,0:0:0:0:
329,192,85524,1,0,0:0:0:0:
109,192,85524,1,0,0:0:0:0:
402,192,85606,1,0,0:0:0:0:
182,192,85606,1,0,0:0:0:0:
475,192,85687,1,0,0:0:0:0:
256,192,85687,1,0,0:0:0:0:
402,192,85768,1,0,0:0:0:0:
182,192,85768,1,0,0:0:0:0:
475,192,86011,1,12,0:0:0:0:
36,192,86011,1,12,0:0:0:0:
36,192,86335,1,12,0:0:0:0:
475,192,86335,1,12,0:0:0:0:
109,192,86497,1,12,0:0:0:0:
402,192,86497,1,12,0:0:0:0:
182,192,86822,1,4,2:0:0:0:
329,192,86822,1,4,2:0:0:0:
475,192,87146,128,4,88443:2:0:0:0:
109,192,87146,1,4,2:0:0:0:
329,192,87146,1,0,0:0:0:0:
36,192,87146,1,0,0:0:0:0:
402,192,87308,1,0,0:0:0:0:
182,192,87308,1,0,0:0:0:0:
256,192,87470,1,8,0:0:0:0:
36,192,87470,1,0,0:0:0:0:
109,192,87552,1,0,0:0:0:0:
182,192,87633,1,0,0:0:0:0:
329,192,87633,1,0,0:0:0:0:
402,192,87714,1,0,0:0:0:0:
329,192,87795,1,4,0:0:0:0:
36,192,87795,1,4,0:0:0:0:
256,192,87957,1,0,0:0:0:0:
109,192,87957,1,0,0:0:0:0:
36,192,88119,1,8,0:0:0:0:
402,192,88119,1,8,0:0:0:0:
182,192,88281,1,0,0:0:0:0:
109,192,88281,1,0,0:0:0:0:
256,192,88443,128,4,89741:0:0:0:0:
329,192,88443,1,0,0:0:0:0:
36,192,88606,1,0,0:0:0:0:
182,192,88606,1,0,0:0:0:0:
109,192,88768,1,8,0:0:0:0:
329,192,88768,1,8,0:0:0:0:
475,192,88768,1,0,0:0:0:0:
402,192,88849,1,0,0:0:0:0:
329,192,88930,1,0,0:0:0:0:
182,192,89011,1,0,0:0:0:0:
109,192,89092,1,4,0:0:0:0:
475,192,89092,1,4,0:0:0:0:
329,192,89254,1,0,0:0:0:0:
36,192,89254,1,0,0:0:0:0:
109,192,89335,1,0,0:0:0:0:
402,192,89416,1,8,0:0:0:0:
475,192,89416,1,8,0:0:0:0:
329,192,89497,1,0,0:0:0:0:
36,192,89579,1,0,0:0:0:0:
182,192,89579,1,0,0:0:0:0:
402,192,89741,1,4,0:0:0:0:
475,192,89741,1,4,0:0:0:0:
36,192,89741,1,0,0:0:0:0:
182,192,89903,1,0,0:0:0:0:
329,192,89903,1,0,0:0:0:0:
256,192,90065,1,8,0:0:0:0:
109,192,90065,1,0,0:0:0:0:
402,192,90065,1,0,0:0:0:0:
475,192,90146,1,0,0:0:0:0:
329,192,90227,1,0,0:0:0:0:
182,192,90308,1,0,0:0:0:0:
36,192,90389,1,4,0:0:0:0:
256,192,90389,1,4,0:0:0:0:
475,192,90552,1,0,0:0:0:0:
329,192,90552,1,0,0:0:0:0:
109,192,90633,1,0,0:0:0:0:
402,192,90714,1,8,0:0:0:0:
256,192,90714,1,8,0:0:0:0:
36,192,90795,1,0,0:0:0:0:
329,192,90876,1,0,0:0:0:0:
182,192,90876,1,0,0:0:0:0:
36,192,91038,1,4,0:0:0:0:
402,192,91038,128,4,91119:0:0:0:0:
256,192,91119,128,0,91200:0:0:0:0:
109,192,91119,1,0,0:0:0:0:
329,192,91200,128,0,91281:0:0:0:0:
475,192,91200,1,0,0:0:0:0:
182,192,91281,128,0,91362:0:0:0:0:
402,192,91281,1,0,0:0:0:0:
256,192,91362,128,8,91443:0:0:0:0:
36,192,91362,1,8,0:0:0:0:
402,192,91443,128,0,91524:0:0:0:0:
109,192,91443,1,0,0:0:0:0:
182,192,91524,128,0,91606:0:0:0:0:
36,192,91524,1,0,0:0:0:0:
329,192,91606,128,0,91687:0:0:0:0:
475,192,91606,1,0,0:0:0:0:
36,192,91687,1,4,0:0:0:0:
256,192,91687,128,4,91768:0:0:0:0:
182,192,91768,1,0,0:0:0:0:
402,192,91768,128,0,91849:0:0:0:0:
109,192,91849,1,0,0:0:0:0:
329,192,91849,128,0,91930:0:0:0:0:
36,192,91930,1,0,0:0:0:0:
256,192,91930,128,0,92011:0:0:0:0:
402,192,92011,128,8,92335:0:0:0:0:
109,192,92011,128,8,92335:0:0:0:0:
329,192,92173,1,0,0:0:0:0:
182,192,92173,1,0,0:0:0:0:
36,192,92335,128,4,93633:0:0:0:0:
475,192,92335,1,4,0:0:0:0:
256,192,92335,1,0,0:0:0:0:
182,192,92497,1,0,0:0:0:0:
329,192,92497,1,0,0:0:0:0:
475,192,92660,1,8,0:0:0:0:
256,192,92660,1,8,0:0:0:0:
402,192,92741,1,0,0:0:0:0:
109,192,92822,1,0,0:0:0:0:
182,192,92984,1,4,0:0:0:0:
475,192,92984,1,4,0:0:0:0:
402,192,92984,128,0,93146:0:0:0:0:
329,192,93146,1,0,0:0:0:0:
109,192,93146,128,0,93308:0:0:0:0:
475,192,93146,1,0,0:0:0:0:
256,192,93227,1,0,0:0:0:0:
182,192,93308,1,8,0:0:0:0:
402,192,93308,128,8,93470:0:0:0:0:
109,192,93470,128,0,93633:0:0:0:0:
329,192,93470,1,0,0:0:0:0:
256,192,93633,128,0,94930:0:0:0:0:
402,192,93633,1,0,0:0:0:0:
182,192,93633,1,0,0:0:0:0:
475,192,93633,1,0,0:0:0:0:
329,192,93795,1,0,0:0:0:0:
109,192,93795,1,0,0:0:0:0:
36,192,93957,1,8,0:0:0:0:
182,192,93957,1,0,0:0:0:0:
475,192,93957,1,0,0:0:0:0:
109,192,94038,1,0,0:0:0:0:
402,192,94119,1,0,0:0:0:0:
329,192,94200,1,0,0:0:0:0:
475,192,94281,1,4,0:0:0:0:
182,192,94281,1,4,0:0:0:0:
402,192,94443,1,0,0:0:0:0:
475,192,94443,128,0,94524:0:0:0:0:
36,192,94524,128,0,94606:0:0:0:0:
109,192,94606,1,8,0:0:0:0:
182,192,94606,128,8,94687:0:0:0:0:
329,192,94687,128,0,94768:0:0:0:0:
475,192,94768,128,0,94930:0:0:0:0:
402,192,94768,1,0,0:0:0:0:
36,192,94930,1,4,0:0:0:0:
329,192,94930,1,4,0:0:0:0:
182,192,94930,128,0,95579:0:0:0:0:
109,192,94930,1,0,0:0:0:0:
475,192,95092,1,0,0:0:0:0:
402,192,95092,1,0,0:0:0:0:
329,192,95254,1,8,0:0:0:0:
109,192,95254,1,8,0:0:0:0:
36,192,95335,1,0,0:0:0:0:
256,192,95335,1,0,0:0:0:0:
402,192,95416,1,0,0:0:0:0:
109,192,95416,1,0,0:0:0:0:
36,192,95579,128,4,95741:0:0:0:0:
256,192,95579,128,4,95741:0:0:0:0:
329,192,95741,128,0,95903:0:0:0:0:
109,192,95741,128,0,95903:0:0:0:0:
182,192,95903,128,8,96065:0:0:0:0:
402,192,95903,128,8,96065:0:0:0:0:
256,192,96065,128,0,96227:0:0:0:0:
475,192,96065,128,0,96227:0:0:0:0:
36,192,96227,128,4,96389:0:0:0:0:
329,192,96227,1,4,0:0:0:0:
109,192,96227,1,0,0:0:0:0:
475,192,96389,128,0,96552:0:0:0:0:
182,192,96389,1,0,0:0:0:0:
256,192,96470,1,0,0:0:0:0:
109,192,96552,128,8,96714:0:0:0:0:
329,192,96552,1,8,0:0:0:0:
402,192,96714,128,0,96876:0:0:0:0:
182,192,96714,1,0,0:0:0:0:
256,192,96876,128,4,97200:0:0:0:0:
475,192,96876,1,4,0:0:0:0:
36,192,97200,1,0,0:0:0:0:
109,192,97227,1,0,0:0:0:0:
182,192,97254,1,0,0:0:0:0:
256,192,97281,1,0,0:0:0:0:
329,192,97308,1,0,0:0:0:0:
402,192,97335,1,0,0:0:0:0:
475,192,97362,1,0,0:0:0:0:
36,192,97389,1,0,0:0:0:0:
109,192,97416,1,0,0:0:0:0:
182,192,97443,1,0,0:0:0:0:
256,192,97470,1,0,0:0:0:0:
329,192,97497,1,0,0:0:0:0:
36,192,97524,128,4,98822:2:0:0:0:
109,192,97524,128,0,97687:0:0:0:0:
402,192,97524,1,0,0:0:0:0:
475,192,97524,1,0,0:0:0:0:
402,192,97687,1,0,0:0:0:0:
256,192,97687,1,0,0:0:0:0:
256,192,97849,1,8,0:0:0:0:
475,192,97849,1,8,0:0:0:0:
109,192,97849,128,0,98011:0:0:0:0:
402,192,97930,1,0,0:0:0:0:
329,192,98011,1,0,0:0:0:0:
182,192,98173,1,4,0:0:0:0:
256,192,98173,1,4,0:0:0:0:
475,192,98335,1,0,0:0:0:0:
329,192,98335,1,0,0:0:0:0:
109,192,98416,1,0,0:0:0:0:
256,192,98497,1,8,0:0:0:0:
402,192,98497,1,8,0:0:0:0:
329,192,98579,1,0,0:0:0:0:
182,192,98660,1,0,0:0:0:0:
475,192,98660,1,0,0:0:0:0:
402,192,98822,1,4,0:0:0:0:
329,192,98822,128,4,100119:0:0:0:0:
109,192,98822,128,0,98984:0:0:0:0:
256,192,98984,1,0,0:0:0:0:
475,192,98984,1,0,0:0:0:0:
402,192,99146,1,8,0:0:0:0:
182,192,99146,1,0,0:0:0:0:
109,192,99146,128,0,99308:0:0:0:0:
475,192,99308,1,0,0:0:0:0:
36,192,99308,1,0,0:0:0:0:
109,192,99470,1,4,0:0:0:0:
402,192,99470,1,0,0:0:0:0:
256,192,99470,1,0,0:0:0:0:
475,192,99633,1,0,0:0:0:0:
182,192,99633,128,0,99714:0:0:0:0:
36,192,99714,128,0,99795:0:0:0:0:
475,192,99795,128,8,99876:0:0:0:0:
109,192,99795,1,8,0:0:0:0:
402,192,99876,128,0,99957:0:0:0:0:
256,192,99957,128,0,100038:0:0:0:0:
182,192,100038,128,0,100119:0:0:0:0:
36,192,100119,128,4,101416:0:0:0:0:
109,192,100119,1,4,0:0:0:0:
402,192,100119,1,0,0:0:0:0:
475,192,100119,128,0,100200:0:0:0:0:
402,192,100281,1,0,0:0:0:0:
182,192,100281,128,0,100362:0:0:0:0:
256,192,100443,1,8,0:0:0:0:
329,192,100443,128,8,100524:0:0:0:0:
402,192,100524,128,0,100606:0:0:0:0:
109,192,100606,1,0,0:0:0:0:
475,192,100687,128,0,100930:0:0:0:0:
329,192,100768,1,4,0:0:0:0:
182,192,100768,1,4,0:0:0:0:
109,192,100930,1,0,0:0:0:0:
256,192,100930,1,0,0:0:0:0:
475,192,101092,1,8,0:0:0:0:
402,192,101092,1,8,0:0:0:0:
109,192,101254,1,0,0:0:0:0:
256,192,101254,1,0,0:0:0:0:
329,192,101335,1,0,0:0:0:0:
182,192,101335,1,0,0:0:0:0:
256,192,101416,128,4,102714:0:0:0:0:
475,192,101416,128,4,101579:0:0:0:0:
402,192,101416,1,4,0:0:0:0:
402,192,101579,1,0,0:0:0:0:
109,192,101579,128,0,101660:0:0:0:0:
36,192,101660,128,0,101741:0:0:0:0:
475,192,101741,1,8,0:0:0:0:
329,192,101741,1,8,0:0:0:0:
182,192,101741,128,0,101822:0:0:0:0:
109,192,101822,128,0,101903:0:0:0:0:
402,192,101903,128,0,101984:0:0:0:0:
329,192,101984,128,0,102065:0:0:0:0:
475,192,102065,128,4,102227:0:0:0:0:
36,192,102065,128,4,102146:0:0:0:0:
109,192,102146,128,0,102227:0:0:0:0:
402,192,102227,128,0,102389:0:0:0:0:
329,192,102227,1,0,0:0:0:0:
182,192,102227,128,0,102308:0:0:0:0:
36,192,102308,128,0,102389:0:0:0:0:
329,192,102389,128,8,102552:0:0:0:0:
182,192,102552,128,0,102714:0:0:0:0:
402,192,102552,1,0,0:0:0:0:
36,192,102714,128,4,102876:0:0:0:0:
402,192,102714,1,4,0:0:0:0:
109,192,102714,1,0,0:0:0:0:
475,192,102714,1,0,0:0:0:0:
182,192,102876,1,0,0:0:0:0:
329,192,102876,1,0,0:0:0:0:
256,192,103038,1,8,0:0:0:0:
109,192,103038,1,8,0:0:0:0:
402,192,103119,1,0,0:0:0:0:
329,192,103200,1,0,0:0:0:0:
182,192,103200,1,0,0:0:0:0:
36,192,103200,128,0,103362:0:0:0:0:
475,192,103362,1,4,0:0:0:0:
256,192,103362,1,4,0:0:0:0:
329,192,103443,1,0,0:0:0:0:
402,192,103524,1,0,0:0:0:0:
182,192,103524,1,0,0:0:0:0:
256,192,103606,1,0,0:0:0:0:
329,192,103687,128,8,104011:0:0:0:0:
36,192,103687,1,8,0:0:0:0:
475,192,103687,1,0,0:0:0:0:
182,192,103849,128,0,104011:0:0:0:0:
402,192,103849,1,0,0:0:0:0:
109,192,103849,1,0,0:0:0:0:
475,192,103930,1,0,0:0:0:0:
36,192,103930,1,0,0:0:0:0:
402,192,104011,1,4,0:0:0:0:
256,192,104011,1,4,0:0:0:0:
109,192,104011,1,0,0:0:0:0:
36,192,104173,1,0,0:0:0:0:
182,192,104173,1,0,0:0:0:0:
256,192,104335,1,8,0:0:0:0:
109,192,104335,128,8,104660:0:0:0:0:
402,192,104335,1,0,0:0:0:0:
182,192,104497,1,0,0:0:0:0:
329,192,104497,1,0,0:0:0:0:
256,192,104579,1,0,0:0:0:0:
475,192,104660,128,4,104822:0:0:0:0:
329,192,104660,1,0,0:0:0:0:
36,192,104660,1,0,0:0:0:0:
402,192,104822,128,0,104984:0:0:0:0:
256,192,104822,1,0,0:0:0:0:
329,192,104984,128,8,105308:0:0:0:0:
182,192,104984,1,8,0:0:0:0:
36,192,105308,128,4,105470:0:0:0:0:
182,192,105308,1,4,0:0:0:0:
109,192,105308,1,0,0:0:0:0:
256,192,105308,1,0,0:0:0:0:
402,192,105470,1,0,0:0:0:0:
475,192,105470,1,0,0:0:0:0:
36,192,105633,128,8,105795:0:0:0:0:
182,192,105633,1,8,0:0:0:0:
256,192,105633,1,0,0:0:0:0:
109,192,105633,1,0,0:0:0:0:
475,192,105795,1,0,0:0:0:0:
329,192,105795,1,0,0:0:0:0:
109,192,105957,1,0,0:0:0:0:
402,192,105957,1,0,0:0:0:0:
182,192,106038,1,0,0:0:0:0:
329,192,106038,1,0,0:0:0:0:
109,192,106119,1,0,0:0:0:0:
402,192,106119,1,0,0:0:0:0:
36,192,106200,1,0,0:0:0:0:
475,192,106200,1,0,0:0:0:0:
109,192,106281,1,0,0:0:0:0:
402,192,106281,1,0,0:0:0:0:
182,192,106362,1,0,0:0:0:0:
329,192,106362,1,0,0:0:0:0:
109,192,106443,1,0,0:0:0:0:
402,192,106443,1,0,0:0:0:0:
36,192,106524,1,0,0:0:0:0:
475,192,106524,1,0,0:0:0:0:
36,192,106930,128,0,110497:0:0:0:0:
475,192,106930,128,0,110497:0:0:0:0:
109,192,107579,1,4,0:0:0:0:
402,192,107579,1,4,0:0:0:0:
256,192,107579,128,0,107903:0:0:0:0:
329,192,107903,128,0,110335:0:0:0:0:
182,192,107903,128,0,110335:0:0:0:0:
109,192,109524,1,0,0:0:0:15:
402,192,109524,1,0,0:0:0:15:
402,192,109687,128,0,110497:0:0:0:15:
109,192,109687,128,0,110497:0:0:0:15:
182,192,110497,1,0,2:0:0:25:
329,192,110497,1,4,2:0:0:25:
