osu file format v12

[General]
AudioFilename: TRIGGERHAPPY.mp3
AudioLeadIn: 1000
PreviewTime: 86822
Countdown: 0
SampleSet: Normal
StackLeniency: 0.7
Mode: 3
LetterboxInBreaks: 0
SpecialStyle: 0
WidescreenStoryboard: 1

[Editor]
DistanceSpacing: 1
BeatDivisor: 4
GridSize: 4

[Metadata]
Title:TRIGGER*HAPPY
TitleUnicode:TRIGGER★HAPPY
Artist:P*Light
ArtistUnicode:P*Light
Creator:- R u m i a -
Version:EZ
Source:SOUND VOLTEX BOOTH
Tags:SDVX REFLEC BEAT Expew
BeatmapID:361992
BeatmapSetID:146049

[Difficulty]
HPDrainRate:7
CircleSize:7
OverallDifficulty:7
ApproachRate:8
SliderMultiplier:1.9
SliderTickRate:2

[Events]
//Background and Video events
0,0,"BG.jpg",0,0
//Break Periods
//Storyboard Layer 0 (Background)
//Storyboard Layer 1 (Fail)
//Storyboard Layer 2 (Pass)
//Storyboard Layer 3 (Foreground)
//Storyboard Sound Samples
//Background Colour Transformations
3,100,163,162,255

[TimingPoints]
1525,324.324324324324,4,1,1,45,1,0
58606,-100,4,2,1,45,0,0
71579,-100,4,1,1,45,0,0
87146,-100,4,1,1,45,0,1
107903,-100,4,1,1,45,0,0

[Colours]
Combo1 : 128,128,128
Combo2 : 255,136,17
Combo3 : 0,128,255

[HitObjects]
329,192,1525,1,0,0:0:0:0:
36,192,1525,1,0,0:0:0:0:
36,192,2011,1,0,0:0:0:0:
329,192,2011,1,0,0:0:0:0:
109,192,2822,1,0,0:0:0:0:
402,192,2822,1,0,0:0:0:0:
402,192,3308,1,0,0:0:0:0:
109,192,3308,1,0,0:0:0:0:
256,192,3795,128,0,4119:0:0:0:0:
109,192,4119,1,0,0:0:0:0:
402,192,4119,1,0,0:0:0:0:
109,192,4606,1,0,0:0:0:0:
402,192,4606,1,0,0:0:0:0:
182,192,5416,1,0,0:0:0:0:
475,192,5416,1,0,0:0:0:0:
182,192,5903,1,0,0:0:0:0:
475,192,5903,1,0,0:0:0:0:
329,192,6065,128,0,6714:0:0:0:0:
182,192,6389,128,0,6714:0:0:0:0:
36,192,6714,1,0,0:0:0:0:
475,192,6714,1,0,0:0:0:0:
36,192,8011,1,0,0:0:0:0:
475,192,8011,1,0,0:0:0:0:
475,192,8660,1,0,0:0:0:0:
36,192,8660,1,0,0:0:0:0:
109,192,9308,1,0,0:0:0:0:
402,192,9633,1,0,0:0:0:0:
256,192,9957,128,0,10606:0:0:0:0:
36,192,10606,1,0,0:0:0:0:
475,192,10930,1,0,0:0:0:0:
329,192,11254,1,0,0:0:0:0:
182,192,11579,1,4,0:0:0:0:
36,192,11579,1,0,0:0:0:0:
475,192,11903,1,4,2:0:0:0:
329,192,12227,1,8,0:0:0:0:
182,192,12552,1,4,0:0:0:0:
329,192,12876,1,0,0:0:0:0:
36,192,13200,1,4,0:0:0:0:
182,192,13524,1,8,0:0:0:0:
329,192,13849,1,4,0:0:0:0:
182,192,14173,1,8,0:0:0:0:
36,192,14497,1,4,0:0:0:0:
182,192,14822,1,8,0:0:0:0:
329,192,15146,1,4,0:0:0:0:
256,192,15470,1,8,0:0:0:0:
475,192,15795,1,4,0:0:0:0:
329,192,16119,1,8,0:0:0:0:
256,192,16443,1,4,0:0:0:0:
182,192,16768,1,8,0:0:0:0:
475,192,17092,1,4,0:0:0:0:
36,192,17092,1,4,0:0:0:0:
329,192,17416,1,8,0:0:0:0:
109,192,17741,1,4,0:0:0:0:
256,192,18065,1,8,0:0:0:0:
475,192,18389,1,4,0:0:0:0:
36,192,18389,1,4,0:0:0:0:
329,192,18714,1,8,0:0:0:0:
182,192,19038,1,4,0:0:0:0:
329,192,19362,1,8,0:0:0:0:
36,192,19687,1,4,0:0:0:0:
475,192,19687,1,4,0:0:0:0:
256,192,20011,1,0,0:0:0:0:
36,192,20335,1,4,0:0:0:0:
475,192,20497,1,0,0:0:0:0:
36,192,20660,1,8,0:0:0:0:
475,192,20822,1,0,0:0:0:0:
256,192,20984,1,4,0:0:0:0:
402,192,21308,1,0,0:0:0:0:
109,192,21633,1,0,0:0:0:0:
256,192,21957,128,0,22281:0:0:0:0:
109,192,22281,1,4,2:0:0:0:
402,192,22443,1,0,0:0:0:0:
36,192,22768,1,0,0:0:0:0:
475,192,22930,1,4,0:0:0:0:
256,192,23254,1,8,0:0:0:0:
475,192,23579,1,4,0:0:0:0:
36,192,23741,1,0,0:0:0:0:
475,192,24065,1,0,0:0:0:0:
36,192,24227,1,4,0:0:0:0:
329,192,24552,1,8,0:0:0:0:
109,192,24876,1,4,0:0:0:0:
475,192,25038,1,0,0:0:0:0:
109,192,25362,1,0,0:0:0:0:
475,192,25524,1,4,0:0:0:0:
109,192,25849,1,8,0:0:0:0:
402,192,26173,1,4,0:0:0:0:
329,192,26497,1,8,0:0:0:0:
256,192,26822,1,4,0:0:0:0:
182,192,27146,1,8,0:0:0:0:
36,192,27470,1,4,0:0:0:0:
475,192,27470,1,0,0:0:0:0:
256,192,27633,1,0,0:0:0:0:
36,192,27957,1,0,0:0:0:0:
256,192,28119,1,4,0:0:0:0:
329,192,28443,1,8,0:0:0:0:
36,192,28768,1,4,0:0:0:0:
475,192,28768,1,4,0:0:0:0:
109,192,29092,1,8,0:0:0:0:
402,192,29416,1,0,0:0:0:0:
256,192,29579,1,0,0:0:0:0:
109,192,29741,1,8,0:0:0:0:
36,192,30065,1,4,0:0:0:0:
475,192,30065,1,0,0:0:0:0:
36,192,30389,1,4,0:0:0:0:
475,192,30389,1,4,0:0:0:0:
109,192,30714,1,0,0:0:0:0:
402,192,30876,1,0,0:0:0:0:
109,192,31038,1,0,0:0:0:0:
402,192,31200,1,0,0:0:0:0:
256,192,31362,128,0,32335:0:0:0:0:
109,192,32335,1,0,0:0:0:0:
402,192,32660,1,12,0:0:0:0:
402,192,32984,1,12,0:0:0:0:
256,192,33146,1,12,0:0:0:0:
109,192,33470,1,4,0:0:0:0:
256,192,33795,128,4,35254:0:0:0:0:
109,192,35254,1,0,0:0:0:0:
36,192,35579,1,0,0:0:0:0:
475,192,35903,1,0,0:0:0:0:
329,192,36065,1,0,0:0:0:0:
182,192,36227,1,0,0:0:0:0:
36,192,36552,1,0,0:0:0:0:
256,192,36876,1,0,0:0:0:0:
475,192,37200,1,0,0:0:0:0:
329,192,37524,128,4,37849:0:0:0:0:
182,192,37849,1,4,2:0:0:0:
36,192,38173,1,8,0:0:0:0:
329,192,38497,1,4,0:0:0:0:
475,192,38822,1,8,0:0:0:0:
109,192,39146,1,4,0:0:0:0:
402,192,39470,1,8,0:0:0:0:
329,192,39795,1,4,0:0:0:0:
182,192,39957,1,0,0:0:0:0:
36,192,40119,1,8,0:0:0:0:
329,192,40443,1,4,0:0:0:0:
109,192,40768,1,8,0:0:0:0:
329,192,41092,1,4,0:0:0:0:
109,192,41416,1,8,0:0:0:0:
256,192,41741,1,4,0:0:0:0:
402,192,42065,1,8,0:0:0:0:
182,192,42389,1,4,0:0:0:0:
329,192,42714,1,0,0:0:0:0:
475,192,42714,1,0,0:0:0:0:
36,192,43038,1,4,0:0:0:0:
36,192,43524,1,0,0:0:0:0:
256,192,44011,1,8,0:0:0:0:
36,192,44335,1,4,0:0:0:0:
475,192,44497,1,0,0:0:0:0:
36,192,44822,1,0,0:0:0:0:
329,192,44984,1,0,0:0:0:0:
109,192,45308,1,8,0:0:0:0:
475,192,45633,1,4,0:0:0:0:
36,192,46119,1,0,0:0:0:0:
256,192,46606,1,8,0:0:0:0:
475,192,46930,1,6,0:0:0:0:
36,192,47092,1,6,0:0:0:0:
475,192,47254,1,6,0:0:0:0:
36,192,47416,1,6,0:0:0:0:
475,192,47579,128,6,47903:0:0:0:0:
36,192,47903,128,4,48227:0:0:0:0:
256,192,48227,128,4,49524:0:0:0:0:
402,192,49524,1,4,0:0:0:0:
109,192,49687,1,0,0:0:0:0:
329,192,49849,1,0,0:0:0:0:
402,192,50011,1,0,0:0:0:0:
475,192,50173,128,4,50822:0:0:0:0:
256,192,50822,128,4,51470:0:0:0:0:
182,192,51470,1,4,0:0:0:0:
329,192,51470,1,4,0:0:0:0:
329,192,52119,1,4,0:0:0:0:
182,192,52281,1,0,0:0:0:0:
329,192,52443,1,0,0:0:0:0:
475,192,52606,1,0,0:0:0:0:
329,192,52768,1,0,0:0:0:0:
182,192,52930,1,0,0:0:0:0:
36,192,53092,1,0,0:0:0:0:
402,192,53416,128,4,53903:0:0:0:0:
256,192,53903,128,0,54389:0:0:0:0:
109,192,54389,128,0,54714:0:0:0:0:
402,192,54714,128,4,55200:0:0:0:0:
475,192,55200,128,0,55524:0:0:0:0:
329,192,55524,1,0,0:0:0:0:
182,192,55687,1,0,0:0:0:0:
36,192,55849,1,0,0:0:0:0:
402,192,56173,1,0,0:0:0:0:
109,192,56416,1,0,0:0:0:0:
402,192,56660,1,0,0:0:0:0:
109,192,56903,1,0,0:0:0:0:
402,192,57146,1,0,0:0:0:0:
329,192,57470,1,0,0:0:0:0:
36,192,57714,1,0,0:0:0:0:
475,192,57957,1,0,0:0:0:0:
182,192,58200,1,0,0:0:0:0:
329,192,58443,1,0,0:0:0:0:
36,192,58606,128,0,60552:0:0:0:0:
182,192,60552,1,0,0:0:0:0:
329,192,60876,1,0,1:0:0:0:
475,192,60876,1,0,0:0:0:0:
256,192,61200,1,4,2:0:0:0:
109,192,61200,1,4,2:0:0:0:
402,192,61849,1,0,0:0:0:0:
109,192,62497,1,0,0:0:0:0:
329,192,63146,1,0,0:0:0:0:
182,192,63795,1,0,0:0:0:0:
475,192,64443,1,0,0:0:0:0:
36,192,65092,1,0,0:0:0:0:
329,192,65416,1,0,0:0:0:0:
475,192,65741,1,0,0:0:0:0:
329,192,66065,1,0,0:0:0:0:
109,192,66389,128,0,67687:0:0:0:0:
256,192,67687,128,0,68173:0:0:0:0:
329,192,68173,128,0,68660:0:0:0:0:
182,192,68660,128,0,68984:0:0:0:0:
36,192,68984,128,0,70281:0:0:0:0:
109,192,70281,128,0,71254:0:0:0:0:
402,192,71254,1,4,0:0:0:0:
182,192,71579,1,0,0:0:0:0:
329,192,71903,1,0,0:0:0:0:
109,192,72065,1,0,0:0:0:0:
256,192,72389,1,0,0:0:0:0:
36,192,72552,1,0,0:0:0:0:
402,192,72876,1,0,0:0:0:0:
36,192,73200,1,0,0:0:0:0:
256,192,73524,1,0,0:0:0:0:
402,192,73687,1,0,0:0:0:0:
182,192,73849,1,0,0:0:0:0:
329,192,74011,1,0,0:0:0:0:
109,192,74173,1,0,0:0:0:0:
256,192,74335,1,0,0:0:0:0:
402,192,74497,1,0,0:0:0:0:
475,192,74660,128,0,75470:0:0:0:0:
36,192,75146,1,0,0:0:0:0:
182,192,75308,1,0,0:0:0:0:
329,192,75470,128,0,76768:0:0:0:0:
182,192,76443,128,0,76768:0:0:0:0:
36,192,76768,1,4,0:0:0:0:
475,192,76768,1,4,0:0:0:0:
109,192,77416,1,4,0:0:0:0:
402,192,77416,1,4,0:0:0:0:
182,192,78065,1,4,0:0:0:0:
329,192,78065,1,0,0:0:0:0:
109,192,78714,1,4,0:0:0:0:
402,192,78714,1,0,0:0:0:0:
475,192,79362,1,4,0:0:0:0:
36,192,79362,1,4,0:0:0:0:
109,192,79687,1,4,0:0:0:0:
402,192,79687,1,4,0:0:0:0:
256,192,80011,128,0,80660:0:0:0:0:
109,192,80660,128,0,81633:0:0:0:0:
475,192,81633,1,4,0:0:0:0:
36,192,81957,1,4,0:0:0:0:
329,192,81957,1,0,0:0:0:0:
402,192,82606,1,4,0:0:0:0:
109,192,82606,1,4,0:0:0:0:
329,192,83254,1,4,0:0:0:0:
36,192,83254,1,4,0:0:0:0:
109,192,83903,1,4,0:0:0:0:
402,192,83903,1,0,0:0:0:0:
36,192,84552,1,0,0:0:0:0:
182,192,84552,1,0,0:0:0:0:
329,192,84876,1,0,0:0:0:0:
475,192,84876,1,0,0:0:0:0:
36,192,85200,1,0,0:0:0:0:
182,192,85200,1,0,0:0:0:0:
36,192,86011,1,12,0:0:0:0:
36,192,86335,1,12,0:0:0:0:
329,192,86497,1,12,0:0:0:0:
109,192,86822,1,4,2:0:0:0:
402,192,87146,1,4,2:0:0:0:
109,192,87470,1,8,0:0:0:0:
475,192,87795,1,4,0:0:0:0:
329,192,88119,1,8,0:0:0:0:
182,192,88443,1,4,0:0:0:0:
475,192,88768,1,8,0:0:0:0:
109,192,89092,1,4,0:0:0:0:
402,192,89416,1,8,0:0:0:0:
36,192,89741,1,4,0:0:0:0:
256,192,90065,1,8,0:0:0:0:
475,192,90389,1,4,0:0:0:0:
36,192,90714,1,8,0:0:0:0:
256,192,91038,1,4,0:0:0:0:
329,192,91362,1,8,0:0:0:0:
402,192,91687,1,4,0:0:0:0:
475,192,92011,128,8,92335:0:0:0:0:
109,192,92335,1,4,0:0:0:0:
402,192,92660,1,8,0:0:0:0:
36,192,92984,1,4,0:0:0:0:
329,192,93308,1,8,0:0:0:0:
109,192,93633,1,0,0:0:0:0:
402,192,93957,1,8,0:0:0:0:
36,192,94281,1,4,0:0:0:0:
329,192,94606,1,8,0:0:0:0:
402,192,94930,1,4,0:0:0:0:
256,192,95254,1,8,0:0:0:0:
109,192,95579,1,4,0:0:0:0:
329,192,95741,1,0,0:0:0:0:
109,192,95903,1,8,0:0:0:0:
329,192,96065,1,0,0:0:0:0:
109,192,96227,1,4,0:0:0:0:
256,192,96552,1,8,0:0:0:0:
109,192,96876,1,4,0:0:0:0:
256,192,97200,128,0,97524:0:0:0:0:
36,192,97524,1,4,2:0:0:0:
475,192,97687,1,0,0:0:0:0:
36,192,98011,1,0,0:0:0:0:
475,192,98173,1,4,0:0:0:0:
256,192,98497,1,8,0:0:0:0:
109,192,98822,1,4,0:0:0:0:
329,192,98984,1,0,0:0:0:0:
36,192,99308,1,0,0:0:0:0:
256,192,99470,1,4,0:0:0:0:
256,192,99795,1,8,0:0:0:0:
402,192,100119,1,4,0:0:0:0:
36,192,100281,1,8,0:0:0:0:
475,192,100606,1,0,0:0:0:0:
109,192,100768,1,0,0:0:0:0:
402,192,101416,1,4,0:0:0:0:
36,192,101741,1,8,0:0:0:0:
475,192,102065,1,4,0:0:0:0:
36,192,102227,1,0,0:0:0:0:
475,192,102389,1,8,0:0:0:0:
36,192,102552,1,0,0:0:0:0:
475,192,102714,1,4,0:0:0:0:
329,192,103038,1,8,0:0:0:0:
256,192,103362,1,4,0:0:0:0:
182,192,103687,1,8,0:0:0:0:
475,192,104011,1,4,0:0:0:0:
36,192,104011,1,4,0:0:0:0:
109,192,104660,1,4,0:0:0:0:
402,192,104660,1,0,0:0:0:0:
256,192,104984,1,8,0:0:0:0:
475,192,105308,1,4,0:0:0:0:
36,192,105308,1,4,0:0:0:0:
475,192,105633,1,8,0:0:0:0:
36,192,105633,1,8,0:0:0:0:
182,192,105957,128,0,106606:0:0:0:0:
329,192,106930,128,0,107579:0:0:0:0:
109,192,107579,1,4,0:0:0:0:
256,192,107903,128,0,110497:0:0:0:0:
402,192,110497,1,4,2:0:0:0:
