osu file format v12

[General]
AudioFilename: trigger happy hommarju.mp3
AudioLeadIn: 0
PreviewTime: 132177
Countdown: 1
SampleSet: Soft
StackLeniency: 0.7
Mode: 0
LetterboxInBreaks: 1
WidescreenStoryboard: 0

[Editor]
DistanceSpacing: 1
BeatDivisor: 4
GridSize: 8

[Metadata]
Title:TRIGGER * HAPPY (Hommarju Remix)
TitleUnicode:TRIGGER★HAPPY (Hommarju Remix)
Artist:P*Light
ArtistUnicode:P*Light
Creator:L i d a N
Version:LdN
Source:
Tags:
BeatmapID:315825
BeatmapSetID:123732

[Difficulty]
HPDrainRate:8
CircleSize:4
OverallDifficulty:7
ApproachRate:10
SliderMultiplier:1.4
SliderTickRate:1

[Events]
//Background and Video events
0,0,"bg.jpg",0,0
//Break Periods
//Storyboard Layer 0 (Background)
//Storyboard Layer 1 (Fail)
//Storyboard Layer 2 (Pass)
//Storyboard Layer 3 (Foreground)
//Storyboard Sound Samples
//Background Colour Transformations
3,100,163,162,255

[TimingPoints]
179,300,4,2,0,60,1,0
19379,-76.9230769230769,4,2,0,70,0,0
33779,-76.9230769230769,4,1,0,75,0,0
38579,-76.9230769230769,4,2,0,75,0,1
56579,-76.9230769230769,4,1,0,75,0,0
57779,-76.9230769230769,4,2,0,75,0,0
79379,-76.9230769230769,4,1,0,75,0,0
81779,-76.9230769230769,4,2,0,75,0,0
170579,-76.9230769230769,4,1,0,75,0,1
188579,-76.9230769230769,4,1,0,75,0,0

[Colours]
Combo1 : 0,64,64
Combo2 : 128,64,0

[HitObjects]
161,66,179,2,0,P|143:134|152:203,1,140
215,289,629,2,0,P|232:221|223:152,1,140
250,88,1079,1,0,0:0:0:0:
346,45,1229,1,0,0:0:0:0:
346,45,1304,1,0,0:0:0:0:
346,45,1379,2,0,P|397:57|450:129,1,140
456,228,1829,1,0,0:0:0:0:
387,212,1979,1,0,0:0:0:0:
345,155,2129,1,0,0:0:0:0:
281,125,2279,2,0,P|205:112|153:155,2,140
234,217,3029,6,0,P|224:284|266:338,1,140
331,362,3479,1,0,0:0:0:0:
426,318,3629,1,0,0:0:0:0:
419,283,3704,1,0,0:0:0:0:
413,248,3779,2,0,L|400:174,1,70
296,184,4079,2,0,L|283:110,1,70
190,66,4379,2,0,P|114:62|62:116,1,140
92,240,4979,6,0,P|130:279|218:263,1,140
309,227,5429,2,0,P|257:183|191:196,1,140
127,168,5879,1,0,0:0:0:0:
171,72,6029,1,0,0:0:0:0:
171,72,6104,1,0,0:0:0:0:
171,72,6179,2,0,P|234:45|323:67,1,140
385,120,6629,1,0,0:0:0:0:
420,180,6779,1,0,0:0:0:0:
400,247,6929,1,0,0:0:0:0:
340,284,7079,2,0,P|261:294|212:264,2,140
288,191,7829,6,0,P|271:123|205:96,1,140
141,95,8279,1,0,0:0:0:0:
60,159,8429,1,0,0:0:0:0:
71,192,8504,1,0,0:0:0:0:
84,224,8579,2,0,L|111:292,1,70
212,265,8879,2,0,L|239:333,1,70
343,344,9179,1,0,0:0:0:0:
377,340,9254,1,0,0:0:0:0:
408,324,9329,1,0,0:0:0:0:
425,293,9404,1,0,0:0:0:0:
427,258,9479,1,0,0:0:0:0:
405,230,9554,1,0,0:0:0:0:
382,203,9629,1,0,0:0:0:0:
373,169,9704,1,0,0:0:0:0:
378,134,9779,6,0,P|343:63|287:51,1,140,0|2,0:0|0:0,0:0:0:0:
184,67,10229,2,0,P|219:138|275:150,1,140,0|2,0:0|0:0,0:0:0:0:
308,211,10679,1,0,0:0:0:0:
228,281,10829,1,0,0:0:0:0:
228,281,10904,1,0,0:0:0:0:
228,281,10979,2,0,P|156:302|95:269,1,140,0|2,0:0|0:0,0:0:0:0:
134,174,11429,1,0,0:0:0:0:
115,106,11579,2,0,L|96:31,1,70
201,70,11879,2,0,L|220:145,1,70,2|0,0:0|0:0,0:0:0:0:
255,196,12179,6,0,P|316:232|387:217,1,140,0|2,0:0|0:0,0:0:0:0:
477,176,12629,2,0,P|416:140|345:155,1,140,0|2,0:0|0:0,0:0:0:0:
294,109,13079,1,0,0:0:0:0:
202,58,13229,1,0,0:0:0:0:
169,70,13304,1,0,0:0:0:0:
136,81,13379,2,0,L|66:105,1,70
121,196,13679,2,0,L|51:220,1,70,2|0,0:0|0:0,0:0:0:0:
42,287,13979,1,0,0:0:0:0:
120,359,14129,1,0,0:0:0:0:
199,287,14279,1,0,0:0:0:0:
158,189,14429,1,0,0:0:0:0:
248,136,14579,6,0,P|307:122|385:146,1,140,0|2,0:0|0:0,0:0:0:0:
467,208,15029,2,0,P|481:267|457:345,1,140,0|2,0:0|0:0,0:0:0:0:
392,363,15479,1,0,0:0:0:0:
294,324,15629,1,0,0:0:0:0:
294,324,15704,1,0,0:0:0:0:
294,324,15779,1,0,0:0:0:0:
189,343,15929,2,0,P|107:332|76:283,1,140
63,256,16304,1,0,0:0:0:0:
60,221,16379,2,0,P|64:166|90:122,2,105
163,200,16979,6,0,P|208:219|322:190,2,140
133,179,17654,1,0,0:0:0:0:
111,151,17729,1,0,0:0:0:0:
102,117,17804,1,0,0:0:0:0:
113,83,17879,1,0,0:0:0:0:
133,54,17954,1,0,0:0:0:0:
164,39,18029,1,0,0:0:0:0:
198,34,18104,1,0,0:0:0:0:
231,44,18179,6,0,P|301:75|374:73,2,140
256,324,19079,2,0,L|256:305,4,17.5
395,214,19379,6,0,P|405:172|396:118,1,90.9999958343508,0|0,1:0|0:0,0:0:0:0:
281,53,19679,1,0,0:0:0:0:
236,45,19754,1,0,0:0:0:0:
191,52,19829,2,0,P|136:86|144:192,1,181.999991668702
265,254,20279,1,0,0:0:0:0:
151,329,20429,1,0,0:0:0:0:
68,205,20579,6,0,P|53:158|54:112,1,90.9999958343508,0|0,1:0|0:0,0:0:0:0:
185,156,20879,1,0,0:0:0:0:
229,163,20954,1,0,0:0:0:0:
272,150,21029,2,0,P|373:151|397:231,1,181.999991668702
398,242,21404,1,0,0:0:0:0:
388,267,21479,1,0,0:0:0:0:
373,289,21554,1,0,0:0:0:0:
348,300,21629,1,0,0:0:0:0:
320,300,21704,1,0,0:0:0:0:
293,292,21779,6,0,P|246:275|205:278,1,90.9999958343508,0|0,1:0|0:0,0:0:0:0:
88,205,22079,1,0,0:0:0:0:
65,165,22154,1,0,0:0:0:0:
77,121,22229,2,0,P|114:65|221:72,1,181.999991668702
220,206,22679,1,0,0:0:0:0:
339,138,22829,1,0,0:0:0:0:
452,216,22979,5,0,1:0:0:0:
456,242,23054,1,0,0:0:0:0:
458,269,23129,1,0,0:0:0:0:
450,295,23204,1,0,0:0:0:0:
432,316,23279,1,0,1:0:0:0:
407,328,23354,1,0,0:0:0:0:
379,329,23429,1,0,0:0:0:0:
353,319,23504,1,0,0:0:0:0:
334,299,23579,5,0,1:0:0:0:
310,284,23654,1,0,0:0:0:0:
283,276,23729,1,0,1:0:0:0:
255,274,23804,1,0,0:0:0:0:
228,280,23879,2,0,P|136:280|96:201,1,181.999991668702,0|0,1:0|1:0,0:0:0:0:
114,120,24329,5,0,0:0:0:0:
231,52,24479,1,0,0:0:0:0:
275,44,24554,1,0,0:0:0:0:
318,58,24629,2,0,P|395:109|386:197,1,181.999991668702
327,311,25079,1,0,0:0:0:0:
265,192,25229,1,0,0:0:0:0:
141,250,25379,6,0,P|100:271|48:267,1,90.9999958343508,0|0,1:0|0:0,0:0:0:0:
95,140,25679,1,0,0:0:0:0:
127,107,25754,1,0,0:0:0:0:
170,94,25829,2,0,P|272:88|333:153,1,181.999991668702
336,164,26204,1,0,0:0:0:0:
344,190,26279,1,0,0:0:0:0:
344,217,26354,1,0,0:0:0:0:
328,239,26429,1,0,0:0:0:0:
302,247,26504,1,0,0:0:0:0:
274,245,26579,6,0,P|230:234|184:239,1,90.9999958343508,0|0,1:0|0:0,0:0:0:0:
62,295,26879,1,0,0:0:0:0:
42,253,26954,1,0,0:0:0:0:
41,207,27029,2,0,P|97:132|183:151,1,181.999991668702
272,245,27479,1,0,0:0:0:0:
390,173,27629,1,0,0:0:0:0:
256,46,27779,5,0,1:0:0:0:
141,193,27929,1,0,1:0:0:0:
256,335,28079,1,0,1:0:0:0:
363,191,28229,1,0,1:0:0:0:
187,256,28379,2,0,P|122:266|70:168,1,181.999991668702
67,131,28754,2,0,L|67:98,4,22.7499989585877
111,121,28979,6,0,P|157:115|213:125,1,90.9999958343508,0|0,1:0|0:0,0:0:0:0:
316,194,29279,1,0,0:0:0:0:
359,207,29354,1,0,0:0:0:0:
403,199,29429,2,0,P|462:162|428:62,1,181.999991668702
304,30,29879,1,0,0:0:0:0:
197,113,30029,1,0,0:0:0:0:
197,113,30104,1,0,0:0:0:0:
197,113,30179,6,0,P|161:145|108:157,1,90.9999958343508
32,261,30479,1,0,0:0:0:0:
19,304,30554,1,0,0:0:0:0:
41,343,30629,1,0,0:0:0:0:
224,335,30779,2,0,L|133:345,1,90.9999958343508
299,263,31079,2,0,L|389:273,1,90.9999958343508
478,180,31379,6,0,P|487:137|473:84,1,90.9999958343508
344,112,31679,1,0,0:0:0:0:
300,123,31754,1,0,0:0:0:0:
257,108,31829,2,0,P|167:96|115:167,1,181.999991668702
130,296,32279,1,0,0:0:0:0:
130,296,32429,1,0,0:0:0:0:
311,310,32579,6,0,L|411:325,1,90.9999958343508
239,221,32879,2,0,L|144:209,1,90.9999958343508
329,193,33179,1,0,0:0:0:0:
348,181,33254,1,0,0:0:0:0:
363,164,33329,1,0,0:0:0:0:
371,142,33404,1,0,0:0:0:0:
372,119,33479,1,0,0:0:0:0:
365,97,33554,1,0,0:0:0:0:
351,78,33629,1,0,0:0:0:0:
332,65,33704,1,0,0:0:0:0:
310,57,33779,5,0,1:0:0:0:
129,77,33929,1,0,0:0:0:0:
239,221,34079,1,0,0:0:0:0:
124,359,34229,1,0,0:0:0:0:
309,356,34379,1,0,0:0:0:0:
206,205,34529,1,0,0:0:0:0:
280,38,34679,1,0,0:0:0:0:
97,49,34829,1,0,0:0:0:0:
168,216,34979,5,0,0:0:0:0:
91,375,35129,1,0,0:0:0:0:
270,343,35279,1,0,0:0:0:0:
217,168,35429,1,0,0:0:0:0:
314,18,35579,1,0,0:0:0:0:
131,31,35729,1,0,0:0:0:0:
256,168,35879,1,0,0:0:0:0:
350,12,36029,1,0,0:0:0:0:
496,122,36179,5,0,0:0:0:0:
505,147,36254,1,0,0:0:0:0:
507,174,36329,1,0,0:0:0:0:
507,201,36404,1,0,0:0:0:0:
500,227,36479,1,0,0:0:0:0:
488,251,36554,1,0,0:0:0:0:
465,265,36629,1,0,0:0:0:0:
438,271,36704,1,0,0:0:0:0:
410,268,36779,1,0,0:0:0:0:
384,259,36854,1,0,0:0:0:0:
363,241,36929,1,0,0:0:0:0:
347,218,37004,1,0,0:0:0:0:
346,190,37079,1,0,0:0:0:0:
361,167,37154,1,0,0:0:0:0:
370,141,37229,1,0,0:0:0:0:
363,114,37304,1,0,0:0:0:0:
344,93,37379,1,0,0:0:0:0:
259,59,37529,6,0,P|192:53|98:129,1,181.999991668702
69,203,37979,1,0,0:0:0:0:
254,192,38279,5,4,0:0:0:0:
396,304,38579,6,0,P|421:263|428:202,1,90.9999958343508,0|0,1:0|0:0,0:0:0:0:
395,87,38879,1,0,1:0:0:0:
353,68,38954,1,0,0:0:0:0:
307,67,39029,2,0,P|258:77|211:69,1,90.9999958343508,0|0,0:0|1:0,0:0:0:0:
87,38,39329,1,0,0:0:0:0:
26,164,39479,1,0,1:0:0:0:
121,263,39629,1,0,0:0:0:0:
253,307,39779,6,0,P|303:306|346:281,1,90.9999958343508,0|0,1:0|0:0,0:0:0:0:
389,158,40079,1,0,1:0:0:0:
418,192,40154,1,0,0:0:0:0:
423,237,40229,2,0,P|417:281|438:331,1,90.9999958343508,0|0,0:0|1:0,0:0:0:0:
302,356,40529,1,0,0:0:0:0:
275,360,40604,1,0,0:0:0:0:
247,360,40679,1,0,1:0:0:0:
220,355,40754,1,0,0:0:0:0:
199,336,40829,1,0,0:0:0:0:
148,208,40979,6,0,P|139:162|109:109,1,90.9999958343508,0|0,1:0|0:0,0:0:0:0:
231,44,41279,1,0,1:0:0:0:
274,30,41354,1,0,0:0:0:0:
319,32,41429,2,0,P|367:40|426:36,1,90.9999958343508,0|0,0:0|1:0,0:0:0:0:
508,136,41729,1,0,0:0:0:0:
450,258,41879,2,0,P|404:278|351:273,1,90.9999958343508,0|0,1:0|0:0,0:0:0:0:
230,156,42179,5,0,1:0:0:0:
205,143,42254,1,0,0:0:0:0:
178,135,42329,1,0,0:0:0:0:
150,135,42404,1,0,0:0:0:0:
124,143,42479,1,0,1:0:0:0:
101,158,42554,1,0,0:0:0:0:
85,180,42629,1,0,0:0:0:0:
74,205,42704,1,0,0:0:0:0:
71,232,42779,1,0,1:0:0:0:
75,258,42854,1,0,0:0:0:0:
88,281,42929,1,0,0:0:0:0:
110,295,43004,1,0,0:0:0:0:
137,298,43079,2,0,P|184:289|239:299,1,90.9999958343508,0|0,1:0|0:0,0:0:0:0:
364,259,43379,6,0,P|384:218|384:155,1,90.9999958343508,0|0,1:0|0:0,0:0:0:0:
291,73,43679,1,0,1:0:0:0:
248,89,43754,1,0,0:0:0:0:
229,130,43829,2,0,P|211:171|178:209,1,90.9999958343508,0|0,0:0|1:0,0:0:0:0:
67,283,44129,1,0,0:0:0:0:
9,159,44279,1,0,1:0:0:0:
97,50,44429,1,0,0:0:0:0:
233,30,44579,6,0,P|283:29|338:47,1,90.9999958343508,0|0,1:0|0:0,0:0:0:0:
335,176,44879,1,0,1:0:0:0:
344,220,44954,1,0,0:0:0:0:
328,262,45029,2,0,P|312:310|278:339,1,90.9999958343508,0|0,0:0|1:0,0:0:0:0:
147,345,45329,1,0,0:0:0:0:
120,350,45404,1,0,0:0:0:0:
92,350,45479,1,0,1:0:0:0:
68,336,45554,1,0,0:0:0:0:
55,311,45629,1,0,0:0:0:0:
99,182,45779,6,0,P|113:135|103:83,1,90.9999958343508,0|0,1:0|0:0,0:0:0:0:
231,31,46079,1,0,1:0:0:0:
275,19,46154,1,0,0:0:0:0:
320,22,46229,2,0,P|364:29|410:53,1,90.9999958343508,0|0,0:0|1:0,0:0:0:0:
487,162,46529,1,0,0:0:0:0:
437,289,46679,1,0,1:0:0:0:
301,277,46829,1,0,0:0:0:0:
219,113,46979,5,0,1:0:0:0:
80,228,47129,1,0,1:0:0:0:
205,356,47279,1,0,1:0:0:0:
337,238,47429,1,0,1:0:0:0:
169,175,47579,2,0,P|144:113|213:35,1,181.999991668702,0|0,1:0|0:0,0:0:0:0:
236,33,47916,2,0,L|270:33,3,22.7499989585877
434,88,48179,6,0,P|458:127|461:181,1,90.9999958343508,0|0,1:0|0:0,0:0:0:0:
390,284,48479,1,0,1:0:0:0:
348,303,48554,1,0,0:0:0:0:
303,291,48629,2,0,P|254:284|205:292,1,90.9999958343508,0|0,0:0|1:0,0:0:0:0:
82,325,48929,1,0,0:0:0:0:
9,209,49079,1,0,1:0:0:0:
59,82,49229,1,0,1:0:0:0:
187,36,49379,6,0,P|232:44|282:39,1,90.9999958343508,0|0,1:0|0:0,0:0:0:0:
408,77,49679,1,0,1:0:0:0:
423,119,49754,1,0,0:0:0:0:
418,164,49829,2,0,P|401:208|359:233,1,90.9999958343508,0|0,0:0|1:0,0:0:0:0:
229,203,50129,1,0,0:0:0:0:
203,193,50204,1,0,0:0:0:0:
176,187,50279,1,0,1:0:0:0:
149,193,50354,1,0,0:0:0:0:
126,208,50429,1,0,0:0:0:0:
213,313,50579,6,0,P|259:321|314:312,1,90.9999958343508,0|0,1:0|0:0,0:0:0:0:
411,231,50879,1,0,1:0:0:0:
384,194,50954,1,0,0:0:0:0:
395,149,51029,2,0,P|397:105|372:55,1,90.9999958343508,0|0,0:0|1:0,0:0:0:0:
245,25,51329,1,0,0:0:0:0:
123,80,51479,1,0,1:0:0:0:
78,210,51629,1,0,0:0:0:0:
164,316,51779,5,0,1:0:0:0:
189,326,51854,1,0,0:0:0:0:
215,333,51929,1,0,0:0:0:0:
242,330,52004,1,0,0:0:0:0:
267,320,52079,1,0,1:0:0:0:
277,295,52154,1,0,0:0:0:0:
273,267,52229,1,0,0:0:0:0:
276,239,52304,1,0,0:0:0:0:
291,216,52379,1,0,1:0:0:0:
315,204,52454,1,0,0:0:0:0:
341,209,52529,1,0,0:0:0:0:
366,218,52604,1,0,0:0:0:0:
392,212,52679,2,0,P|441:202|473:162,1,90.9999958343508,0|0,1:0|0:0,0:0:0:0:
354,94,52979,6,0,P|306:85|256:95,1,90.9999958343508,0|0,1:0|0:0,0:0:0:0:
139,145,53279,1,0,1:0:0:0:
114,183,53354,1,0,0:0:0:0:
124,227,53429,2,0,P|134:275|127:325,1,90.9999958343508,0|0,0:0|1:0,0:0:0:0:
258,268,53729,1,0,0:0:0:0:
382,328,53879,1,0,1:0:0:0:
480,232,54029,1,0,0:0:0:0:
421,111,54179,6,0,P|377:88|325:80,1,90.9999958343508,4|0,1:0|0:0,0:0:0:0:
201,73,54479,1,0,0:0:0:0:
156,82,54554,1,0,0:0:0:0:
118,108,54629,2,0,P|95:146|93:202,1,90.9999958343508,0|0,0:0|1:0,0:0:0:0:
188,289,54929,1,0,0:0:0:0:
213,279,55004,1,0,0:0:0:0:
240,278,55079,1,0,0:0:0:0:
265,288,55154,1,0,0:0:0:0:
292,290,55229,1,0,0:0:0:0:
384,191,55379,6,0,P|424:210|456:251,1,90.9999958343508
499,119,55679,1,0,0:0:0:0:
507,74,55754,1,0,0:0:0:0:
488,32,55829,2,0,P|451:1|403:-5,1,90.9999958343508
298,72,56129,1,0,0:0:0:0:
165,36,56279,1,0,0:0:0:0:
74,137,56429,1,0,0:0:0:0:
79,271,56579,6,0,P|120:291|168:296,1,90.9999958343508
191,297,56804,1,0,0:0:0:0:
217,286,56879,1,0,0:0:0:0:
349,159,57029,1,0,0:0:0:0:
512,229,57179,2,0,P|522:292|513:331,1,90.9999958343508
503,342,57404,1,0,0:0:0:0:
481,358,57479,2,0,L|453:368,7,22.7499989585877
445,366,57779,6,0,P|398:369|351:349,1,90.9999958343508,0|0,1:0|0:0,0:0:0:0:
266,253,58079,1,0,1:0:0:0:
233,221,58154,1,0,0:0:0:0:
194,197,58229,2,0,P|140:185|93:193,1,90.9999958343508,0|0,0:0|1:0,0:0:0:0:
36,72,58529,1,0,0:0:0:0:
168,23,58679,1,0,1:0:0:0:
287,91,58829,1,0,0:0:0:0:
416,41,58979,6,0,P|453:73|474:117,1,90.9999958343508,0|0,1:0|0:0,0:0:0:0:
412,234,59279,1,0,1:0:0:0:
374,260,59354,1,0,0:0:0:0:
328,253,59429,2,0,P|283:240|248:208,1,90.9999958343508,0|0,0:0|1:0,0:0:0:0:
229,193,59654,1,0,0:0:0:0:
210,172,59729,1,0,0:0:0:0:
69,174,59879,1,0,0:0:0:0:
72,201,59954,1,0,0:0:0:0:
74,228,60029,1,0,0:0:0:0:
163,332,60179,6,0,P|204:350|258:353,1,90.9999958343508,0|0,1:0|0:0,1:0:0:0:
380,310,60479,1,0,1:0:0:0:
400,269,60554,1,0,0:0:0:0:
386,225,60629,2,0,P|371:174|374:122,1,90.9999958343508,0|0,0:0|1:0,0:0:0:0:
264,49,60929,1,0,0:0:0:0:
127,67,61079,2,0,P|84:87|53:123,1,90.9999958343508,0|0,1:0|0:0,0:0:0:0:
36,139,61304,1,0,0:0:0:0:
20,161,61379,5,0,1:0:0:0:
14,187,61454,1,0,0:0:0:0:
14,214,61529,1,0,0:0:0:0:
35,230,61604,1,0,0:0:0:0:
39,256,61679,1,0,1:0:0:0:
47,281,61754,1,0,0:0:0:0:
66,300,61829,1,0,0:0:0:0:
91,310,61904,1,0,0:0:0:0:
118,307,61979,1,0,1:0:0:0:
142,295,62054,1,0,0:0:0:0:
157,272,62129,1,0,0:0:0:0:
162,245,62204,1,0,0:0:0:0:
172,219,62279,2,0,P|200:183|249:168,1,90.9999958343508,0|0,1:0|0:0,0:0:0:0:
351,88,62579,6,0,P|369:130|409:167,1,90.9999958343508,0|0,1:0|0:0,0:0:0:0:
362,294,62879,1,0,1:0:0:0:
320,312,62954,1,0,0:0:0:0:
276,300,63029,2,0,P|226:287|186:295,1,90.9999958343508,0|0,0:0|1:0,0:0:0:0:
63,352,63329,1,0,0:0:0:0:
6,227,63479,1,0,1:0:0:0:
76,99,63629,1,0,0:0:0:0:
76,99,63704,1,0,0:0:0:0:
76,99,63779,6,0,P|119:75|172:60,1,90.9999958343508,0|0,1:0|0:0,0:0:0:0:
276,131,64079,1,0,1:0:0:0:
318,146,64154,1,0,0:0:0:0:
360,129,64229,2,0,P|405:118|461:121,1,90.9999958343508,0|0,0:0|1:0,0:0:0:0:
407,251,64529,1,0,0:0:0:0:
407,251,64604,1,0,0:0:0:0:
407,251,64679,1,0,1:0:0:0:
290,323,64829,1,0,0:0:0:0:
171,257,64979,6,0,P|122:242|71:247,1,90.9999958343508,0|0,1:0|0:0,0:0:0:0:
158,133,65279,1,0,1:0:0:0:
199,113,65354,1,0,0:0:0:0:
244,111,65429,2,0,P|289:116|343:108,1,90.9999958343508,0|0,0:0|1:0,0:0:0:0:
498,26,65729,1,0,0:0:0:0:
436,193,65879,1,0,1:0:0:0:
355,32,66029,1,0,0:0:0:0:
512,133,66179,1,0,1:0:0:0:
487,315,66329,1,0,1:0:0:0:
306,284,66479,1,0,1:0:0:0:
335,109,66629,1,0,1:0:0:0:
377,288,66779,2,0,P|334:351|239:316,1,181.999991668702,0|0,1:0|0:0,0:0:0:0:
228,308,67116,2,0,L|202:280,5,22.7499989585877
185,253,67379,6,0,P|155:210|110:184,1,90.9999958343508,0|0,1:0|0:0,0:0:0:0:
176,64,67679,1,0,1:0:0:0:
217,45,67754,1,0,0:0:0:0:
260,57,67829,2,0,P|306:67|354:62,1,90.9999958343508,0|0,0:0|1:0,0:0:0:0:
436,36,68129,1,0,0:0:0:0:
497,158,68279,1,0,1:0:0:0:
443,283,68429,1,0,0:0:0:0:
307,256,68579,6,0,P|262:248|209:247,1,90.9999958343508,0|0,1:0|0:0,0:0:0:0:
119,146,68879,1,0,1:0:0:0:
90,181,68954,1,0,0:0:0:0:
101,224,69029,2,0,P|111:270|97:317,1,90.9999958343508,0|0,0:0|1:0,0:0:0:0:
88,336,69254,1,0,0:0:0:0:
71,357,69329,1,0,0:0:0:0:
247,324,69479,1,0,1:0:0:0:
274,322,69554,1,0,0:0:0:0:
301,325,69629,1,0,0:0:0:0:
413,253,69779,6,0,P|427:211|424:154,1,90.9999958343508,0|0,1:0|0:0,0:0:0:0:
319,78,70079,1,0,1:0:0:0:
275,63,70154,1,0,0:0:0:0:
231,76,70229,2,0,P|186:83|132:76,1,90.9999958343508,0|0,0:0|1:0,0:0:0:0:
41,171,70529,1,0,0:0:0:0:
152,250,70679,1,0,1:0:0:0:
280,205,70829,2,0,P|333:192|382:196,1,90.9999958343508,0|0,0:0|1:0,0:0:0:0:
396,196,71054,1,0,0:0:0:0:
421,205,71129,5,0,0:0:0:0:
441,223,71204,1,0,0:0:0:0:
455,246,71279,1,0,1:0:0:0:
459,272,71354,1,0,0:0:0:0:
452,298,71429,1,0,0:0:0:0:
435,319,71504,1,0,0:0:0:0:
408,325,71579,1,0,1:0:0:0:
381,318,71654,1,0,0:0:0:0:
354,309,71729,1,0,0:0:0:0:
327,304,71804,1,0,0:0:0:0:
299,307,71879,2,0,L|265:317,6,22.7499989585877,0|0|0|0|0|0|0,0:0|0:0|0:0|0:0|0:0|0:0|1:0,0:0:0:0:
256,290,72179,6,0,P|214:266|168:269,1,90.9999958343508,0|0,1:0|0:0,0:0:0:0:
55,206,72479,1,0,1:0:0:0:
73,164,72554,1,0,0:0:0:0:
58,120,72629,2,0,P|64:73|106:33,1,90.9999958343508,0|0,0:0|1:0,0:0:0:0:
223,79,72929,1,0,0:0:0:0:
352,31,73079,1,0,1:0:0:0:
458,115,73229,1,0,0:0:0:0:
379,231,73379,2,0,P|336:260|288:161,1,181.999991668702,0|0,1:0|0:0,0:0:0:0:
262,310,73829,1,0,0:0:0:0:
124,311,73979,2,0,P|70:302|67:187,1,181.999991668702,0|0,1:0|0:0,0:0:0:0:
113,119,74429,1,0,0:0:0:0:
189,69,74579,6,0,L|289:30,1,90.9999958343508,0|0,1:0|0:0,0:0:0:0:
418,141,74879,2,0,L|318:180,1,90.9999958343508,0|0,1:0|0:0,0:0:0:0:
203,288,75179,1,0,1:0:0:0:
222,306,75254,1,0,0:0:0:0:
248,313,75329,1,0,0:0:0:0:
275,311,75404,1,0,0:0:0:0:
300,302,75479,1,0,1:0:0:0:
316,280,75554,1,0,0:0:0:0:
319,252,75629,1,0,0:0:0:0:
309,226,75704,1,0,0:0:0:0:
315,199,75779,1,0,1:0:0:0:
189,150,75929,5,0,1:0:0:0:
189,150,76004,1,0,0:0:0:0:
189,150,76079,1,0,1:0:0:0:
353,73,76229,1,0,1:0:0:0:
486,200,76379,1,0,1:0:0:0:
383,349,76529,1,0,1:0:0:0:
355,352,76604,1,0,1:0:0:0:
328,345,76679,2,0,L|295:331,6,22.7499989585877
286,326,76979,5,0,1:0:0:0:
48,59,77279,1,0,1:0:0:0:
226,116,77429,1,0,1:0:0:0:
494,351,77729,1,0,1:0:0:0:
175,184,78029,2,0,B|95:67|181:-4|310:-5|364:41|306:214|270:287|423:346|528:231,1,636.999970840455,0|0,1:0|0:0,0:0:0:0:
366,354,79379,5,0,0:0:0:0:
283,315,79529,1,0,0:0:0:0:
195,339,79679,1,0,0:0:0:0:
195,339,79754,1,0,0:0:0:0:
195,339,79829,1,0,0:0:0:0:
84,256,79979,1,0,0:0:0:0:
84,256,80054,1,0,0:0:0:0:
84,256,80129,1,0,0:0:0:0:
108,122,80279,2,0,P|179:59|249:109,1,181.999991668702,0|0,0:0|2:0,0:0:0:0:
263,127,80879,5,0,2:0:0:0:
282,157,81179,1,0,2:0:0:0:
301,187,81479,1,4,0:0:0:0:
461,273,81779,5,0,1:0:0:0:
381,317,81929,2,0,P|328:324|277:322,1,90.9999958343508,0|0,0:0|1:0,0:0:0:0:
200,306,82229,2,0,P|161:276|137:238,1,90.9999958343508,0|0,0:0|1:0,0:0:0:0:
117,200,82454,1,0,0:0:0:0:
107,155,82529,2,0,L|93:108,2,45.4999979171754,0|0|0,0:0|0:0|1:0,0:0:0:0:
233,103,82829,2,0,P|279:108|339:96,1,90.9999958343508,0|0,0:0|1:0,0:0:0:0:
