osu file format v14

[General]
AudioFilename: PxLight - Storm Buster.mp3
AudioLeadIn: 0
PreviewTime: 40417
Countdown: 0
SampleSet: Soft
StackLeniency: 0.7
Mode: 0
LetterboxInBreaks: 0
WidescreenStoryboard: 0

[Editor]
Bookmarks: 625,10573,20521,30469,35443,40417,50365,55340,60314,70262,80210,81454,91402,101350,108811,111298
DistanceSpacing: 1
BeatDivisor: 2
GridSize: 4
TimelineZoom: 1.5

[Metadata]
Title:Storm Buster
TitleUnicode:Storm Buster
Artist:P*Light
ArtistUnicode:P*Light
Creator:eeezzzeee
Version:STANDARD
Source:REFLEC BEAT VOLZZA
Tags:eze Janpai Reclaimer BENAMI KONAMI
BeatmapID:887955
BeatmapSetID:408621

[Difficulty]
HPDrainRate:2
CircleSize:3
OverallDifficulty:2
ApproachRate:3
SliderMultiplier:0.799999999999999
SliderTickRate:1

[Events]
//Background and Video events
0,0,"bg.jpg",0,0
//Break Periods
2,60514,66335
//Storyboard Layer 0 (Background)
//Storyboard Layer 1 (Fail)
//Storyboard Layer 2 (Pass)
//Storyboard Layer 3 (Foreground)
//Storyboard Sound Samples

[TimingPoints]
625,310.880829015544,4,2,1,60,1,0
8086,-100,4,2,1,70,0,0
10573,-100,4,2,1,60,0,0
20521,-100,4,2,1,70,0,1
23319,-100,4,2,2,70,0,1
23474,-100,4,2,1,70,0,1
30469,-100,4,2,1,40,0,0
35443,-100,4,2,1,55,0,0
37930,-100,4,2,1,70,0,0
40417,-100,4,2,1,70,0,1
40728,-100,4,2,2,70,0,1
40884,-100,4,2,1,70,0,1
43215,-100,4,2,2,70,0,1
43371,-100,4,2,1,70,0,1
45702,-100,4,2,2,70,0,1
45858,-100,4,2,1,70,0,1
48189,-100,4,2,2,70,0,1
48345,-100,4,2,1,70,0,1
49122,-100,4,2,1,55,0,1
50365,-100,4,2,1,55,0,0
55340,-100,4,2,1,55,0,1
57827,-100,4,2,1,70,0,1
60314,-100,4,2,1,70,0,0
67775,-100,4,2,1,40,0,0
75236,-100,4,2,1,55,0,0
84873,-100,4,2,2,70,0,0
85029,-100,4,2,1,70,0,0
87360,-100,4,2,2,70,0,0
87516,-100,4,2,1,70,0,0
94200,-100,4,2,2,70,0,0
94355,-100,4,2,1,70,0,0
97308,-100,4,2,2,70,0,0
97464,-100,4,2,1,70,0,0
101350,-100,4,2,1,70,0,1
104148,-100,4,2,2,70,0,1
104303,-100,4,2,1,70,0,1
111298,-100,4,2,1,70,0,0

[Colours]
Combo1 : 212,212,212
Combo2 : 175,210,250
Combo3 : 212,212,212
Combo4 : 116,177,245
Combo5 : 212,212,212
Combo6 : 55,145,242
Combo7 : 212,212,212
Combo8 : 13,112,221

[HitObjects]
344,336,625,5,6,0:1:0:0:
96,272,1868,2,0,B|64:155|64:155|181:183,1,240,4|0,0:1|0:0,0:0:0:0:
177,263,3112,5,4,0:1:0:0:
416,152,4355,2,0,B|448:36|448:36|331:63,1,240,4|0,0:1|0:0,0:0:0:0:
256,89,5599,5,4,0:1:0:0:
96,88,6220,1,4,0:1:0:0:
95,248,6842,1,4,0:1:0:0:
255,249,7464,1,4,0:1:0:0:
415,250,8086,6,0,L|448:156,1,79.9999999999999,4|0,0:1|0:0,0:0:0:0:
392,112,8707,2,0,P|324:148|228:100,1,160,4|8,0:1|0:3,0:0:0:0:
107,319,10573,6,0,B|178:355|178:355|256:340,1,160,6|2,0:1|0:0,0:0:0:0:
316,284,11505,1,0,0:0:0:0:
396,300,11816,2,0,L|440:208,1,79.9999999999999,2|0,0:0|0:0,0:0:0:0:
368,176,12438,2,0,L|335:79,1,79.9999999999999,2|0,0:0|0:0,0:0:0:0:
272,144,13060,6,0,B|197:174|197:174|121:148,1,160,2|2,0:0|0:0,0:0:0:0:
64,204,13992,1,0,0:0:0:0:
100,276,14303,2,0,L|278:346,2,160,8|8|4,0:3|0:3|0:1,0:0:0:0:
64,119,16169,6,0,P|61:80|78:45,1,79.9999999999999,2|0,0:0|0:0,0:0:0:0:
140,96,16790,2,0,P|240:104|300:88,1,160,2|2,0:0|0:0,0:0:0:0:
372,119,17723,1,0,0:0:0:0:
420,184,18034,6,0,L|428:284,1,79.9999999999999,2|0,0:0|0:0,0:0:0:0:
347,275,18656,2,0,L|339:375,1,79.9999999999999,2|0,0:0|0:0,0:0:0:0:
261,355,19277,2,0,L|253:175,2,160,8|8|6,0:3|0:3|0:1,0:0:0:0:
116,288,21143,6,0,P|88:249|75:208,1,79.9999999999999,2|8,0:0|0:0,0:0:0:0:
148,180,21764,2,0,P|156:140|176:94,1,79.9999999999999,0|8,0:0|0:0,0:0:0:0:
248,132,22386,2,0,L|327:116,1,79.9999999999999,2|8,0:0|0:0,0:0:0:0:
394,71,23008,6,0,P|402:148|341:195,1,160,0|2,0:0|0:0,0:0:0:0:
263,212,23941,1,8,0:0:0:0:
184,228,24251,2,0,B|107:250|107:250|72:340,2,160,8|8|4,0:3|0:3|0:1,0:0:0:0:
332,292,26117,6,0,P|372:240|380:204,1,79.9999999999999,4|8,0:1|0:0,0:0:0:0:
368,148,26738,1,4,0:1:0:0:
224,76,27360,2,0,P|184:128|176:164,1,79.9999999999999,4|8,0:1|0:0,0:0:0:0:
188,220,27982,2,0,B|152:256|96:248|96:248|100:348|192:360,1,240,4|2,0:1|0:0,0:0:0:0:
256,192,29226,12,2,30469,0:1:0:0:
224,268,31713,6,0,L|116:296,1,79.9999999999999,4|4,0:0|0:0,0:0:0:0:
108,216,32334,2,0,L|216:188,1,79.9999999999999,6|4,0:0|0:0,0:0:0:0:
266,199,32956,5,4,0:0:0:0:
344,220,33267,1,4,0:0:0:0:
424,208,33578,2,0,P|432:136|356:52,1,160,2|4,0:0|0:0,0:0:0:0:
304,68,34511,2,0,P|314:106|341:134,2,79.9999999999999,4|2|4,0:0|0:0|0:0,0:0:0:0:
224,68,35443,5,4,0:1:0:0:
96,164,36065,1,4,0:1:0:0:
128,320,36687,1,4,0:1:0:0:
256,224,37309,1,4,0:1:0:0:
384,320,37930,6,0,L|412:220,1,79.9999999999999,4|0,0:1|0:0,0:0:0:0:
468,192,38552,2,0,P|436:128|328:112,1,160,4|4,0:1|0:0,0:0:0:0:
196,284,40417,6,0,B|136:288|136:288|88:184,1,160,6|0,0:1|0:0,0:0:0:0:
120,120,41350,1,8,0:0:0:0:
200,132,41661,2,0,L|284:140,1,79.9999999999999,2|8,0:0|0:0,0:0:0:0:
264,60,42283,2,0,L|343:67,1,79.9999999999999,0|8,0:0|0:0,0:0:0:0:
423,79,42904,6,0,B|464:168|464:168|444:248,1,160,2|0,0:0|0:0,0:0:0:0:
372,256,43837,1,8,0:0:0:0:
296,228,44148,2,0,P|256:224|192:240,1,79.9999999999999,2|8,0:0|0:0,0:0:0:0:
168,296,44770,1,0,0:0:0:0:
232,348,45080,1,8,0:0:0:0:
308,320,45391,6,0,B|352:296|384:256|384:256|372:168,1,160,4|0,0:1|0:0,0:0:0:0:
364,116,46324,1,8,0:0:0:0:
359,35,46635,2,0,P|321:45|294:74,1,79.9999999999999,2|8,0:0|0:0,0:0:0:0:
252,144,47257,2,0,P|225:172|186:182,1,79.9999999999999,2|8,0:0|0:0,0:0:0:0:
120,136,47878,6,0,P|130:214|144:312,1,160,2|0,0:0|0:0,0:0:0:0:
216,328,48811,1,8,0:0:0:0:
292,300,49122,1,8,0:3:0:0:
416,96,50365,6,0,P|392:52|260:140,1,240,2|4,0:1|0:0,0:0:0:0:
336,112,51609,2,0,L|344:200,1,79.9999999999999,2|4,0:0|0:0,0:0:0:0:
288,252,52231,2,0,L|208:259,1,79.9999999999999,2|4,0:0|0:0,0:0:0:0:
207,341,52852,6,0,P|126:267|192:179,1,240,4|4,0:0|0:0,0:0:0:0:
236,112,54096,2,0,L|136:56,2,79.9999999999999,2|4|0,0:0|0:0|0:0,0:0:0:0:
272,268,55340,6,0,L|452:212,1,160,6|2,0:1|0:0,0:0:0:0:
456,144,56272,1,0,0:0:0:0:
376,153,56583,2,0,L|216:52,1,160,4|2,0:1|0:0,0:0:0:0:
180,120,57516,1,0,0:0:0:0:
128,184,57827,6,0,L|136:288,1,79.9999999999999,4|2,0:1|0:0,0:0:0:0:
211,288,58448,2,0,P|157:342|82:326,2,160,4|4|4,0:1|0:1|0:1,0:0:0:0:
364,340,60314,1,2,0:1:0:0:
256,192,67775,12,2,70262,0:1:0:0:
256,124,71505,6,0,L|256:40,2,79.9999999999999,0|0|0,0:1|0:0|0:1,0:0:0:0:
333,263,72749,6,0,P|256:283|180:265,1,160,4|0,0:1|0:0,0:0:0:0:
256,124,73992,2,0,L|256:40,2,79.9999999999999,4|0|4,0:1|0:0|0:1,0:0:0:0:
108,180,75236,6,0,L|156:248,1,79.9999999999999,4|0,0:1|0:0,0:0:0:0:
136,324,75858,2,0,L|219:338,1,79.9999999999999,4|0,0:1|0:0,0:0:0:0:
298,337,76479,2,0,L|376:324,1,79.9999999999999,4|0,0:1|0:0,0:0:0:0:
358,245,77101,2,0,L|404:180,1,79.9999999999999,4|0,0:1|0:0,0:0:0:0:
337,129,77723,6,0,P|256:56|174:137,1,240,4|2,0:1|0:0,0:0:0:0:
256,140,78966,2,0,L|256:232,2,79.9999999999999,4|0|4,0:1|0:0|0:1,0:0:0:0:
456,312,81454,6,0,P|452:252|440:236,1,79.9999999999999,6|8,0:1|0:0,0:0:0:0:
372,196,82075,2,0,P|312:200|296:212,1,79.9999999999999,0|8,0:0|0:0,0:0:0:0:
252,276,82697,1,2,0:0:0:0:
176,304,83008,1,8,0:0:0:0:
100,272,83319,1,2,0:0:0:0:
100,112,83941,5,2,0:0:0:0:
176,80,84251,1,8,0:0:0:0:
252,108,84562,2,0,P|288:140|396:128,1,160,0|2,0:0|0:0,0:0:0:0:
424,56,85495,2,0,P|455:79|471:115,1,79.9999999999999,8|2,0:0|0:0,0:0:0:0:
424,268,86428,6,0,P|407:304|376:327,1,79.9999999999999,2|8,0:0|0:0,0:0:0:0:
308,284,87049,2,0,P|260:272|148:300,1,160,0|2,0:0|0:0,0:0:0:0:
76,276,87982,1,8,0:0:0:0:
48,200,88293,1,2,0:0:0:0:
152,76,88915,6,0,L|191:181,1,79.9999999999999,2|8,0:0|0:0,0:0:0:0:
172,232,89536,2,0,L|283:227,1,79.9999999999999,0|8,0:0|0:0,0:0:0:0:
324,192,90158,1,6,0:0:0:0:
384,248,90469,1,4,0:0:0:0:
368,328,90780,1,6,0:0:0:0:
208,348,91402,6,0,P|184:308|184:272,1,79.9999999999999,6|8,0:1|0:0,0:0:0:0:
132,212,92023,2,0,P|156:181|192:164,1,79.9999999999999,0|8,0:0|0:0,0:0:0:0:
264,204,92645,1,2,0:0:0:0:
344,220,92956,1,8,0:0:0:0:
424,203,93267,1,2,0:0:0:0:
448,44,93889,6,0,P|369:36|296:67,1,160,2|0,0:0|0:0,0:0:0:0:
256,138,94821,1,8,0:0:0:0:
215,67,95132,2,0,P|160:44|112:40,2,79.9999999999999,2|8|2,0:0|0:0|0:0,0:0:0:0:
182,224,96376,6,0,P|237:247|285:251,1,79.9999999999999,2|8,0:0|0:0,0:0:0:0:
312,312,96998,2,0,P|228:336|144:332,1,160,2|2,0:0|0:0,0:0:0:0:
76,332,97930,1,8,0:0:0:0:
20,272,98241,1,2,0:0:0:0:
133,158,98863,6,0,L|219:147,1,79.9999999999999,2|8,0:0|0:0,0:0:0:0:
260,212,99485,2,0,L|346:201,1,79.9999999999999,0|8,0:0|0:0,0:0:0:0:
387,266,100106,2,0,L|473:255,2,79.9999999999999,2|8|2,0:0|0:0|0:0,0:0:0:0:
244,336,101350,6,0,L|158:325,1,79.9999999999999,6|8,0:1|0:0,0:0:0:0:
96,284,101972,2,0,P|104:232|124:200,1,79.9999999999999,0|8,0:0|0:0,0:0:0:0:
196,192,102593,1,2,0:0:0:0:
272,216,102904,1,8,0:0:0:0:
342,179,103215,1,2,0:0:0:0:
365,103,103526,1,8,0:0:0:0:
327,32,103837,6,0,P|244:52|144:40,1,160,2|0,0:0|0:0,0:0:0:0:
104,92,104770,1,8,0:0:0:0:
68,164,105080,2,0,P|60:220|36:263,1,79.9999999999999,2|8,0:0|0:0,0:0:0:0:
70,321,105702,2,0,P|109:314|145:297,1,79.9999999999999,2|8,0:0|0:0,0:0:0:0:
200,236,106324,5,4,0:1:0:0:
344,308,106946,1,4,0:1:0:0:
416,164,107568,1,4,0:1:0:0:
272,92,108190,1,4,0:1:0:0:
116,124,108811,6,0,B|96:224|96:224|140:256|140:256|116:364,1,240,4|2,0:1|0:0,0:0:0:0:
208,320,110055,2,0,P|252:324|288:348,2,79.9999999999999,4|4|4,0:1|0:1|0:1,0:0:0:0:
304,192,111298,5,2,0:1:0:0:
