osu file format v14

[General]
AudioFilename: say bay.mp3
AudioLeadIn: 0
PreviewTime: 90068
Countdown: 0
SampleSet: Soft
StackLeniency: 0
Mode: 0
LetterboxInBreaks: 0
WidescreenStoryboard: 1

[Editor]
Bookmarks: 67613,71977
DistanceSpacing: 1
BeatDivisor: 4
GridSize: 32
TimelineZoom: 1.900001

[Metadata]
Title:SAY BAY
TitleUnicode:SAY BAY
Artist:P*Light
ArtistUnicode:P*Light
Creator:Asphyxia
Version:Unmodified
Source:beatmania IIDX 24 SINOBUZ
Tags:
BeatmapID:1328620
BeatmapSetID:629315

[Difficulty]
HPDrainRate:7
CircleSize:4.2
OverallDifficulty:8
ApproachRate:9.4
SliderMultiplier:2.2
SliderTickRate:1

[Events]
//Background and Video events
0,0,"say bay bg.jpg",0,0
//Break Periods
//Storyboard Layer 0 (Background)
//Storyboard Layer 1 (Fail)
//Storyboard Layer 2 (Pass)
//Storyboard Layer 3 (Foreground)
//Storyboard Sound Samples

[TimingPoints]
1432,363.636363636364,4,2,0,5,1,0
5432,-200,4,2,0,50,0,0
5795,-100,4,2,0,50,0,0
8159,-66.6666666666667,4,2,0,50,0,0
8432,-50,4,2,0,50,0,0
8704,-100,4,2,0,50,0,0
11068,-66.6666666666667,4,2,0,50,0,0
11250,-50,4,2,0,50,0,0
11613,-100,4,2,0,50,0,0
15977,-250,4,2,0,50,0,0
17432,-100,4,2,0,50,0,0
18522,-125,4,2,0,50,0,0
18886,-100,4,2,0,50,0,0
19250,-125,4,2,0,50,0,0
19613,-100,4,2,0,50,0,0
19977,-83.3333333333333,4,2,0,50,0,0
20250,-83.3333333333333,4,2,0,5,0,0
20341,-83.3333333333333,4,2,0,60,0,0
25068,-90.9090909090909,4,2,0,60,0,0
26159,-83.3333333333333,4,2,0,60,0,0
31250,-50,4,2,0,60,0,0
31977,-76.9230769230769,4,2,0,60,0,0
42886,-200,4,2,0,60,0,0
43250,-50,4,2,0,60,0,0
43613,-100,4,2,0,60,0,0
46159,-90.0900900900901,4,2,0,60,0,0
46522,-100,4,2,0,60,0,0
48704,-200,4,2,0,60,0,0
49068,-300,4,2,0,60,0,0
49432,-100,4,2,0,60,0,0
66886,-125,4,2,0,60,0,0
72341,-58.8235294117647,4,2,0,60,0,0
72704,-100,4,2,0,60,0,0
82886,-250,4,2,0,50,0,0
83977,-83.3333333333333,4,2,0,50,0,0
85432,-250,4,2,0,50,0,0
85795,-100,4,2,0,60,0,0
86159,-125,4,2,0,60,0,0
86522,-100,4,2,0,60,0,0
86886,-83.3333333333333,4,2,0,60,0,0
87250,-76.9230769230769,4,2,0,60,0,0
90159,-71.4285714285714,4,2,0,70,0,0
101068,-50,4,2,0,70,0,0
101795,-71.4285714285714,4,2,0,70,0,0
113068,-50,4,2,0,70,0,0

[Colours]
Combo1 : 255,166,77
Combo2 : 255,255,106
Combo3 : 255,89,89
Combo4 : 176,255,98

[HitObjects]
256,192,1432,12,0,5068,0:0:0:0:
176,110,5432,6,0,P|178:75|171:49,1,55
0,192,5795,5,0,0:0:0:0:
83,219,5977,1,0,0:0:0:0:
166,246,6159,1,0,0:0:0:0:
169,254,6250,1,0,0:0:0:0:
172,262,6341,1,0,0:0:0:0:
346,246,6522,1,0,0:0:0:0:
343,254,6613,1,0,0:0:0:0:
340,262,6704,1,0,0:0:0:0:
337,270,6795,1,0,0:0:0:0:
334,278,6886,1,0,0:0:0:0:
331,286,6977,1,0,0:0:0:0:
328,294,7068,1,0,0:0:0:0:
325,302,7159,1,0,0:0:0:0:
322,310,7250,6,0,L|434:294,1,110
443,292,7522,1,0,0:0:0:0:
491,341,7613,2,0,L|475:229,1,110
419,49,7977,1,0,0:0:0:0:
374,48,8068,1,0,0:0:0:0:
344,76,8159,6,0,P|407:60|428:31,1,82.5000031471254
426,35,8341,1,0,0:0:0:0:
436,30,8432,6,0,B|310:75|345:-31|227:14,1,220
0,122,8704,5,0,0:0:0:0:
83,149,8886,1,0,0:0:0:0:
166,176,9068,1,0,0:0:0:0:
169,184,9159,1,0,0:0:0:0:
172,192,9250,1,0,0:0:0:0:
346,176,9431,1,0,0:0:0:0:
343,184,9522,1,0,0:0:0:0:
340,192,9613,1,0,0:0:0:0:
337,200,9704,1,0,0:0:0:0:
334,208,9795,1,0,0:0:0:0:
331,216,9886,1,0,0:0:0:0:
327,223,9977,1,0,0:0:0:0:
325,232,10068,1,0,0:0:0:0:
322,240,10159,6,0,L|343:349,1,110
452,346,10432,1,0,0:0:0:0:
452,346,10522,2,0,L|343:366,1,110
102,294,10886,1,0,0:0:0:0:
143,279,10977,1,0,0:0:0:0:
180,301,11068,6,0,P|121:305|96:288,1,82.5000031471254
74,219,11250,6,0,P|48:354|180:312,1,330
163,194,11613,5,0,0:0:0:0:
180,301,11795,1,0,0:0:0:0:
277,250,11977,1,0,0:0:0:0:
277,250,12068,1,0,0:0:0:0:
277,250,12159,1,0,0:0:0:0:
163,194,12341,1,0,0:0:0:0:
167,221,12432,1,0,0:0:0:0:
171,248,12522,1,0,0:0:0:0:
175,275,12614,1,0,0:0:0:0:
180,301,12704,1,0,0:0:0:0:
204,288,12795,1,0,0:0:0:0:
228,275,12886,1,0,0:0:0:0:
252,262,12977,1,0,0:0:0:0:
277,250,13068,5,0,0:0:0:0:
294,357,13250,1,0,0:0:0:0:
391,306,13432,1,0,0:0:0:0:
391,306,13522,1,0,0:0:0:0:
391,306,13613,1,0,0:0:0:0:
277,250,13795,1,0,0:0:0:0:
281,277,13886,1,0,0:0:0:0:
285,304,13976,1,0,0:0:0:0:
289,331,14068,1,0,0:0:0:0:
294,357,14158,1,0,0:0:0:0:
318,344,14249,1,0,0:0:0:0:
342,331,14340,1,0,0:0:0:0:
366,318,14431,1,0,0:0:0:0:
391,306,14522,5,0,0:0:0:0:
163,194,14704,1,0,0:0:0:0:
189,355,14886,5,0,0:0:0:0:
225,104,15068,1,0,0:0:0:0:
79,179,15250,5,0,0:0:0:0:
330,135,15432,1,0,0:0:0:0:
213,20,15613,5,0,0:0:0:0:
332,245,15795,1,0,0:0:0:0:
406,97,15977,6,0,P|304:96|237:221,1,242
229,280,17068,1,0,0:0:0:0:
213,20,17341,1,0,0:0:0:0:
213,20,17432,6,0,P|247:58|255:114,1,110
229,280,17795,2,0,L|214:352,2,55
254,114,18159,6,0,P|220:152|212:208,1,110
453,55,18522,6,0,L|311:90,1,132
254,114,18886,6,0,L|360:140,1,110
426,263,19250,6,0,L|532:236,1,88
147,87,19613,6,0,L|253:113,1,110
511,241,19977,6,0,L|318:287,1,197.99999395752
311,350,20341,6,0,L|273:188,1,131.99999597168
267,42,20704,1,0,0:0:0:0:
274,23,20795,1,0,0:0:0:0:
282,5,20886,1,0,0:0:0:0:
500,178,21068,6,0,P|469:179|427:164,1,65.9999979858399
511,241,21250,6,0,P|500:211|501:167,1,65.9999979858399
453,271,21432,6,0,P|477:251|520:239,1,65.9999979858399
406,225,21613,6,0,P|431:242|456:279,1,65.9999979858399
167,289,21795,6,0,L|309:202,1,131.99999597168
282,5,22159,1,0,0:0:0:0:
274,23,22250,1,0,0:0:0:0:
267,42,22341,1,0,0:0:0:0:
222,354,22522,5,0,0:0:0:0:
250,309,22613,1,0,0:0:0:0:
245,256,22704,1,0,0:0:0:0:
211,215,22795,1,0,0:0:0:0:
159,204,22886,2,0,P|105:139|175:62,1,197.99999395752
179,134,23250,6,0,L|304:242,1,131.99999597168
282,5,23613,1,0,0:0:0:0:
274,23,23704,1,0,0:0:0:0:
267,42,23795,1,0,0:0:0:0:
333,267,23977,5,0,0:0:0:0:
385,275,24068,1,0,0:0:0:0:
433,254,24159,1,0,0:0:0:0:
459,208,24250,1,0,0:0:0:0:
447,258,24341,1,0,0:0:0:0:
468,306,24432,1,0,0:0:0:0:
512,335,24522,2,0,P|549:355|583:357,1,65.9999979858399
377,190,24704,5,0,0:0:0:0:
406,138,24795,1,0,0:0:0:0:
457,122,24886,1,0,0:0:0:0:
512,141,24977,1,0,0:0:0:0:
512,231,25068,6,0,P|477:222|455:204,1,60.5000018463135
440,332,25250,2,0,P|415:349|386:355,1,60.5000018463135
512,141,25432,5,0,0:0:0:0:
457,122,25522,1,0,0:0:0:0:
406,138,25613,1,0,0:0:0:0:
377,190,25704,1,0,0:0:0:0:
458,207,25795,6,0,P|482:224|512:231,1,60.5000018463135
386,355,25977,2,0,P|415:349|440:332,1,60.5000018463135
330,98,26159,6,0,L|265:251,1,131.99999597168
267,42,26522,1,0,0:0:0:0:
273,23,26613,1,0,0:0:0:0:
282,5,26704,1,0,0:0:0:0:
331,274,26886,2,0,P|295:294|249:285,1,65.9999979858399
124,290,27068,2,0,P|151:272|183:270,1,65.9999979858399
429,289,27250,2,0,P|409:253|418:207,1,65.9999979858399
413,82,27432,2,0,P|430:109|432:141,1,65.9999979858399
410,230,27613,6,0,L|244:216,1,131.99999597168
267,42,27977,1,0,0:0:0:0:
273,23,28068,1,0,0:0:0:0:
282,5,28159,1,0,0:0:0:0:
331,274,28341,1,0,0:0:0:0:
282,296,28432,1,0,0:0:0:0:
232,280,28522,1,0,0:0:0:0:
205,234,28613,1,0,0:0:0:0:
212,181,28704,2,0,P|328:216|320:295,1,197.99999395752
311,350,29068,6,0,L|273:188,1,131.99999597168
267,42,29432,1,0,0:0:0:0:
273,23,29523,1,0,0:0:0:0:
282,5,29614,1,0,0:0:0:0:
94,214,29795,6,0,L|124:342,1,131.99999597168
147,67,30159,1,0,0:0:0:0:
153,48,30250,1,0,0:0:0:0:
162,30,30341,1,0,0:0:0:0:
94,214,30522,5,0,0:0:0:0:
32,21,30704,1,0,0:0:0:0:
122,320,30886,2,0,L|104:391,2,65.9999979858399
416,204,31250,6,0,B|332:212|332:212|296:244|296:244|196:252,1,220
35,152,31522,6,0,P|95:128|172:245,1,220
122,320,31795,6,0,B|68:330|68:330|24:294,1,110
93,214,31977,6,0,L|280:258,1,142.99999345398
433,287,32341,1,0,0:0:0:0:
482,260,32432,1,0,0:0:0:0:
501,209,32522,1,0,0:0:0:0:
340,242,32704,1,0,0:0:0:0:
380,282,32795,1,0,0:0:0:0:
433,287,32886,1,0,0:0:0:0:
482,260,32977,1,0,0:0:0:0:
501,209,33068,1,0,0:0:0:0:
484,154,33159,1,0,0:0:0:0:
436,121,33250,2,0,P|378:128|348:158,1,71.4999967269899
232,246,33432,6,0,L|93:214,1,142.99999345398
501,209,33795,1,0,0:0:0:0:
482,260,33885,1,0,0:0:0:0:
433,287,33976,1,0,0:0:0:0:
112,128,34159,5,0,0:0:0:0:
167,143,34250,1,0,0:0:0:0:
219,121,34341,1,0,0:0:0:0:
243,69,34432,1,0,0:0:0:0:
227,14,34522,2,0,L|183:229,1,214.49999018097
93,214,34886,6,0,L|232:246,1,142.99999345398
433,287,35250,1,0,0:0:0:0:
482,260,35341,1,0,0:0:0:0:
501,209,35431,1,0,0:0:0:0:
227,14,35613,5,0,0:0:0:0:
243,69,35704,1,0,0:0:0:0:
295,46,35795,1,0,0:0:0:0:
311,101,35886,1,0,0:0:0:0:
363,78,35977,1,0,0:0:0:0:
379,133,36068,1,0,0:0:0:0:
431,110,36159,2,0,P|437:72|427:41,1,71.4999967269899
231,149,36341,5,0,0:0:0:0:
197,195,36432,1,0,0:0:0:0:
143,214,36522,1,0,0:0:0:0:
87,200,36613,1,0,0:0:0:0:
72,96,36704,6,0,P|108:98|139:116,1,71.4999967269899
244,272,36886,2,0,P|259:303|259:339,1,71.4999967269899
87,200,37068,5,0,0:0:0:0:
143,214,37159,1,0,0:0:0:0:
197,195,37249,1,0,0:0:0:0:
231,149,37340,1,0,0:0:0:0:
138,115,37432,6,0,P|107:97|71:96,1,71.4999967269899
258,339,37613,2,0,P|259:303|243:271,1,71.4999967269899
232,246,37795,6,0,L|93:214,1,142.99999345398
501,209,38159,1,0,0:0:0:0:
482,260,38249,1,0,0:0:0:0:
433,287,38340,1,0,0:0:0:0:
231,149,38522,5,0,0:0:0:0:
233,91,38613,1,0,0:0:0:0:
203,41,38704,1,0,0:0:0:0:
149,18,38795,1,0,0:0:0:0:
94,26,38886,1,0,0:0:0:0:
52,64,38977,1,0,0:0:0:0:
43,120,39068,2,0,L|127:98,1,71.4999967269899
93,214,39250,6,0,L|232:246,1,142.99999345398
433,287,39613,1,0,0:0:0:0:
482,260,39704,1,0,0:0:0:0:
501,209,39794,1,0,0:0:0:0:
429,24,39977,5,0,0:0:0:0:
373,39,40068,1,0,0:0:0:0:
341,86,40159,1,0,0:0:0:0:
348,142,40250,1,0,0:0:0:0:
390,180,40341,2,0,P|399:280|299:286,1,214.49999018097
232,246,40704,6,0,L|93:214,1,142.99999345398
501,209,41068,1,0,0:0:0:0:
482,260,41158,1,0,0:0:0:0:
433,287,41249,1,0,0:0:0:0:
286,85,41432,6,0,L|425:117,1,142.99999345398
112,101,41795,1,0,0:0:0:0:
131,50,41885,1,0,0:0:0:0:
180,23,41976,1,0,0:0:0:0:
226,299,42159,5,0,0:0:0:0:
286,85,42341,1,0,0:0:0:0:
332,361,42522,1,0,0:0:0:0:
180,23,42704,1,0,0:0:0:0:
254,196,42886,6,0,L|234:159,2,27.5
170,204,43250,6,0,P|243:275|285:118,1,330
295,123,43613,6,0,L|354:314,1,183.333333333333
254,196,43977,2,0,L|307:20,1,183.333333333333
211,132,44341,2,0,L|269:322,1,183.333333333333
170,204,44705,2,0,L|223:28,1,183.333333333333
222,28,45068,5,0,0:0:0:0:
170,204,45250,1,0,0:0:0:0:
349,298,45432,1,0,0:0:0:0:
295,123,45613,1,0,0:0:0:0:
170,204,45795,6,0,L|98:227,1,55
222,28,45977,2,0,L|150:51,1,55
170,204,46159,6,0,L|224:21,1,183.150004471436
170,204,46522,6,0,L|146:290,1,73.3333333333333
221,28,46704,2,0,L|197:114,1,73.3333333333333
221,380,46886,2,0,L|169:203,1,183.333333333333
254,205,47250,6,0,L|275:277,1,73.3333333333333
357,261,47432,2,0,L|335:331,1,73.3333333333333
221,28,47613,2,0,L|241:98,1,73.3333333333333
390,84,47795,2,0,L|368:156,1,73.3333333333333
335,331,47977,5,0,0:0:0:0:
254,205,48159,1,0,0:0:0:0:
390,84,48341,1,0,0:0:0:0:
221,28,48522,1,0,0:0:0:0:
390,84,48704,2,0,L|454:74,1,55
444,75,49068,6,0,L|381:86,1,55
239,116,49432,6,0,L|55:80,1,183.333333333333
144,204,49795,6,0,L|215:189,1,73.3333333333333
208,296,49977,2,0,L|136:281,1,73.3333333333333
290,176,50159,2,0,L|361:161,1,73.3333333333333
354,268,50341,2,0,L|282:253,1,73.3333333333333
440,148,50522,2,0,L|511:133,1,73.3333333333333
504,240,50704,2,0,L|432:225,1,73.3333333333333
144,204,50886,5,0,0:0:0:0:
354,268,51068,1,0,0:0:0:0:
440,148,51250,1,0,0:0:0:0:
208,296,51432,1,0,0:0:0:0:
290,176,51613,6,0,L|305:77,1,55
288,60,51795,2,0,L|277:132,1,55
354,268,51977,6,0,L|181:240,1,165
98,221,52341,6,0,L|25:208,1,73.3333333333333
151,145,52522,2,0,L|108:85,1,73.3333333333333
120,307,52704,2,0,L|60:349,1,73.3333333333333
191,241,52886,1,0,0:0:0:0:
25,208,53068,6,0,L|98:221,1,73.3333333333333
108,85,53250,2,0,L|151:145,1,73.3333333333333
60,349,53432,2,0,L|120:307,1,73.3333333333333
191,241,53613,1,0,0:0:0:0:
191,241,53795,5,0,0:0:0:0:
256,192,53886,12,0,54795,0:0:0:0:
261,17,54886,6,0,P|271:53|268:84,1,55
251,367,55068,2,0,P|241:331|244:300,1,55
256,192,55250,5,0,0:0:0:0:
335,154,55613,1,0,0:0:0:0:
177,230,55886,1,0,0:0:0:0:
294,271,56159,1,0,0:0:0:0:
218,113,56432,1,0,0:0:0:0:
256,192,56704,5,0,0:0:0:0:
421,112,57068,1,0,0:0:0:0:
90,271,57341,1,0,0:0:0:0:
335,357,57614,1,0,0:0:0:0:
176,26,57887,1,0,0:0:0:0:
256,192,58159,5,0,0:0:0:0:
316,81,58522,1,0,0:0:0:0:
370,264,58795,1,0,0:0:0:0:
358,0,59068,1,0,0:0:0:0:
449,323,59341,1,0,0:0:0:0:
466,181,59613,5,0,0:0:0:0:
466,181,59977,1,0,0:0:0:0:
449,323,60250,1,0,0:0:0:0:
358,0,60522,1,0,0:0:0:0:
370,264,60795,1,0,0:0:0:0:
256,192,61068,5,0,0:0:0:0:
256,192,61432,1,0,0:0:0:0:
169,144,61613,1,0,0:0:0:0:
169,144,61704,1,0,0:0:0:0:
169,144,61795,1,0,0:0:0:0:
99,214,61977,1,0,0:0:0:0:
108,76,62159,1,0,0:0:0:0:
149,49,62250,1,0,0:0:0:0:
197,62,62341,1,0,0:0:0:0:
184,252,62522,5,0,0:0:0:0:
184,252,62704,1,0,0:0:0:0:
66,140,62886,1,0,0:0:0:0:
261,112,63068,1,0,0:0:0:0:
261,112,63159,1,0,0:0:0:0:
261,112,63250,1,0,0:0:0:0:
184,252,63432,1,0,0:0:0:0:
108,76,63613,1,0,0:0:0:0:
149,49,63704,1,0,0:0:0:0:
197,62,63795,1,0,0:0:0:0:
207,332,63977,5,0,0:0:0:0:
492,261,64341,1,0,0:0:0:0:
268,273,64522,1,0,0:0:0:0:
268,273,64613,1,0,0:0:0:0:
268,273,64704,1,0,0:0:0:0:
431,320,64886,1,0,0:0:0:0:
329,216,65068,1,0,0:0:0:0:
334,183,65159,1,0,0:0:0:0:
341,150,65250,1,0,0:0:0:0:
376,384,65432,5,0,0:0:0:0:
376,384,65613,1,0,0:0:0:0:
329,216,65795,1,0,0:0:0:0:
431,320,65977,1,0,0:0:0:0:
431,320,66068,1,0,0:0:0:0:
431,320,66159,1,0,0:0:0:0:
268,273,66341,1,0,0:0:0:0:
492,261,66522,1,0,0:0:0:0:
497,228,66613,1,0,0:0:0:0:
504,195,66704,1,0,0:0:0:0:
207,332,66886,6,0,B|2:302|2:302|105:278,1,308
108,277,67613,5,0,0:0:0:0:
116,275,67704,1,0,0:0:0:0:
124,273,67795,1,0,0:0:0:0:
132,271,67886,1,0,0:0:0:0:
140,269,67977,1,0,0:0:0:0:
148,267,68068,1,0,0:0:0:0:
156,265,68159,1,0,0:0:0:0:
164,263,68250,1,0,0:0:0:0:
172,261,68341,5,0,0:0:0:0:
180,259,68431,1,0,0:0:0:0:
188,257,68522,1,0,0:0:0:0:
196,255,68613,1,0,0:0:0:0:
204,253,68704,1,0,0:0:0:0:
212,251,68795,1,0,0:0:0:0:
220,249,68886,1,0,0:0:0:0:
228,247,68977,1,0,0:0:0:0:
236,245,69068,5,0,0:0:0:0:
210,236,69159,1,0,0:0:0:0:
184,227,69250,1,0,0:0:0:0:
158,218,69341,1,0,0:0:0:0:
132,209,69432,1,0,0:0:0:0:
106,200,69522,1,0,0:0:0:0:
80,191,69613,1,0,0:0:0:0:
54,182,69704,1,0,0:0:0:0:
28,173,69795,5,0,0:0:0:0:
55,138,69886,1,0,0:0:0:0:
96,123,69977,1,0,0:0:0:0:
139,125,70068,1,0,0:0:0:0:
173,152,70159,1,0,0:0:0:0:
202,184,70250,1,0,0:0:0:0:
244,195,70341,1,0,0:0:0:0:
287,190,70432,1,0,0:0:0:0:
321,163,70522,5,0,0:0:0:0:
315,215,70613,1,0,0:0:0:0:
309,267,70704,1,0,0:0:0:0:
303,319,70795,1,0,0:0:0:0:
297,371,70886,1,0,0:0:0:0:
338,338,70977,1,0,0:0:0:0:
379,306,71068,1,0,0:0:0:0:
420,273,71159,1,0,0:0:0:0:
461,240,71250,5,0,0:0:0:0:
415,213,71341,1,0,0:0:0:0:
367,189,71432,1,0,0:0:0:0:
321,163,71522,1,0,0:0:0:0:
366,135,71613,1,0,0:0:0:0:
411,108,71704,1,0,0:0:0:0:
459,86,71795,1,0,0:0:0:0:
504,59,71886,1,0,0:0:0:0:
504,59,72341,6,0,P|458:101|461:149,1,93.500001783371
461,240,72704,5,0,0:0:0:0:
318,343,72886,1,0,0:0:0:0:
216,198,73068,1,0,0:0:0:0:
216,198,73159,1,0,0:0:0:0:
216,198,73250,1,0,0:0:0:0:
391,291,73432,5,0,0:0:0:0:
265,267,73613,1,0,0:0:0:0:
349,151,73795,1,0,0:0:0:0:
349,151,73886,1,0,0:0:0:0:
349,151,73977,1,0,0:0:0:0:
318,343,74159,5,0,0:0:0:0:
265,267,74341,1,0,0:0:0:0:
223,283,74432,1,0,0:0:0:0:
180,276,74522,1,0,0:0:0:0:
146,247,74613,1,0,0:0:0:0:
130,205,74704,1,0,0:0:0:0:
139,162,74795,1,0,0:0:0:0:
166,128,74886,1,0,0:0:0:0:
180,276,75068,5,0,0:0:0:0:
146,247,75159,1,0,0:0:0:0:
130,205,75250,1,0,0:0:0:0:
139,162,75341,1,0,0:0:0:0:
166,128,75432,1,0,0:0:0:0:
206,112,75522,1,0,0:0:0:0:
249,117,75613,5,0,0:0:0:0:
387,8,75795,1,0,0:0:0:0:
443,174,75977,1,0,0:0:0:0:
443,174,76068,1,0,0:0:0:0:
443,174,76159,1,0,0:0:0:0:
317,64,76341,5,0,0:0:0:0:
416,91,76522,1,0,0:0:0:0:
323,214,76704,1,0,0:0:0:0:
323,214,76795,1,0,0:0:0:0:
323,214,76886,1,0,0:0:0:0:
387,8,77068,5,0,0:0:0:0:
416,91,77250,1,0,0:0:0:0:
428,133,77341,1,0,0:0:0:0:
443,174,77432,1,0,0:0:0:0:
455,216,77522,1,0,0:0:0:0:
470,257,77613,1,0,0:0:0:0:
428,243,77704,1,0,0:0:0:0:
384,235,77795,1,0,0:0:0:0:
443,174,77977,5,0,0:0:0:0:
455,216,78068,1,0,0:0:0:0:
470,257,78159,1,0,0:0:0:0:
428,243,78250,1,0,0:0:0:0:
384,235,78341,1,0,0:0:0:0:
341,222,78432,1,0,0:0:0:0:
298,210,78522,1,0,0:0:0:0:
32,107,78704,5,0,0:0:0:0:
34,123,78795,1,0,0:0:0:0:
31,89,78886,5,0,0:0:0:0:
36,139,78977,1,0,0:0:0:0:
29,74,79068,5,0,0:0:0:0:
39,155,79159,1,0,0:0:0:0:
33,115,79250,5,0,0:0:0:0:
140,138,79432,5,0,0:0:0:0:
142,154,79523,1,0,0:0:0:0:
139,120,79614,5,0,0:0:0:0:
144,170,79705,1,0,0:0:0:0:
137,105,79796,5,0,0:0:0:0:
147,186,79887,1,0,0:0:0:0:
141,146,79978,5,0,0:0:0:0:
248,169,80159,5,0,0:0:0:0:
250,185,80250,1,0,0:0:0:0:
247,151,80341,5,0,0:0:0:0:
252,201,80432,1,0,0:0:0:0:
245,136,80523,5,0,0:0:0:0:
255,217,80614,1,0,0:0:0:0:
249,177,80705,5,0,0:0:0:0:
356,200,80886,5,0,0:0:0:0:
358,216,80977,1,0,0:0:0:0:
355,182,81068,5,0,0:0:0:0:
360,232,81159,1,0,0:0:0:0:
353,167,81250,5,0,0:0:0:0:
363,248,81341,1,0,0:0:0:0:
353,167,81432,5,0,0:0:0:0:
355,182,81522,1,0,0:0:0:0:
356,200,81613,1,0,0:0:0:0:
358,216,81704,1,0,0:0:0:0:
245,136,81795,5,0,0:0:0:0:
247,151,81885,1,0,0:0:0:0:
248,169,81976,1,0,0:0:0:0:
250,185,82067,1,0,0:0:0:0:
137,105,82159,5,0,0:0:0:0:
139,120,82249,1,0,0:0:0:0:
140,138,82340,1,0,0:0:0:0:
142,154,82431,1,0,0:0:0:0:
29,74,82522,5,0,0:0:0:0:
31,89,82612,1,0,0:0:0:0:
32,107,82703,1,0,0:0:0:0:
34,123,82794,1,0,0:0:0:0:
48,221,82886,6,0,L|282:280,1,242
357,300,83977,6,0,P|331:340|291:350,1,65.9999979858399
142,154,84341,6,0,P|199:107|262:120,1,131.99999597168
357,300,84704,2,0,L|374:372,2,65.9999979858399
243,29,85068,6,0,P|312:54|332:115,1,131.99999597168
372,364,85432,2,0,L|351:279,1,65.9999979858399
354,289,85795,6,0,L|237:311,1,110
509,126,86159,6,0,L|392:148,1,88
245,309,86522,6,0,L|128:331,1,110
315,162,86886,6,0,L|510:126,1,197.99999395752
301,167,87250,6,0,L|271:8,1,142.99999345398
65,163,87613,2,0,L|35:4,1,142.99999345398
301,167,87977,6,0,L|285:87,1,71.4999967269899
65,163,88159,2,0,L|49:83,1,71.4999967269899
301,167,88341,2,0,L|285:87,1,71.4999967269899
50,92,88522,1,0,0:0:0:0:
286,96,88704,6,0,L|301:167,1,71.4999967269899
50,92,88886,2,0,L|65:163,1,71.4999967269899
286,96,89068,2,0,L|301:167,1,71.4999967269899
50,92,89250,2,0,L|64:162,1,71.4999967269899
301,167,89432,5,0,0:0:0:0:
301,167,89795,1,0,0:0:0:0:
272,15,90159,6,0,L|301:167,1,153.999995300293
332,325,90522,1,0,0:0:0:0:
332,325,90613,1,0,0:0:0:0:
332,325,90704,1,0,0:0:0:0:
181,291,90886,6,0,P|129:328|91:325,1,76.9999976501466
48,205,91068,2,0,P|100:242|138:239,1,76.9999976501466
370,213,91250,6,0,P|318:250|280:247,1,76.9999976501466
237,127,91432,2,0,P|289:164|327:161,1,76.9999976501466
436,93,91613,6,0,L|300:166,1,153.999995300293
332,325,91977,1,0,0:0:0:0:
332,325,92068,1,0,0:0:0:0:
332,325,92159,1,0,0:0:0:0:
47,336,92341,1,0,0:0:0:0:
81,284,92432,1,0,0:0:0:0:
137,260,92522,1,0,0:0:0:0:
198,267,92613,1,0,0:0:0:0:
244,308,92704,2,0,B|297:285|369:312|326:348|400:372|458:344,1,230.99999295044
412,272,93068,6,0,L|299:166,1,153.999995300293
332,325,93432,1,0,0:0:0:0:
332,325,93522,1,0,0:0:0:0:
332,325,93613,1,0,0:0:0:0:
234,22,93795,1,0,0:0:0:0:
288,51,93886,1,0,0:0:0:0:
312,106,93977,1,0,0:0:0:0:
299,166,94068,1,0,0:0:0:0:
344,124,94159,1,0,0:0:0:0:
404,110,94250,1,0,0:0:0:0:
462,131,94341,2,0,P|485:182|479:217,1,76.9999976501466
299,166,94522,5,0,0:0:0:0:
312,106,94613,1,0,0:0:0:0:
288,51,94704,1,0,0:0:0:0:
234,22,94795,1,0,0:0:0:0:
224,113,94886,6,0,P|186:101|156:66,1,76.9999976501466
224,113,95068,2,0,P|207:147|208:185,1,76.9999976501466
299,166,95250,5,0,0:0:0:0:
344,124,95341,1,0,0:0:0:0:
404,110,95432,1,0,0:0:0:0:
462,131,95522,1,0,0:0:0:0:
393,199,95613,6,0,P|425:222|470:226,1,76.9999976501466
393,199,95795,2,0,P|376:233|345:255,1,76.9999976501466
234,305,95978,6,0,L|299:165,1,153.999995300293
332,325,96342,1,0,0:0:0:0:
332,325,96432,1,0,0:0:0:0:
332,325,96523,1,0,0:0:0:0:
75,321,96704,6,0,P|114:350|155:348,1,76.9999976501466
398,355,96886,2,0,P|359:326|318:328,1,76.9999976501466
18,243,97068,6,0,P|66:235|93:205,1,76.9999976501466
270,38,97250,2,0,P|221:45|194:75,1,76.9999976501466
148,147,97432,6,0,L|300:166,1,153.999995300293
332,325,97795,1,0,0:0:0:0:
332,325,97885,1,0,0:0:0:0:
332,325,97976,1,0,0:0:0:0:
504,262,98159,1,0,0:0:0:0:
455,224,98250,1,0,0:0:0:0:
442,163,98341,1,0,0:0:0:0:
453,102,98432,1,0,0:0:0:0:
485,51,98522,2,0,B|432:74|360:47|403:11|329:-13|271:15,1,230.99999295044
272,15,98886,6,0,L|301:167,1,153.999995300293
332,325,99250,1,0,0:0:0:0:
332,325,99340,1,0,0:0:0:0:
332,325,99431,1,0,0:0:0:0:
123,358,99613,6,0,L|94:206,1,153.999995300293
65,33,99977,1,0,0:0:0:0:
65,33,100067,1,0,0:0:0:0:
65,33,100158,1,0,0:0:0:0:
123,358,100341,5,0,0:0:0:0:
65,33,100522,1,0,0:0:0:0:
256,192,100704,2,0,L|337:219,2,76.9999976501466
465,34,101068,6,0,P|361:38|323:135,1,220
356,384,101341,6,0,B|333:331|360:259|396:302|420:228|392:170,1,220
193,113,101613,6,0,B|207:167|207:167|255:191,1,110
446,352,101795,6,0,L|270:383,1,153.999995300293
255,190,102159,1,0,0:0:0:0:
331,183,102250,1,0,0:0:0:0:
403,207,102341,1,0,0:0:0:0:
439,274,102432,1,0,0:0:0:0:
446,352,102522,6,0,L|270:383,1,153.999995300293
204,249,102886,1,0,0:0:0:0:
255,190,102977,1,0,0:0:0:0:
271,114,103068,1,0,0:0:0:0:
244,41,103159,1,0,0:0:0:0:
176,3,103250,5,0,0:0:0:0:
161,7,103341,1,0,0:0:0:0:
146,11,103432,1,0,0:0:0:0:
131,15,103522,1,0,0:0:0:0:
76,79,103613,5,0,0:0:0:0:
91,83,103704,1,0,0:0:0:0:
106,87,103795,1,0,0:0:0:0:
121,91,103885,1,0,0:0:0:0:
165,172,103977,5,0,0:0:0:0:
120,235,104068,1,0,0:0:0:0:
141,309,104159,1,0,0:0:0:0:
213,333,104250,1,0,0:0:0:0:
279,294,104341,1,0,0:0:0:0:
284,217,104432,1,0,0:0:0:0:
346,173,104522,1,0,0:0:0:0:
422,184,104613,1,0,0:0:0:0:
466,246,104704,6,0,L|491:67,1,153.999995300293
279,294,105068,5,0,0:0:0:0:
284,217,105160,1,0,0:0:0:0:
346,173,105250,1,0,0:0:0:0:
422,184,105341,1,0,0:0:0:0:
466,246,105432,2,0,L|491:67,1,153.999995300293
279,294,105795,5,0,0:0:0:0:
213,333,105886,1,0,0:0:0:0:
141,309,105977,1,0,0:0:0:0:
120,235,106068,1,0,0:0:0:0:
165,172,106159,5,0,0:0:0:0:
93,142,106250,1,0,0:0:0:0:
165,172,106341,1,0,0:0:0:0:
239,151,106432,1,0,0:0:0:0:
282,88,106522,1,0,0:0:0:0:
373,263,106704,1,0,0:0:0:0:
56,70,106886,5,0,0:0:0:0:
93,142,106977,1,0,0:0:0:0:
165,172,107068,1,0,0:0:0:0:
239,151,107159,1,0,0:0:0:0:
282,88,107250,1,0,0:0:0:0:
56,70,107432,1,0,0:0:0:0:
446,352,107613,6,0,L|270:383,1,153.999995300293
255,190,107977,1,0,0:0:0:0:
331,183,108068,1,0,0:0:0:0:
403,207,108159,1,0,0:0:0:0:
439,274,108250,1,0,0:0:0:0:
446,352,108341,6,0,L|270:383,1,153.999995300293
255,190,108704,1,0,0:0:0:0:
331,183,108795,1,0,0:0:0:0:
403,207,108886,1,0,0:0:0:0:
439,274,108977,1,0,0:0:0:0:
446,352,109068,5,0,0:0:0:0:
430,350,109159,1,0,0:0:0:0:
414,348,109250,1,0,0:0:0:0:
398,346,109341,1,0,0:0:0:0:
318,354,109432,5,0,0:0:0:0:
302,352,109523,1,0,0:0:0:0:
286,350,109614,1,0,0:0:0:0:
270,348,109705,1,0,0:0:0:0:
199,248,109795,5,0,0:0:0:0:
255,190,109886,1,0,0:0:0:0:
331,183,109977,1,0,0:0:0:0:
403,207,110068,1,0,0:0:0:0:
439,274,110159,5,0,0:0:0:0:
403,207,110250,1,0,0:0:0:0:
397,130,110341,1,0,0:0:0:0:
439,65,110432,1,0,0:0:0:0:
512,44,110522,6,0,L|535:216,1,153.999995300293
73,274,110886,5,0,0:0:0:0:
109,207,110977,1,0,0:0:0:0:
115,130,111068,1,0,0:0:0:0:
73,65,111159,1,0,0:0:0:0:
0,44,111250,6,0,L|-23:216,1,153.999995300293
256,0,111613,5,0,0:0:0:0:
256,96,111704,1,0,0:0:0:0:
256,192,111795,1,0,0:0:0:0:
256,288,111886,1,0,0:0:0:0:
256,384,111977,5,0,0:0:0:0:
397,130,112159,1,0,0:0:0:0:
115,130,112341,1,0,0:0:0:0:
256,384,112522,1,0,0:0:0:0:
256,96,112704,6,0,L|257:8,2,76.9999976501466
380,203,113068,6,0,P|489:273|434:141,1,330
452,211,113432,5,0,0:0:0:0:
256,192,113522,12,0,116341,0:0:0:0:
