osu file format v13

[General]
AudioFilename: PLight - NINJA.mp3
AudioLeadIn: 0
PreviewTime: 49630
Countdown: 0
SampleSet: Normal
StackLeniency: 0.4
Mode: 0
LetterboxInBreaks: 0
WidescreenStoryboard: 0

[Editor]
DistanceSpacing: 0.6
BeatDivisor: 4
GridSize: 4
TimelineZoom: 2.1

[Metadata]
Title:NINJA
TitleUnicode:NINJA
Artist:P*Light
ArtistUnicode:P*Light
Creator:Kyubey
Version:Insane
Source:
Tags:samurai dancehall electro planet c82 comiket ryuu reiji-rj evilelvis alacat iyasine aka
BeatmapID:497762
BeatmapSetID:195307

[Difficulty]
HPDrainRate:7
CircleSize:4
OverallDifficulty:8
ApproachRate:9
SliderMultiplier:1.8
SliderTickRate:1

[Events]
//Background and Video events
0,0,"wallpaper-696324.jpg",0,0
//Break Periods
//Storyboard Layer 0 (Background)
//Storyboard Layer 1 (Fail)
//Storyboard Layer 2 (Pass)
//Storyboard Layer 3 (Foreground)
//Storyboard Sound Samples

[TimingPoints]
4373,342.857142857143,4,2,1,100,1,0
5401,-133.333333333333,4,2,2,45,0,0
5744,-133.333333333333,4,2,1,45,0,0
22201,-133.333333333333,4,1,1,25,0,0
22887,-133.333333333333,4,1,1,33,0,0
23573,-133.333333333333,4,1,1,41,0,0
24258,-133.333333333333,4,1,1,49,0,0
24944,-133.333333333333,4,1,1,55,0,0
25630,-133.333333333333,4,1,1,65,0,0
25973,-200,4,1,1,35,0,0
27344,-100,4,2,1,60,0,0
40030,-200,4,2,2,50,0,0
41401,-100,4,2,1,60,0,0
42773,-200,4,2,2,50,0,0
44144,-100,4,2,1,60,0,0
48258,-100,4,2,2,60,0,0
49287,-100,4,2,2,70,0,0
49630,-100,4,1,1,60,0,1
59230,-200,4,1,1,60,0,0
60258,-66.6666666666667,4,1,1,60,0,0
60601,-100,4,1,1,60,0,1
70201,-100,4,2,2,60,0,0
71573,-100,4,1,1,60,0,1
71658,-100,4,1,1,60,0,0
82544,-100,4,1,2,60,0,0
83915,-100,4,1,1,60,0,1
92144,-100,4,1,1,60,0,0
93173,-58.8235294117647,4,1,1,60,0,0
93515,-133.333333333333,4,1,1,60,0,0
98315,-200,4,1,1,60,0,0
98658,-83.3333333333333,4,1,1,60,0,0
99001,-133.333333333333,4,1,1,60,0,0
109287,-200,4,1,1,60,0,0
109630,-83.3333333333333,4,1,1,60,0,0
109973,-133.333333333333,4,1,1,60,0,0
114087,-133.333333333333,4,2,2,34,0,0
116830,-133.333333333333,4,2,1,40,0,0
117515,-133.333333333333,4,2,1,30,0,0
118201,-133.333333333333,4,2,1,20,0,0
118544,-133.333333333333,4,2,1,10,0,0

[Colours]
Combo1 : 146,236,55
Combo2 : 89,175,221
Combo3 : 238,238,72
Combo4 : 228,50,72

[HitObjects]
68,248,5401,5,2,0:0:0:0:
68,248,5744,6,0,L|148:272,1,67.5000025749208,4|0,1:2|0:0,0:0:0:0:
208,248,6087,2,0,L|288:272,1,67.5000025749208,2|0,0:0|0:0,0:0:0:0:
348,248,6430,1,2,0:0:0:0:
348,248,6773,1,2,0:0:0:0:
424,112,6944,1,2,0:0:0:0:
348,248,7287,5,0,0:0:0:0:
424,112,7458,1,2,0:0:0:0:
488,248,7630,1,2,0:0:0:0:
488,248,7715,1,2,0:0:0:0:
488,248,7801,1,2,0:0:0:0:
420,192,7973,1,0,0:0:0:0:
328,168,8144,1,2,0:0:0:0:
236,196,8315,1,2,0:0:0:0:
172,264,8487,6,0,L|108:296,1,67.5000025749208,2|0,0:0|0:0,0:0:0:0:
76,208,8830,2,0,L|80:136,1,67.5000025749208,2|0,0:0|0:0,0:0:0:0:
173,144,9173,1,2,0:0:0:0:
173,144,9515,1,2,0:0:0:0:
288,248,9687,1,2,0:0:0:0:
173,144,10030,5,0,0:0:0:0:
288,248,10201,1,2,0:0:0:0:
316,96,10373,1,2,0:0:0:0:
316,96,10458,1,2,0:0:0:0:
316,96,10544,1,2,0:0:0:0:
248,164,10715,1,0,0:0:0:0:
208,248,10887,1,2,0:0:0:0:
240,336,11058,1,2,0:0:0:0:
324,376,11230,6,0,P|360:360|400:336,1,67.5000025749208,2|0,0:0|0:0,0:0:0:0:
388,252,11573,2,0,P|351:267|312:292,1,67.5000025749208,2|0,0:0|0:0,0:0:0:0:
324,376,11915,1,2,0:0:0:0:
324,376,12258,1,2,0:0:0:0:
380,232,12430,1,2,0:0:0:0:
324,376,12773,5,0,0:0:0:0:
380,232,12944,1,2,0:0:0:0:
488,128,13115,1,2,0:0:0:0:
488,128,13201,1,2,0:0:0:0:
488,128,13287,1,2,0:0:0:0:
404,156,13458,1,0,0:0:0:0:
308,160,13630,1,2,0:0:0:0:
216,132,13801,1,2,0:0:0:0:
132,92,13973,6,0,P|128:120|140:180,1,67.5000025749208,2|0,0:0|0:0,0:0:0:0:
200,224,14315,2,0,P|204:252|192:312,1,67.5000025749208,2|0,0:0|0:0,0:0:0:0:
144,368,14658,1,2,0:0:0:0:
300,332,15001,1,2,0:0:0:0:
144,368,15173,1,2,0:0:0:0:
300,332,15515,5,0,0:0:0:0:
144,368,15687,1,2,0:0:0:0:
232,176,15858,1,2,0:0:0:0:
232,176,15944,1,2,0:0:0:0:
232,176,16030,1,2,0:0:0:0:
212,284,16201,1,0,0:0:0:0:
336,200,16373,2,0,P|337:160|328:128,1,67.5000025749208,2|2,0:0|0:0,0:0:0:0:
304,272,16715,6,0,P|314:306|344:336,1,67.5000025749208,4|0,0:0|0:0,0:0:0:0:
432,240,17058,2,0,P|440:196|432:148,1,67.5000025749208,10|0,0:0|0:0,0:0:0:0:
468,104,17315,1,0,0:0:0:0:
468,104,17401,2,0,L|528:172,1,67.5000025749208,2|0,0:0|0:0,0:0:0:0:
352,196,17744,1,10,0:0:0:0:
324,48,17915,1,2,0:0:0:0:
376,108,18087,6,0,P|344:124|296:120,1,67.5000025749208
168,84,18430,1,8,0:0:0:0:
208,228,18601,1,2,0:0:0:0:
208,228,18687,1,2,0:0:0:0:
208,228,18773,2,0,L|184:312,1,67.5000025749208,2|0,0:0|0:0,0:0:0:0:
144,176,19115,2,0,P|176:152|224:144,1,67.5000025749208,10|2,0:0|0:0,0:0:0:0:
328,224,19458,6,0,P|362:231|400:232,1,67.5000025749208,2|0,0:0|0:0,0:0:0:0:
264,276,19801,2,0,P|229:280|193:294,1,67.5000025749208,10|0,0:0|0:0,0:0:0:0:
184,220,20058,1,0,0:0:0:0:
184,220,20144,2,0,L|224:148,1,67.5000025749208,2|0,0:0|0:0,0:0:0:0:
320,48,20487,1,10,0:0:0:0:
368,192,20658,1,2,0:0:0:0:
272,116,20830,6,0,P|248:92|236:48,1,67.5000025749208
368,192,21173,1,10,0:0:0:0:
300,288,21344,1,2,0:0:0:0:
300,288,21430,1,2,0:0:0:0:
300,288,21515,2,0,P|282:320|268:360,1,67.5000025749208,2|0,0:0|0:0,0:0:0:0:
160,376,21858,2,0,P|116:376|80:380,1,67.5000025749208,10|0,0:0|0:0,0:0:0:0:
168,264,22201,5,6,0:2:0:0:
183,257,22287,1,0,0:2:0:0:
196,246,22373,1,0,0:2:0:0:
206,232,22458,1,0,0:2:0:0:
213,216,22544,1,6,0:2:0:0:
217,199,22630,1,0,0:2:0:0:
224,183,22715,1,0,0:2:0:0:
234,169,22801,1,0,0:2:0:0:
247,158,22887,1,6,0:2:0:0:
262,151,22973,1,0,0:2:0:0:
278,151,23058,1,0,0:2:0:0:
293,157,23144,1,0,0:2:0:0:
306,167,23230,1,6,0:2:0:0:
313,181,23315,1,0,0:2:0:0:
315,197,23401,1,2,0:2:0:0:
313,213,23487,1,0,0:2:0:0:
297,239,23573,5,4,0:2:0:0:
313,264,23658,1,0,0:2:0:0:
338,280,23744,1,0,0:2:0:0:
368,283,23830,1,0,0:2:0:0:
397,277,23915,1,6,0:2:0:0:
420,257,24001,1,0,0:2:0:0:
436,231,24087,1,2,0:2:0:0:
440,200,24173,1,2,0:2:0:0:
432,170,24258,1,6,0:2:0:0:
414,145,24344,1,0,0:2:0:0:
387,129,24430,1,0,0:2:0:0:
357,125,24515,1,0,0:2:0:0:
327,133,24601,1,6,0:2:0:0:
302,150,24687,1,0,0:2:0:0:
284,175,24773,1,2,0:2:0:0:
281,205,24858,1,0,0:2:0:0:
297,239,24944,5,6,0:2:0:0:
274,277,25030,1,0,0:2:0:0:
237,301,25115,1,0,0:2:0:0:
192,301,25201,1,0,0:2:0:0:
151,283,25287,1,6,0:2:0:0:
128,244,25373,1,0,0:2:0:0:
123,200,25458,1,0,0:2:0:0:
140,159,25544,1,0,0:2:0:0:
176,133,25630,1,6,0:2:0:0:
219,126,25715,1,0,0:2:0:0:
261,137,25801,1,0,0:2:0:0:
287,172,25887,1,0,0:2:0:0:
299,214,25973,6,0,L|304:228,7,11.25,0|0|0|0|0|0|0|0,0:0|0:0|0:0|0:0|0:0|0:0|0:0|0:0,0:0:0:0:
299,214,27344,2,0,P|288:240|296:288,1,45
372,176,27515,2,0,P|383:150|375:102,1,45
368,256,27687,6,0,P|408:272|480:280,1,90,4|0,1:2|0:0,0:0:0:0:
280,136,28030,2,0,P|241:157|220:216,1,90,2|0,1:2|0:0,0:0:0:0:
148,312,28373,1,2,1:2:0:0:
92,188,28544,1,2,0:2:0:0:
76,160,28630,1,2,0:2:0:0:
60,136,28715,2,0,P|56:188|60:244,1,90,2|4,1:2|0:0,0:0:0:0:
148,312,29058,5,0,1:0:0:0:
148,312,29230,1,2,0:0:0:0:
184,180,29401,2,0,P|188:128|184:72,1,90,2|0,1:2|0:0,0:0:0:0:
296,184,29744,1,2,1:2:0:0:
304,220,29830,1,2,0:2:0:0:
320,252,29915,1,2,0:2:0:0:
340,280,30001,1,0,0:0:0:0:
368,304,30087,1,0,1:0:0:0:
424,180,30258,1,2,0:0:0:0:
368,56,30430,6,0,P|327:52|276:64,1,90,2|0,1:2|0:0,0:0:0:0:
424,180,30773,2,0,P|468:152|492:108,1,90,2|0,1:2|0:0,0:0:0:0:
444,260,31115,1,2,1:2:0:0:
408,100,31287,1,2,0:2:0:0:
400,68,31373,1,2,0:2:0:0:
392,36,31458,2,0,P|348:64|324:108,1,90,2|4,1:2|0:0,0:0:0:0:
296,228,31801,5,0,1:0:0:0:
296,228,31973,1,2,0:0:0:0:
200,132,32144,2,0,P|163:127|92:128,1,90,2|0,1:2|0:0,0:0:0:0:
296,228,32487,2,0,L|332:188,2,45,2|2|2,1:2|0:0|0:0,0:0:0:0:
276,252,32744,1,0,0:0:0:0:
264,280,32830,2,0,P|252:304|248:336,1,45,2|0,1:2|0:0,0:0:0:0:
180,244,33001,2,0,P|177:219|160:180,1,45,2|0,0:0|0:0,0:0:0:0:
92,308,33173,6,0,P|128:340|180:352,1,90,4|0,1:2|0:0,0:0:0:0:
353,279,33515,2,0,P|308:274|264:280,1,90,2|0,1:2|0:0,0:0:0:0:
480,344,33858,1,2,1:2:0:0:
460,196,34030,1,2,0:0:0:0:
456,164,34115,1,2,0:0:0:0:
449,133,34201,2,0,P|437:89|416:32,1,90,2|4,1:2|0:0,0:0:0:0:
312,136,34544,5,0,1:0:0:0:
312,136,34715,1,2,0:0:0:0:
200,52,34887,2,0,P|180:92|176:156,1,90,2|0,1:2|0:0,0:0:0:0:
160,260,35230,1,2,1:2:0:0:
160,228,35315,1,2,0:2:0:0:
156,196,35401,1,2,0:2:0:0:
148,164,35487,1,0,0:0:0:0:
136,136,35573,1,0,1:0:0:0:
276,216,35744,1,2,0:0:0:0:
64,212,35915,6,0,P|59:253|68:328,1,90,2|0,1:2|0:0,0:0:0:0:
188,364,36258,2,0,P|232:360|277:365,1,90,2|0,1:2|0:0,0:0:0:0:
414,344,36601,1,2,1:2:0:0:
440,208,36773,1,2,0:0:0:0:
448,176,36858,1,2,0:0:0:0:
456,144,36944,2,0,P|471:104|500:60,1,90,2|4,1:2|0:0,0:0:0:0:
336,152,37287,5,0,1:0:0:0:
336,152,37458,1,2,0:0:0:0:
192,80,37630,2,0,P|146:80|64:88,1,90,2|0,1:2|0:0,0:0:0:0:
220,216,37973,1,2,1:2:0:0:
248,200,38058,1,2,0:2:0:0:
272,180,38144,1,2,0:2:0:0:
292,156,38230,1,0,0:0:0:0:
308,128,38315,2,0,P|320:104|324:80,1,45,2|0,1:2|0:0,0:0:0:0:
388,196,38487,2,0,P|390:220|400:248,1,45,2|0,0:2|0:0,0:0:0:0:
440,320,38658,5,6,1:2:0:0:
340,312,38830,1,0,0:0:0:0:
440,312,39001,1,2,0:0:0:0:
340,320,39173,1,0,0:0:0:0:
244,312,39344,1,2,0:0:0:0:
244,312,39515,1,2,0:0:0:0:
244,312,39601,1,2,0:0:0:0:
244,312,39687,2,0,P|188:308|128:312,1,90,2|0,0:0|0:0,0:0:0:0:
36,336,40030,6,0,L|24:276,1,45,6|0,1:2|0:0,0:0:0:0:
116,232,40373,2,0,L|132:176,1,45,2|0,0:0|0:0,0:0:0:0:
162,72,40715,1,2,0:0:0:0:
162,72,41058,1,6,1:2:0:0:
82,42,41230,1,2,0:0:0:0:
248,64,41401,6,0,P|288:64|344:56,1,90,6|0,1:2|0:0,0:0:0:0:
216,160,41744,2,0,P|176:160|120:152,1,90,2|0,0:0|0:0,0:0:0:0:
248,256,42087,1,2,0:0:0:0:
249,260,42173,1,2,0:0:0:0:
250,264,42258,1,2,0:0:0:0:
251,268,42344,1,0,0:0:0:0:
252,272,42430,1,2,0:0:0:0:
253,276,42515,1,2,0:0:0:0:
254,280,42601,1,2,0:0:0:0:
255,284,42687,1,0,0:0:0:0:
255,288,42773,6,0,P|279:290|310:287,1,45,2|0,1:2|0:0,0:0:0:0:
401,289,43115,2,0,P|398:313|402:344,1,45,2|0,0:0|0:0,0:0:0:0:
480,312,43458,1,2,1:2:0:0:
354,114,43715,1,6,1:2:0:0:
342,350,43973,1,2,1:2:0:0:
400,288,44144,6,0,P|440:256|456:200,1,90,4|2,1:2|0:0,0:0:0:0:
408,48,44487,2,0,P|368:80|352:136,1,90,0|2,0:0|0:0,0:0:0:0:
208,288,44830,2,0,P|172:308|92:296,1,90,4|2,1:2|0:0,0:0:0:0:
64,148,45173,2,0,P|119:172|159:214,1,90,0|2,0:0|0:0,0:0:0:0:
336,312,45515,5,4,1:2:0:0:
376,212,45687,1,2,0:0:0:0:
208,288,45858,1,4,0:0:0:0:
192,164,46030,1,2,0:0:0:0:
376,212,46201,5,4,1:2:0:0:
416,112,46373,1,2,0:0:0:0:
192,164,46544,1,4,0:0:0:0:
176,40,46715,1,2,0:0:0:0:
416,112,46887,6,0,L|436:64,1,45,4|0,1:2|0:0,0:0:0:0:
312,168,47058,2,0,L|292:216,1,45,4|0,1:2|0:0,0:0:0:0:
392,192,47230,2,0,L|433:209,1,45,4|0,1:2|0:0,0:0:0:0:
336,88,47401,2,0,L|294:70,1,45,4|0,1:2|0:0,0:0:0:0:
416,112,47573,5,2,1:2:0:0:
420,80,47658,1,0,1:2:0:0:
408,52,47744,1,2,1:2:0:0:
388,28,47830,1,0,1:2:0:0:
360,12,47915,1,2,1:2:0:0:
328,12,48001,1,0,1:2:0:0:
296,20,48087,1,2,1:2:0:0:
272,40,48173,1,0,1:2:0:0:
260,68,48258,5,2,0:3:0:0:
276,192,48430,1,2,0:3:0:0:
392,240,48601,1,8,0:3:0:0:
376,116,48773,1,2,0:3:0:0:
260,68,48944,5,8,0:3:0:0:
237,63,49030,1,2,0:3:0:0:
215,58,49115,1,2,0:3:0:0:
192,53,49201,1,2,0:3:0:0:
124,96,49287,5,4,1:1:0:0:
124,96,49630,6,2,P|120:140|132:204,1,90,6|0,0:0|0:0,0:0:0:0:
248,272,49973,2,0,P|204:268|140:280,1,90,10|0,0:0|0:0,0:0:0:0:
332,196,50315,1,2,0:0:0:0:
272,96,50487,1,0,0:0:0:0:
332,196,50658,6,2,P|368:216|432:228,1,90,10|2,0:0|0:0,0:0:0:0:
328,304,51001,1,0,0:0:0:0:
408,120,51173,1,2,0:0:0:0:
320,40,51344,2,0,P|296:80|300:156,1,90,10|2,0:0|0:0,0:0:0:0:
300,144,51601,1,2,0:0:0:0:
312,160,51687,2,0,P|264:136|216:132,1,90,2|0,0:0|0:0,0:0:0:0:
144,296,52030,1,10,0:0:0:0:
240,240,52201,1,8,0:0:0:0:
144,184,52373,6,2,P|100:192|60:220,1,90,2|0,0:0|0:0,0:0:0:0:
240,240,52715,1,10,0:0:0:0:
236,128,52887,1,0,0:0:0:0:
392,284,53058,1,2,0:0:0:0:
296,348,53230,1,0,0:0:0:0:
392,284,53401,6,2,P|396:228|384:176,1,90,10|2,0:0|0:0,0:0:0:0:
480,324,53744,1,0,0:0:0:0:
308,240,53915,1,2,0:0:0:0:
312,336,54087,2,2,P|348:368|404:380,1,90,10|0,0:0|0:0,0:0:0:0:
392,284,54344,1,0,0:0:0:0:
392,284,54430,2,0,L|376:184,1,90,2|0,0:0|0:0,0:0:0:0:
233,51,54773,1,10,0:0:0:0:
256,168,54944,1,10,0:0:0:0:
144,128,55115,6,2,P|97:121|48:120,1,90,2|0,0:0|0:0,0:0:0:0:
199,235,55458,2,0,P|233:206|256:168,1,90,10|0,0:0|0:0,0:0:0:0:
80,228,55801,1,2,0:0:0:0:
144,128,55973,1,0,0:0:0:0:
80,228,56144,6,2,P|76:268|88:336,1,90,10|2,0:0|0:0,0:0:0:0:
12,184,56487,1,0,0:0:0:0:
152,268,56658,1,2,0:0:0:0:
300,192,56830,2,2,P|312:132|304:104,1,90,10|2,0:0|0:0,0:0:0:0:
236,144,57087,1,2,0:0:0:0:
236,144,57173,2,0,P|224:204|232:232,1,90,2|0,0:0|0:0,0:0:0:0:
460,276,57515,1,10,0:0:0:0:
300,192,57687,1,8,0:0:0:0:
144,208,57858,6,2,P|96:224|48:268,1,90,2|0,0:0|0:0,0:0:0:0:
216,248,58201,2,0,P|254:275|311:286,1,90,10|0,0:0|0:0,0:0:0:0:
68,160,58544,1,2,0:0:0:0:
16,264,58715,1,0,0:0:0:0:
68,160,58887,6,2,P|106:136|148:92,1,90,10|2,0:0|0:0,0:0:0:0:
200,24,59230,1,4,0:2:0:0:
244,128,59401,1,8,0:0:0:0:
248,120,59487,1,0,0:0:0:0:
252,112,59573,1,12,0:2:0:0:
284,228,59744,1,4,0:2:0:0:
328,328,59915,6,0,P|340:360|380:364,1,67.5,8|0,0:3|0:0,0:0:0:0:
328,328,60258,6,0,B|288:328|264:316|264:316|237:322|216:344|216:344|176:320|112:328,1,202.500007724762,4|0,0:3|0:0,0:0:0:0:
40,292,60601,6,2,P|28:256|32:164,1,90,6|0,0:0|0:0,0:0:0:0:
216,84,60944,1,10,0:0:0:0:
240,180,61115,1,0,0:0:0:0:
144,152,61287,1,2,0:0:0:0:
292,16,61458,1,0,0:0:0:0:
368,172,61630,6,2,P|362:218|324:280,1,90,10|2,0:0|0:0,0:0:0:0:
240,180,61973,1,0,0:0:0:0:
492,160,62144,1,2,0:0:0:0:
348,88,62315,2,2,P|324:48|304:4,1,90,10|2,0:0|0:0,0:0:0:0:
296,28,62573,1,0,0:0:0:0:
288,48,62658,2,2,P|272:104|252:148,1,90
168,308,63001,2,0,P|160:264|164:208,1,90,10|8,0:0|0:0,0:0:0:0:
344,232,63344,6,2,P|376:264|396:308,1,90,2|0,0:0|0:0,0:0:0:0:
289,329,63687,1,10,0:0:0:0:
440,228,63858,1,0,0:0:0:0:
276,156,64030,1,2,0:0:0:0:
289,329,64201,1,0,0:0:0:0:
344,232,64373,6,2,P|316:192|280:156,1,90,10|2,0:0|0:0,0:0:0:0:
289,329,64715,1,0,0:0:0:0:
400,128,64887,1,2,0:0:0:0:
192,156,65058,2,0,P|208:200|240:236,1,90,10|0,0:0|0:0,0:0:0:0:
276,156,65315,1,0,0:0:0:0:
276,156,65401,2,0,L|268:40,1,90,2|0,0:0|0:0,0:0:0:0:
164,288,65744,1,10,0:0:0:0:
276,156,65915,1,10,0:0:0:0:
332,316,66087,5,2,0:0:0:0:
332,316,66173,1,0,0:0:0:0:
332,316,66258,1,0,0:0:0:0:
332,316,66344,1,0,0:0:0:0:
332,316,66430,1,10,0:0:0:0:
332,316,66515,1,0,0:0:0:0:
332,316,66601,1,0,0:0:0:0:
332,316,66687,1,0,0:0:0:0:
332,316,66773,5,2,0:0:0:0:
364,320,66858,1,0,0:0:0:0:
396,316,66944,1,0,0:0:0:0:
424,300,67030,1,0,0:0:0:0:
440,272,67115,1,10,0:0:0:0:
444,240,67201,1,0,0:0:0:0:
432,212,67287,1,2,0:0:0:0:
408,192,67373,1,0,0:0:0:0:
380,180,67458,5,0,0:0:0:0:
376,188,67544,1,0,0:0:0:0:
372,196,67630,1,2,0:0:0:0:
368,204,67715,1,0,0:0:0:0:
332,236,67801,5,10,0:0:0:0:
292,212,67887,1,0,0:0:0:0:
288,168,67973,1,2,0:0:0:0:
316,132,68058,1,2,0:0:0:0:
284,108,68144,5,2,0:0:0:0:
236,84,68230,1,0,0:0:0:0:
184,84,68315,1,0,0:0:0:0:
132,100,68401,1,0,0:0:0:0:
96,140,68487,2,0,L|84:168,7,22.5,10|0|0|0|8|0|0|0,0:0|0:0|0:0|0:0|0:0|0:0|0:0|0:0,0:0:0:0:
96,140,68830,5,4,0:2:0:0:
255,364,69087,1,4,0:2:0:0:
256,88,69344,1,4,0:2:0:0:
93,311,69601,1,4,0:2:0:0:
356,226,69858,1,4,0:2:0:0:
412,76,70030,1,4,0:2:0:0:
340,136,70201,5,2,0:3:0:0:
340,136,70373,1,2,0:3:0:0:
340,136,70544,1,8,0:3:0:0:
340,136,70715,1,2,0:3:0:0:
340,136,70887,5,8,0:3:0:0:
300,100,70973,1,2,0:3:0:0:
248,96,71058,1,2,0:3:0:0:
208,132,71144,1,2,0:3:0:0:
200,184,71230,1,2,0:3:0:0:
320,276,71401,1,8,0:3:0:0:
272,168,71573,6,2,L|208:52,1,120,6|0,0:0|0:0,0:0:0:0:
156,216,71915,2,0,P|192:268|260:300,1,120,10|0,0:0|0:0,0:0:0:0:
320,276,72258,1,2,0:0:0:0:
108,292,72487,1,0,0:0:0:0:
48,344,72601,2,2,P|64:280|64:172,1,120,10|2,0:0|0:0,0:0:0:0:
48,152,72944,1,4,0:3:0:0:
48,152,73173,5,0,0:0:0:0:
124,136,73287,2,0,P|185:111|236:72,1,120,10|0,0:0|0:0,0:0:0:0:
332,184,73630,2,0,P|308:240|312:320,1,120,4|0,0:3|0:0,0:0:0:0:
416,168,73973,2,2,P|380:112|280:112,1,120,10|0,0:0|0:0,0:0:0:0:
388,252,74315,6,2,P|400:312|468:316,1,120,6|0,0:0|0:0,0:0:0:0:
300,264,74658,2,2,P|252:228|184:212,1,120,10|0,0:0|0:0,0:0:0:0:
104,220,75001,1,10,0:0:0:0:
160,292,75115,1,6,0:2:0:0:
194,212,75230,1,10,0:0:0:0:
144,140,75344,2,2,P|92:132|24:176,1,120,10|0,0:0|0:0,0:0:0:0:
104,220,75687,1,4,0:2:0:0:
223,371,75915,5,0,0:0:0:0:
264,292,76030,2,0,P|296:288|336:288,1,60,10|0,0:0|0:0,0:0:0:0:
416,288,76258,1,2,0:0:0:0:
460,208,76373,1,10,0:0:0:0:
448,384,76601,1,0,0:0:0:0:
416,288,76715,2,2,P|412:204|432:140,1,120,10|0,0:0|0:0,0:0:0:0:
348,72,77058,6,2,P|300:32|216:24,1,120,6|0,0:0|0:0,0:0:0:0:
212,224,77401,2,2,P|244:168|264:104,1,120,10|0,0:0|0:0,0:0:0:0:
344,164,77744,1,2,0:0:0:0:
344,164,77973,1,0,0:0:0:0:
296,232,78087,2,2,P|376:240|420:196,1,120,10|2,0:0|0:0,0:0:0:0:
348,72,78430,1,4,0:3:0:0:
296,232,78687,5,0,0:0:0:0:
300,312,78773,2,0,P|360:316|432:292,1,120,10|0,0:0|0:0,0:0:0:0:
228,272,79115,2,0,P|168:268|96:292,1,120,4|0,0:3|0:0,0:0:0:0:
296,232,79458,2,2,L|228:84,1,120,10|0,0:0|0:0,0:0:0:0:
64,36,79801,6,2,P|48:96|96:172,1,120,6|0,0:0|0:0,0:0:0:0:
140,204,80144,2,2,P|156:144|108:68,1,120,10|0,0:0|0:0,0:0:0:0:
68,148,80487,1,10,0:0:0:0:
60,236,80601,1,6,0:2:0:0:
128,292,80715,1,10,0:0:0:0:
212,260,80830,2,2,P|263:251|352:252,1,120,10|2,0:0|0:0,0:0:0:0:
456,272,81173,1,4,0:2:0:0:
456,272,81401,5,0,0:0:0:0:
412,196,81515,2,0,P|400:164|392:120,1,60,10|0,0:0|0:0,0:0:0:0:
332,76,81744,1,2,0:0:0:0:
308,164,81858,1,10,0:0:0:0:
256,344,82087,1,0,0:0:0:0:
172,372,82201,2,2,P|144:312|144:208,1,120,10|0,0:0|0:0,0:0:0:0:
136,168,82544,5,8,0:3:0:0:
192,64,82715,1,2,0:2:0:0:
140,172,82887,1,8,0:3:0:0:
196,68,83058,1,2,0:2:0:0:
80,268,83230,1,14,0:2:0:0:
80,268,83573,6,0,P|103:267|152:248,1,45,4|0,0:2|0:0,0:0:0:0:
224,296,83744,2,0,P|247:296|296:316,1,45,4|0,0:2|0:0,0:0:0:0:
396,272,83915,5,4,0:0:0:0:
448,136,84087,1,2,0:0:0:0:
360,348,84258,2,0,P|417:351|464:320,1,90,10|2,0:0|0:0,0:0:0:0:
216,124,84601,1,0,0:2:0:0:
212,136,84687,1,0,0:2:0:0:
209,149,84773,1,0,0:2:0:0:
208,162,84858,1,0,0:0:0:0:
207,175,84944,2,2,B|259:166|313:249|313:130|267:158,1,135,10|0,0:0|0:0,0:0:0:0:
237,270,85287,6,2,P|230:304|233:371,1,90,2|0,0:0|0:0,0:0:0:0:
370,211,85630,2,2,P|376:167|340:97,1,90,10|0,0:0|0:0,0:0:0:0:
334,310,85973,1,2,0:0:0:0:
374,114,86144,1,0,0:0:0:0:
178,74,86315,1,10,0:0:0:0:
138,270,86487,1,2,0:0:0:0:
138,270,86830,5,2,0:0:0:0:
178,74,87001,2,2,P|139:40|68:15,1,90,10|2,0:0|0:0,0:0:0:0:
236,189,87344,2,0,P|255:175|286:134,1,45,2|2,0:2|0:2,0:0:0:0:
367,139,87515,2,0,P|355:157|344:204,1,45,2|0,0:2|0:0,0:0:0:0:
456,129,87687,1,8,0:0:0:0:
450,107,87773,1,2,0:2:0:0:
438,88,87858,2,0,P|414:64|370:52,1,45,2|0,0:2|0:0,0:0:0:0:
295,253,88030,5,6,0:0:0:0:
297,261,88115,1,0,0:0:0:0:
299,269,88201,1,0,0:0:0:0:
302,277,88287,1,0,0:0:0:0:
305,285,88373,1,10,0:0:0:0:
307,293,88458,1,0,0:0:0:0:
310,301,88544,1,0,0:0:0:0:
313,309,88630,1,0,0:0:0:0:
316,317,88715,5,2,0:0:0:0:
355,307,88801,1,2,0:2:0:0:
393,294,88887,1,2,0:0:0:0:
431,281,88973,1,2,0:2:0:0:
469,269,89058,2,0,L|525:250,1,45,10|0,0:0|0:0,0:0:0:0:
448,367,89230,2,0,L|392:386,1,45,2|0,0:0|0:0,0:0:0:0:
231,340,89401,5,0,0:0:0:0:
202,317,89487,1,0,0:0:0:0:
183,287,89573,1,2,0:0:0:0:
173,252,89658,1,0,0:0:0:0:
170,216,89744,1,10,0:0:0:0:
180,181,89830,1,0,0:0:0:0:
196,149,89915,1,2,0:0:0:0:
219,122,90001,1,0,0:0:0:0:
249,102,90087,6,0,B|254:124|254:124|249:155,1,45,2|2,0:2|0:2,0:0:0:0:
98,255,90258,2,0,B|92:232|92:232|98:202,1,45,2|0,0:2|0:0,0:0:0:0:
216,320,90430,2,0,L|243:344,7,22.5,8|0|0|0|0|0|0|0,0:0|0:0|0:0|0:0|0:0|0:0|0:0|0:0,0:0:0:0:
216,320,90773,5,4,0:2:0:0:
363,111,91030,1,4,0:2:0:0:
121,193,91287,1,4,0:2:0:0:
365,269,91544,1,4,0:2:0:0:
213,64,91801,1,4,0:2:0:0:
256,192,91973,1,4,0:2:0:0:
213,64,92144,6,0,L|200:24,1,22.5,4|0,0:3|2:0,0:0:0:0:
364,112,92487,2,0,L|377:72,1,22.5,4|0,0:3|2:0,0:0:0:0:
204,192,92830,5,2,3:2:0:0:
208,208,92915,1,2,3:2:0:0:
212,224,93001,1,2,3:2:0:0:
216,240,93087,1,2,3:2:0:0:
220,252,93173,6,2,P|276:180|152:144,1,229.500004377365,4|0,0:3|2:0,0:0:0:0:
220,252,93515,6,2,L|240:328,1,67.5000025749208,6|2,0:0|2:1,0:0:0:0:
340,268,93858,2,2,L|357:202,1,67.5000025749208,2|2,2:1|0:0,0:0:0:0:
148,196,94201,2,2,P|136:224|136:284,1,67.5000025749208,6|2,0:2|2:1,0:0:0:0:
340,268,94544,1,2,2:1:0:0:
200,64,94887,6,0,L|180:56,1,16.8750006437302,4|0,1:3|2:0,0:0:0:0:
344,160,95230,2,0,L|376:156,1,16.8750006437302,4|0,1:3|2:0,0:0:0:0:
216,296,95573,1,4,0:2:0:0:
206,298,95658,1,0,2:0:0:0:
196,300,95744,1,2,2:0:0:0:
186,302,95830,1,0,2:0:0:0:
176,304,95915,1,2,2:0:0:0:
166,306,96001,1,0,2:0:0:0:
156,308,96087,1,2,2:0:0:0:
146,310,96173,1,0,2:0:0:0:
100,324,96258,6,2,P|88:290|92:235,1,67.5000025749208,2|2,0:0|2:1,0:0:0:0:
306,274,96601,2,2,P|318:308|314:363,1,67.5000025749208,2|2,2:1|0:0,0:0:0:0:
87,258,96944,2,0,L|183:270,1,67.5000025749208,4|2,0:2|2:1,0:0:0:0:
428,304,97287,1,2,2:1:0:0:
132,192,97630,6,0,P|116:140|120:84,2,101.250003862381,4|4|8,1:3|2:3|2:3,0:0:0:0:
212,104,98315,6,2,L|192:20,1,78.75,8|0,0:3|2:0,0:0:0:0:
117,93,98658,6,0,B|204:128|204:128|312:120,1,188.999994232178,0|0,2:0|2:0,0:0:0:0:
384,88,99001,6,2,L|316:94,1,67.5000025749208,6|2,0:0|2:1,0:0:0:0:
192,252,99344,2,2,L|259:245,1,67.5000025749208,2|2,2:1|0:0,0:0:0:0:
352,164,99687,2,2,L|268:172,1,67.5000025749208,6|2,0:2|2:1,0:0:0:0:
164,324,100030,1,2,2:1:0:0:
432,148,100373,6,0,L|460:144,1,16.8750006437302,4|0,0:3|2:0,0:0:0:0:
248,68,100715,2,0,L|231:70,1,16.8750006437302,4|0,0:3|2:0,0:0:0:0:
272,260,101058,1,4,0:2:0:0:
275,269,101144,1,0,2:0:0:0:
278,278,101230,1,2,2:0:0:0:
281,287,101315,1,0,2:0:0:0:
284,296,101401,1,2,2:0:0:0:
288,305,101487,1,0,2:0:0:0:
292,314,101573,1,2,2:0:0:0:
295,323,101658,1,0,2:0:0:0:
336,352,101744,6,2,P|358:319|368:276,1,67.5000025749208,2|2,0:0|2:1,0:0:0:0:
244,144,102087,2,2,L|152:148,1,67.5000025749208,2|2,2:1|0:0,0:0:0:0:
328,196,102430,2,0,P|340:160|336:104,1,67.5000025749208,4|2,0:2|2:1,0:0:0:0:
336,352,102773,1,2,2:1:0:0:
244,144,103115,6,0,L|192:24,2,101.250003862381,4|4|8,0:3|2:3|2:3,0:0:0:0:
281,230,103801,5,2,3:2:0:0:
276,218,103887,1,2,3:2:0:0:
270,205,103973,1,2,3:2:0:0:
265,193,104058,1,2,3:2:0:0:
260,181,104144,1,2,3:2:0:0:
254,168,104230,1,2,3:2:0:0:
249,156,104315,1,2,3:2:0:0:
244,144,104401,1,2,3:2:0:0:
220,108,104487,6,2,L|208:192,1,67.5000025749208,6|2,0:0|2:1,0:0:0:0:
388,136,104830,2,2,L|364:52,1,67.5000025749208,2|2,2:1|0:0,0:0:0:0:
116,216,105173,2,2,P|140:248|176:272,1,67.5000025749208,6|2,0:2|2:1,0:0:0:0:
388,136,105515,1,2,2:1:0:0:
161,264,105858,6,0,L|136:272,1,16.8750006437302,4|0,1:3|2:0,0:0:0:0:
248,172,106201,2,0,L|231:167,1,16.8750006437302,4|0,0:3|2:0,0:0:0:0:
366,260,106544,1,4,1:2:0:0:
356,263,106630,1,0,2:0:0:0:
346,266,106715,1,2,2:0:0:0:
336,269,106801,1,0,2:0:0:0:
326,272,106887,1,2,2:0:0:0:
316,275,106973,1,0,2:0:0:0:
306,278,107058,1,2,2:0:0:0:
296,281,107144,1,0,2:0:0:0:
276,328,107230,6,2,L|200:348,1,67.5000025749208,2|2,0:0|2:1,0:0:0:0:
376,216,107573,2,2,L|441:198,1,67.5000025749208,2|2,2:1|0:0,0:0:0:0:
296,256,107915,2,0,P|288:212|300:168,1,67.5000025749208,4|2,0:2|2:1,0:0:0:0:
168,372,108258,1,2,2:1:0:0:
291,189,108601,6,0,P|304:136|276:68,2,101.250003862381,4|4|8,0:3|2:3|2:3,0:0:0:0:
352,232,109287,6,2,L|440:224,1,78.75,8|0,0:3|2:0,0:0:0:0:
392,152,109630,6,0,P|352:228|424:304,1,188.999994232178,0|0,0:0|2:0,0:0:0:0:
430,224,109973,6,2,P|468:184|472:148,1,67.5000025749208,6|2,0:0|2:1,0:0:0:0:
196,192,110315,2,2,P|158:232|154:268,1,67.5000025749208,2|2,2:1|0:0,0:0:0:0:
392,152,110658,2,2,L|312:160,1,67.5000025749208,6|2,0:2|2:1,0:0:0:0:
76,276,111001,1,2,2:1:0:0:
260,108,111344,6,0,L|264:76,1,16.8750006437302,4|0,0:3|2:0,0:0:0:0:
196,192,111687,2,0,L|198:208,1,16.8750006437302,4|0,0:3|2:0,0:0:0:0:
332,313,112030,1,4,1:2:0:0:
327,303,112115,1,0,2:0:0:0:
322,293,112201,1,2,2:0:0:0:
317,283,112287,1,0,2:0:0:0:
312,273,112373,1,2,2:0:0:0:
308,263,112458,1,0,2:0:0:0:
304,253,112544,1,2,2:0:0:0:
299,243,112630,1,0,2:0:0:0:
328,200,112715,6,2,P|360:204|408:212,1,67.5000025749208,2|2,0:0|2:1,0:0:0:0:
192,148,113058,2,2,P|158:152|125:157,1,67.5000025749208,2|2,2:1|0:0,0:0:0:0:
292,100,113401,2,0,P|308:64|320:16,1,67.5000025749208,4|2,0:2|2:1,0:0:0:0:
224,280,113744,1,2,1:1:0:0:
276,352,113915,1,0,1:0:0:0:
295,333,114001,1,0,1:0:0:0:
308,308,114087,1,4,1:2:0:0:
256,192,114173,12,2,115115,0:0:0:0:
308,308,115458,5,4,0:0:0:0:
256,192,115544,12,0,118544,0:0:0:0:
