osu file format v14

[General]
AudioFilename: Innocent Floor.mp3
AudioLeadIn: 0
PreviewTime: 69253
Countdown: 0
SampleSet: Normal
StackLeniency: 0.7
Mode: 3
LetterboxInBreaks: 0
SpecialStyle: 0
WidescreenStoryboard: 1

[Editor]
DistanceSpacing: 0.9
BeatDivisor: 4
GridSize: 4
TimelineZoom: 2.2

[Metadata]
Title:Innocent Floor
TitleUnicode:Innocent Floor
Artist:P*Light
ArtistUnicode:P*Light
Creator:khairul anwar
Version:GRAVITY
Source:SOUND VOLTEX III GRAVITY WARS
Tags:sdvx hardcore bemani
BeatmapID:946639
BeatmapSetID:439917

[Difficulty]
HPDrainRate:8.5
CircleSize:4
OverallDifficulty:8.5
ApproachRate:5
SliderMultiplier:1.5
SliderTickRate:2

[Events]
//Background and Video events
0,0,"bg.jpg",0,0
//Break Periods
//Storyboard Layer 0 (Background)
//Storyboard Layer 1 (Fail)
//Storyboard Layer 2 (Pass)
//Storyboard Layer 3 (Foreground)
//Storyboard Sound Samples

[TimingPoints]
587,301.507537688442,4,2,0,35,1,0
10235,301.507537688442,4,2,0,35,1,0
29531,-100,4,2,0,35,0,1
48827,-100,4,2,0,35,0,0
70536,-100,4,2,0,35,0,1
80033,-100,4,2,0,35,0,0
89832,-100,4,2,0,35,0,1
109129,-100,4,2,0,35,0,0

[HitObjects]
64,192,587,5,0,0:0:0:0:
448,192,587,1,0,0:0:0:0:
320,192,587,1,0,0:0:0:0:
192,192,737,1,0,0:0:0:0:
320,192,888,1,0,0:0:0:0:
64,192,1039,1,0,0:0:0:0:
448,192,1039,1,0,0:0:0:0:
192,192,1114,1,0,0:0:0:0:
448,192,1190,1,0,0:0:0:0:
320,192,1340,1,0,0:0:0:0:
192,192,1491,1,0,0:0:0:0:
448,192,1642,1,0,0:0:0:0:
64,192,1642,1,0,0:0:0:0:
320,192,1717,1,0,0:0:0:0:
64,192,1793,1,0,0:0:0:0:
192,192,1943,1,0,0:0:0:0:
448,192,2094,1,0,0:0:0:0:
64,192,2245,1,0,0:0:0:0:
320,192,2245,1,0,0:0:0:0:
192,192,2320,1,0,0:0:0:0:
448,192,2396,1,0,0:0:0:0:
320,192,2546,1,0,0:0:0:0:
64,192,2546,1,0,0:0:0:0:
192,192,2697,1,0,0:0:0:0:
448,192,2697,1,0,0:0:0:0:
320,192,2848,1,0,0:0:0:0:
192,192,2848,1,0,0:0:0:0:
64,192,2999,1,0,0:0:0:0:
192,192,3149,1,0,0:0:0:0:
320,192,3300,1,0,0:0:0:0:
64,192,3451,1,0,0:0:0:0:
448,192,3451,1,0,0:0:0:0:
192,192,3526,1,0,0:0:0:0:
448,192,3602,1,0,0:0:0:0:
320,192,3752,1,0,0:0:0:0:
192,192,3903,1,0,0:0:0:0:
448,192,4054,1,0,0:0:0:0:
64,192,4054,1,0,0:0:0:0:
320,192,4129,1,0,0:0:0:0:
448,192,4205,1,0,0:0:0:0:
64,192,4205,1,0,0:0:0:0:
192,192,4355,1,0,0:0:0:0:
320,192,4506,1,0,0:0:0:0:
64,192,4506,1,0,0:0:0:0:
192,192,4657,1,0,0:0:0:0:
448,192,4808,1,0,0:0:0:0:
64,192,4808,1,0,0:0:0:0:
192,192,4958,1,0,0:0:0:0:
448,192,4958,1,0,0:0:0:0:
320,192,5109,1,0,0:0:0:0:
64,192,5260,1,0,0:0:0:0:
192,192,5260,1,0,0:0:0:0:
448,192,5260,1,0,0:0:0:0:
320,192,5411,1,0,0:0:0:0:
64,192,5411,1,0,0:0:0:0:
448,192,5411,1,0,0:0:0:0:
192,192,5411,1,0,0:0:0:0:
64,192,5561,1,0,0:0:0:0:
192,192,5612,1,0,0:0:0:0:
320,192,5662,1,0,0:0:0:0:
64,192,5712,1,0,0:0:0:0:
448,192,5712,1,0,0:0:0:0:
320,192,5863,1,0,0:0:0:0:
192,192,5913,1,0,0:0:0:0:
64,192,5963,1,0,0:0:0:0:
192,192,6014,1,0,0:0:0:0:
448,192,6014,1,0,0:0:0:0:
448,192,6164,1,0,0:0:0:0:
320,192,6215,1,0,0:0:0:0:
192,192,6265,1,0,0:0:0:0:
320,192,6315,1,0,0:0:0:0:
64,192,6315,1,0,0:0:0:0:
448,192,6466,1,0,0:0:0:0:
192,192,6466,1,0,0:0:0:0:
64,192,6466,1,0,0:0:0:0:
448,192,6617,1,0,0:0:0:0:
320,192,6617,1,0,0:0:0:0:
192,192,6617,1,0,0:0:0:0:
64,192,6617,1,0,0:0:0:0:
192,192,6767,1,0,0:0:0:0:
320,192,6818,1,0,0:0:0:0:
448,192,6868,1,0,0:0:0:0:
64,192,6918,1,0,0:0:0:0:
320,192,6918,1,0,0:0:0:0:
64,192,7069,1,0,0:0:0:0:
448,192,7069,1,0,0:0:0:0:
320,192,7069,1,0,0:0:0:0:
64,192,7220,1,0,0:0:0:0:
192,192,7220,1,0,0:0:0:0:
320,192,7220,1,0,0:0:0:0:
448,192,7220,1,0,0:0:0:0:
448,192,7370,1,0,0:0:0:0:
320,192,7421,1,0,0:0:0:0:
192,192,7471,1,0,0:0:0:0:
320,192,7521,1,0,0:0:0:0:
64,192,7521,1,0,0:0:0:0:
192,192,7672,1,0,0:0:0:0:
448,192,7672,1,0,0:0:0:0:
64,192,7672,1,0,0:0:0:0:
64,192,7823,1,0,0:0:0:0:
320,192,7823,1,0,0:0:0:0:
192,192,7823,1,0,0:0:0:0:
320,192,7973,1,0,0:0:0:0:
448,192,7973,1,0,0:0:0:0:
64,192,7973,1,0,0:0:0:0:
192,192,8124,1,0,0:0:0:0:
320,192,8124,1,0,0:0:0:0:
448,192,8124,1,0,0:0:0:0:
64,192,8275,1,0,0:0:0:0:
192,192,8275,1,0,0:0:0:0:
448,192,8275,1,0,0:0:0:0:
448,192,8426,1,0,0:0:0:0:
320,192,8463,1,0,0:0:0:0:
64,192,8501,1,0,0:0:0:0:
192,192,8539,1,0,0:0:0:0:
448,192,8576,1,0,0:0:0:0:
320,192,8614,1,0,0:0:0:0:
64,192,8652,1,0,0:0:0:0:
192,192,8690,1,0,0:0:0:0:
448,192,8727,1,0,0:0:0:0:
320,192,8765,1,0,0:0:0:0:
64,192,8803,1,0,0:0:0:0:
192,192,8840,1,0,0:0:0:0:
448,192,8878,1,0,0:0:0:0:
320,192,8916,1,0,0:0:0:0:
64,192,8953,1,0,0:0:0:0:
192,192,8991,1,0,0:0:0:0:
320,192,9029,1,0,0:0:0:0:
448,192,9029,1,0,0:0:0:0:
64,192,9029,1,0,0:0:0:0:
448,192,9255,1,0,0:0:0:0:
192,192,9255,1,0,0:0:0:0:
64,192,9255,1,0,0:0:0:0:
320,192,9481,1,0,0:0:0:0:
192,192,9481,1,0,0:0:0:0:
64,192,9481,1,0,0:0:0:0:
448,192,9707,1,0,0:0:0:0:
320,192,9707,1,0,0:0:0:0:
64,192,9707,1,0,0:0:0:0:
192,192,9933,1,0,0:0:0:0:
64,192,9933,1,0,0:0:0:0:
320,192,10009,1,0,0:0:0:0:
448,192,10009,1,0,0:0:0:0:
64,192,10084,1,0,0:0:0:0:
192,192,10084,1,0,0:0:0:0:
320,192,10159,1,0,0:0:0:0:
448,192,10159,1,0,0:0:0:0:
448,192,10235,1,0,0:0:0:0:
64,192,10235,1,0,0:0:0:0:
192,192,10235,1,0,0:0:0:0:
320,192,10385,128,0,10536:0:0:0:0:
64,192,10536,128,0,10687:0:0:0:0:
192,192,10536,1,0,0:0:0:0:
448,192,10536,1,0,0:0:0:0:
192,192,10687,128,0,10838:0:0:0:0:
448,192,10687,1,0,0:0:0:0:
320,192,10762,1,0,0:0:0:0:
64,192,10838,1,0,0:0:0:0:
448,192,10838,1,0,0:0:0:0:
448,192,10988,128,0,11139:0:0:0:0:
192,192,11139,128,0,11290:0:0:0:0:
64,192,11139,1,0,0:0:0:0:
320,192,11139,1,0,0:0:0:0:
320,192,11290,128,0,11441:0:0:0:0:
64,192,11290,1,0,0:0:0:0:
192,192,11365,1,0,0:0:0:0:
64,192,11441,1,0,0:0:0:0:
448,192,11441,1,0,0:0:0:0:
64,192,11591,128,0,11742:0:0:0:0:
320,192,11742,1,0,0:0:0:0:
192,192,11742,1,0,0:0:0:0:
448,192,11742,128,0,11893:0:0:0:0:
320,192,11893,128,0,12044:0:0:0:0:
192,192,11893,1,0,0:0:0:0:
448,192,11968,1,0,0:0:0:0:
192,192,12044,1,0,0:0:0:0:
64,192,12044,1,0,0:0:0:0:
448,192,12194,128,0,12345:0:0:0:0:
64,192,12345,1,0,0:0:0:0:
192,192,12345,128,0,12496:0:0:0:0:
320,192,12345,1,0,0:0:0:0:
64,192,12496,128,0,12647:0:0:0:0:
320,192,12647,1,0,0:0:0:0:
448,192,12647,1,0,0:0:0:0:
192,192,12797,128,0,12948:0:0:0:0:
320,192,12948,128,0,13099:0:0:0:0:
64,192,12948,1,0,0:0:0:0:
448,192,12948,1,0,0:0:0:0:
64,192,13099,128,0,13250:0:0:0:0:
448,192,13099,1,0,0:0:0:0:
320,192,13174,1,0,0:0:0:0:
192,192,13250,1,0,0:0:0:0:
448,192,13250,1,0,0:0:0:0:
64,192,13400,128,0,13551:0:0:0:0:
320,192,13551,1,0,0:0:0:0:
192,192,13551,1,0,0:0:0:0:
448,192,13551,128,0,13702:0:0:0:0:
320,192,13702,128,0,13853:0:0:0:0:
64,192,13702,1,0,0:0:0:0:
192,192,13777,1,0,0:0:0:0:
64,192,13853,1,0,0:0:0:0:
448,192,13853,1,0,0:0:0:0:
448,192,14003,128,0,14154:0:0:0:0:
320,192,14154,1,0,0:0:0:0:
192,192,14154,128,0,14305:0:0:0:0:
64,192,14154,1,0,0:0:0:0:
64,192,14305,128,0,14456:0:0:0:0:
320,192,14456,1,0,0:0:0:0:
448,192,14456,1,0,0:0:0:0:
320,192,14606,128,0,14757:0:0:0:0:
192,192,14606,1,0,0:0:0:0:
192,192,14757,128,0,14908:0:0:0:0:
64,192,14757,1,0,0:0:0:0:
448,192,14908,128,0,15059:0:0:0:0:
64,192,15059,1,0,0:0:0:0:
192,192,15059,1,0,0:0:0:0:
320,192,15059,1,0,0:0:0:0:
320,192,15209,128,0,15360:0:0:0:0:
64,192,15360,128,0,15511:0:0:0:0:
192,192,15360,1,0,0:0:0:0:
448,192,15360,1,0,0:0:0:0:
448,192,15511,128,0,15662:0:0:0:0:
192,192,15511,1,0,0:0:0:0:
320,192,15586,1,0,0:0:0:0:
192,192,15662,1,0,0:0:0:0:
64,192,15662,1,0,0:0:0:0:
320,192,15812,128,0,15963:0:0:0:0:
64,192,15963,128,0,16114:0:0:0:0:
448,192,15963,1,0,0:0:0:0:
192,192,15963,1,0,0:0:0:0:
192,192,16114,128,0,16265:0:0:0:0:
448,192,16114,1,0,0:0:0:0:
320,192,16189,1,0,0:0:0:0:
448,192,16265,1,0,0:0:0:0:
64,192,16265,1,0,0:0:0:0:
64,192,16415,128,0,16566:0:0:0:0:
448,192,16566,128,0,16717:0:0:0:0:
192,192,16566,1,0,0:0:0:0:
320,192,16566,1,0,0:0:0:0:
320,192,16717,128,0,16868:0:0:0:0:
192,192,16717,1,0,0:0:0:0:
64,192,16792,1,0,0:0:0:0:
448,192,16868,1,0,0:0:0:0:
192,192,16868,1,0,0:0:0:0:
448,192,17018,128,0,17169:0:0:0:0:
192,192,17169,128,0,17320:0:0:0:0:
320,192,17169,1,0,0:0:0:0:
64,192,17169,1,0,0:0:0:0:
64,192,17320,128,0,17471:0:0:0:0:
320,192,17471,1,0,0:0:0:0:
448,192,17471,1,0,0:0:0:0:
192,192,17621,128,0,17772:0:0:0:0:
320,192,17772,128,0,17923:0:0:0:0:
64,192,17772,1,0,0:0:0:0:
448,192,17772,1,0,0:0:0:0:
64,192,17923,128,0,18074:0:0:0:0:
448,192,17923,1,0,0:0:0:0:
320,192,17998,1,0,0:0:0:0:
448,192,18074,1,0,0:0:0:0:
192,192,18074,1,0,0:0:0:0:
192,192,18224,1,0,0:0:0:0:
320,192,18224,1,0,0:0:0:0:
448,192,18224,1,0,0:0:0:0:
64,192,18375,1,0,0:0:0:0:
192,192,18375,1,0,0:0:0:0:
320,192,18375,1,0,0:0:0:0:
448,192,18526,1,0,0:0:0:0:
320,192,18526,1,0,0:0:0:0:
64,192,18526,1,0,0:0:0:0:
448,192,18677,1,0,0:0:0:0:
192,192,18677,1,0,0:0:0:0:
64,192,18677,1,0,0:0:0:0:
320,192,18827,1,0,0:0:0:0:
192,192,18827,1,0,0:0:0:0:
64,192,18978,1,0,0:0:0:0:
192,192,18978,1,0,0:0:0:0:
320,192,19054,1,0,0:0:0:0:
448,192,19054,1,0,0:0:0:0:
192,192,19129,1,0,0:0:0:0:
64,192,19129,1,0,0:0:0:0:
320,192,19204,1,0,0:0:0:0:
448,192,19204,1,0,0:0:0:0:
64,192,19280,1,0,0:0:0:0:
192,192,19280,1,0,0:0:0:0:
448,192,19280,1,0,0:0:0:0:
320,192,19506,1,0,0:0:0:0:
448,192,19506,1,0,0:0:0:0:
64,192,19506,1,0,0:0:0:0:
64,192,19732,1,0,0:0:0:0:
320,192,19732,1,0,0:0:0:0:
192,192,19732,1,0,0:0:0:0:
192,192,19883,1,0,0:0:0:0:
320,192,19883,1,0,0:0:0:0:
448,192,19883,1,0,0:0:0:0:
64,192,19883,1,0,0:0:0:0:
192,192,20033,1,0,0:0:0:0:
320,192,20184,1,0,0:0:0:0:
448,192,20184,1,0,0:0:0:0:
64,192,20184,1,0,0:0:0:0:
320,192,20335,1,0,0:0:0:0:
192,192,20410,1,0,0:0:0:0:
64,192,20486,1,0,0:0:0:0:
320,192,20486,1,0,0:0:0:0:
448,192,20486,1,0,0:0:0:0:
192,192,20637,1,0,0:0:0:0:
64,192,20787,1,0,0:0:0:0:
320,192,20787,1,0,0:0:0:0:
448,192,20787,1,0,0:0:0:0:
192,192,20938,1,0,0:0:0:0:
64,192,21089,1,0,0:0:0:0:
192,192,21089,1,0,0:0:0:0:
448,192,21089,1,0,0:0:0:0:
320,192,21240,1,0,0:0:0:0:
64,192,21390,1,0,0:0:0:0:
448,192,21390,1,0,0:0:0:0:
320,192,21390,1,0,0:0:0:0:
192,192,21541,1,0,0:0:0:0:
320,192,21616,1,0,0:0:0:0:
192,192,21692,1,0,0:0:0:0:
448,192,21692,1,0,0:0:0:0:
64,192,21692,1,0,0:0:0:0:
320,192,21843,1,0,0:0:0:0:
64,192,21993,1,0,0:0:0:0:
448,192,21993,1,0,0:0:0:0:
192,192,21993,1,0,0:0:0:0:
320,192,22144,1,0,0:0:0:0:
192,192,22295,1,0,0:0:0:0:
64,192,22295,1,0,0:0:0:0:
448,192,22295,1,0,0:0:0:0:
192,192,22446,1,0,0:0:0:0:
320,192,22596,1,0,0:0:0:0:
448,192,22596,1,0,0:0:0:0:
64,192,22596,1,0,0:0:0:0:
448,192,22747,1,0,0:0:0:0:
320,192,22822,1,0,0:0:0:0:
192,192,22898,1,0,0:0:0:0:
64,192,22898,1,0,0:0:0:0:
448,192,22898,1,0,0:0:0:0:
320,192,23049,1,0,0:0:0:0:
64,192,23199,1,0,0:0:0:0:
320,192,23199,1,0,0:0:0:0:
448,192,23199,1,0,0:0:0:0:
64,192,23350,1,0,0:0:0:0:
320,192,23350,1,0,0:0:0:0:
448,192,23425,1,0,0:0:0:0:
192,192,23425,1,0,0:0:0:0:
64,192,23501,1,0,0:0:0:0:
320,192,23501,1,0,0:0:0:0:
192,192,23652,1,0,0:0:0:0:
64,192,23802,1,0,0:0:0:0:
192,192,23802,128,0,23953:0:0:0:0:
448,192,23802,1,0,0:0:0:0:
320,192,23953,1,0,0:0:0:0:
64,192,24104,1,0,0:0:0:0:
320,192,24104,128,0,24255:0:0:0:0:
448,192,24104,1,0,0:0:0:0:
192,192,24255,1,0,0:0:0:0:
64,192,24255,128,0,24405:0:0:0:0:
320,192,24405,1,0,0:0:0:0:
192,192,24405,128,0,24556:0:0:0:0:
448,192,24556,1,0,0:0:0:0:
320,192,24556,128,0,24707:0:0:0:0:
64,192,24707,1,0,0:0:0:0:
192,192,24707,1,0,0:0:0:0:
448,192,24707,1,0,0:0:0:0:
192,192,24858,128,0,25008:0:0:0:0:
448,192,25008,128,0,25159:0:0:0:0:
64,192,25008,1,0,0:0:0:0:
192,192,25159,1,0,0:0:0:0:
320,192,25310,1,0,0:0:0:0:
448,192,25310,1,0,0:0:0:0:
64,192,25310,1,0,0:0:0:0:
64,192,25461,128,0,25611:0:0:0:0:
320,192,25611,128,0,25762:0:0:0:0:
448,192,25611,1,0,0:0:0:0:
192,192,25762,1,0,0:0:0:0:
192,192,25913,1,0,0:0:0:0:
64,192,25913,1,0,0:0:0:0:
448,192,25913,1,0,0:0:0:0:
320,192,26064,1,0,0:0:0:0:
448,192,26064,1,0,0:0:0:0:
64,192,26064,1,0,0:0:0:0:
192,192,26214,1,0,0:0:0:0:
64,192,26214,1,0,0:0:0:0:
320,192,26214,1,0,0:0:0:0:
192,192,26365,1,0,0:0:0:0:
320,192,26365,1,0,0:0:0:0:
448,192,26365,1,0,0:0:0:0:
192,192,26516,1,0,0:0:0:0:
448,192,26516,1,0,0:0:0:0:
320,192,26591,1,0,0:0:0:0:
64,192,26667,1,0,0:0:0:0:
192,192,26667,1,0,0:0:0:0:
448,192,26742,1,0,0:0:0:0:
320,192,26817,1,0,0:0:0:0:
64,192,26817,1,0,0:0:0:0:
192,192,26893,1,0,0:0:0:0:
320,192,26968,1,0,0:0:0:0:
448,192,26968,1,0,0:0:0:0:
64,192,27044,1,0,0:0:0:0:
192,192,27119,1,0,0:0:0:0:
320,192,27119,1,0,0:0:0:0:
448,192,27119,1,0,0:0:0:0:
64,192,27169,1,0,0:0:0:0:
192,192,27219,1,0,0:0:0:0:
320,192,27270,1,0,0:0:0:0:
448,192,27320,1,0,0:0:0:0:
320,192,27370,1,0,0:0:0:0:
64,192,27420,1,0,0:0:0:0:
192,192,27471,1,0,0:0:0:0:
320,192,27521,1,0,0:0:0:0:
448,192,27571,1,0,0:0:0:0:
64,192,27621,1,0,0:0:0:0:
192,192,27672,1,0,0:0:0:0:
448,192,27722,1,0,0:0:0:0:
320,192,27772,1,0,0:0:0:0:
192,192,27822,1,0,0:0:0:0:
64,192,27873,1,0,0:0:0:0:
448,192,27923,1,0,0:0:0:0:
320,192,27973,1,0,0:0:0:0:
192,192,28023,1,0,0:0:0:0:
64,192,28074,1,0,0:0:0:0:
192,192,28124,1,0,0:0:0:0:
448,192,28174,1,0,0:0:0:0:
320,192,28224,1,0,0:0:0:0:
64,192,28325,1,0,0:0:0:0:
192,192,28325,1,0,0:0:0:0:
320,192,28325,1,0,0:0:0:0:
448,192,28476,1,0,0:0:0:0:
64,192,28626,1,0,0:0:0:0:
192,192,28626,1,0,0:0:0:0:
320,192,28626,1,0,0:0:0:0:
448,192,28626,1,0,0:0:0:0:
192,192,28777,1,0,0:0:0:0:
448,192,28928,1,0,0:0:0:0:
320,192,28966,1,0,0:0:0:0:
192,192,29003,1,0,0:0:0:0:
64,192,29041,1,0,0:0:0:0:
448,192,29079,1,0,0:0:0:0:
320,192,29116,1,0,0:0:0:0:
192,192,29154,1,0,0:0:0:0:
64,192,29192,1,0,0:0:0:0:
320,192,29229,1,0,0:0:0:0:
448,192,29229,1,0,0:0:0:0:
320,192,29531,1,0,0:0:0:0:
64,192,29531,1,0,0:0:0:0:
448,192,29531,1,0,0:0:0:0:
320,192,29682,128,0,29832:0:0:0:0:
192,192,29682,1,0,0:0:0:0:
192,192,29832,128,0,29983:0:0:0:0:
64,192,29832,1,0,0:0:0:0:
448,192,29832,1,0,0:0:0:0:
64,192,29983,1,0,0:0:0:0:
192,192,30134,128,0,30360:0:0:0:0:
448,192,30134,1,0,0:0:0:0:
320,192,30134,1,0,0:0:0:0:
64,192,30360,1,0,0:0:0:0:
320,192,30360,128,0,30586:0:0:0:0:
448,192,30586,1,0,0:0:0:0:
192,192,30586,128,0,30737:0:0:0:0:
64,192,30737,1,0,0:0:0:0:
448,192,30737,1,0,0:0:0:0:
320,192,30737,1,0,0:0:0:0:
320,192,30888,128,0,31039:0:0:0:0:
192,192,30888,1,0,0:0:0:0:
192,192,31039,128,0,31189:0:0:0:0:
448,192,31039,1,0,0:0:0:0:
64,192,31039,1,0,0:0:0:0:
320,192,31189,1,0,0:0:0:0:
320,192,31340,128,0,31566:0:0:0:0:
192,192,31340,1,0,0:0:0:0:
64,192,31340,1,0,0:0:0:0:
192,192,31566,128,0,31792:0:0:0:0:
448,192,31566,1,0,0:0:0:0:
320,192,31792,1,0,0:0:0:0:
64,192,31792,128,0,31943:0:0:0:0:
320,192,31943,1,0,0:0:0:0:
448,192,31943,1,0,0:0:0:0:
192,192,31943,1,0,0:0:0:0:
64,192,32094,1,0,0:0:0:0:
320,192,32094,1,0,0:0:0:0:
192,192,32169,1,0,0:0:0:0:
448,192,32245,1,0,0:0:0:0:
64,192,32245,1,0,0:0:0:0:
320,192,32245,1,0,0:0:0:0:
64,192,32395,1,0,0:0:0:0:
320,192,32395,1,0,0:0:0:0:
320,192,32546,1,0,0:0:0:0:
64,192,32546,1,0,0:0:0:0:
448,192,32546,1,0,0:0:0:0:
192,192,32697,1,0,0:0:0:0:
448,192,32697,1,0,0:0:0:0:
320,192,32772,1,0,0:0:0:0:
192,192,32848,1,0,0:0:0:0:
64,192,32848,1,0,0:0:0:0:
448,192,32848,1,0,0:0:0:0:
192,192,32998,1,0,0:0:0:0:
448,192,32998,1,0,0:0:0:0:
192,192,33149,1,0,0:0:0:0:
64,192,33149,1,0,0:0:0:0:
448,192,33149,1,0,0:0:0:0:
320,192,33300,1,0,0:0:0:0:
448,192,33375,1,0,0:0:0:0:
64,192,33451,1,0,0:0:0:0:
192,192,33451,1,0,0:0:0:0:
320,192,33451,1,0,0:0:0:0:
64,192,33601,1,0,0:0:0:0:
448,192,33601,1,0,0:0:0:0:
192,192,33752,1,0,0:0:0:0:
320,192,33752,1,0,0:0:0:0:
448,192,33752,1,0,0:0:0:0:
320,192,33978,1,0,0:0:0:0:
448,192,33978,1,0,0:0:0:0:
64,192,33978,1,0,0:0:0:0:
192,192,34204,1,0,0:0:0:0:
64,192,34204,1,0,0:0:0:0:
320,192,34204,1,0,0:0:0:0:
64,192,34355,1,0,0:0:0:0:
192,192,34355,1,0,0:0:0:0:
320,192,34355,1,0,0:0:0:0:
448,192,34355,1,0,0:0:0:0:
448,192,34506,1,0,0:0:0:0:
320,192,34506,128,0,34657:0:0:0:0:
192,192,34657,128,0,34807:0:0:0:0:
448,192,34657,1,0,0:0:0:0:
64,192,34657,1,0,0:0:0:0:
64,192,34807,1,0,0:0:0:0:
448,192,34958,128,0,35184:0:0:0:0:
320,192,34958,1,0,0:0:0:0:
192,192,34958,1,0,0:0:0:0:
320,192,35184,128,0,35410:0:0:0:0:
192,192,35184,1,0,0:0:0:0:
64,192,35410,1,0,0:0:0:0:
448,192,35410,128,0,35561:0:0:0:0:
320,192,35561,1,0,0:0:0:0:
192,192,35561,1,0,0:0:0:0:
64,192,35561,1,0,0:0:0:0:
320,192,35712,128,0,35863:0:0:0:0:
448,192,35712,1,0,0:0:0:0:
192,192,35863,128,0,36013:0:0:0:0:
64,192,35863,1,0,0:0:0:0:
448,192,35863,1,0,0:0:0:0:
320,192,36013,1,0,0:0:0:0:
64,192,36164,128,0,36390:0:0:0:0:
192,192,36164,1,0,0:0:0:0:
448,192,36164,1,0,0:0:0:0:
192,192,36390,128,0,36616:0:0:0:0:
320,192,36390,1,0,0:0:0:0:
448,192,36616,1,0,0:0:0:0:
320,192,36616,128,0,36767:0:0:0:0:
192,192,36767,1,0,0:0:0:0:
64,192,36767,1,0,0:0:0:0:
448,192,36767,1,0,0:0:0:0:
448,192,36993,1,0,0:0:0:0:
192,192,36993,1,0,0:0:0:0:
64,192,36993,1,0,0:0:0:0:
320,192,36993,1,0,0:0:0:0:
320,192,37219,1,0,0:0:0:0:
448,192,37219,1,0,0:0:0:0:
64,192,37219,1,0,0:0:0:0:
192,192,37370,1,0,0:0:0:0:
320,192,37370,1,0,0:0:0:0:
448,192,37370,1,0,0:0:0:0:
64,192,37370,1,0,0:0:0:0:
320,192,37596,1,0,0:0:0:0:
448,192,37596,1,0,0:0:0:0:
192,192,37596,1,0,0:0:0:0:
64,192,37596,1,0,0:0:0:0:
192,192,37822,1,0,0:0:0:0:
64,192,37822,1,0,0:0:0:0:
448,192,37822,1,0,0:0:0:0:
320,192,37973,1,0,0:0:0:0:
448,192,37973,1,0,0:0:0:0:
192,192,37973,1,0,0:0:0:0:
64,192,37973,1,0,0:0:0:0:
320,192,38199,1,0,0:0:0:0:
448,192,38199,1,0,0:0:0:0:
64,192,38199,1,0,0:0:0:0:
192,192,38199,1,0,0:0:0:0:
320,192,38425,1,0,0:0:0:0:
448,192,38425,1,0,0:0:0:0:
64,192,38425,1,0,0:0:0:0:
192,192,38576,1,0,0:0:0:0:
320,192,38576,1,0,0:0:0:0:
448,192,38576,1,0,0:0:0:0:
64,192,38576,1,0,0:0:0:0:
192,192,38802,1,0,0:0:0:0:
320,192,38802,1,0,0:0:0:0:
448,192,38802,1,0,0:0:0:0:
64,192,38802,1,0,0:0:0:0:
448,192,39028,1,0,0:0:0:0:
64,192,39028,1,0,0:0:0:0:
192,192,39028,1,0,0:0:0:0:
320,192,39179,1,0,0:0:0:0:
64,192,39179,1,0,0:0:0:0:
448,192,39179,1,0,0:0:0:0:
192,192,39255,1,0,0:0:0:0:
320,192,39330,1,0,0:0:0:0:
192,192,39405,1,0,0:0:0:0:
320,192,39481,1,0,0:0:0:0:
64,192,39481,1,0,0:0:0:0:
448,192,39481,1,0,0:0:0:0:
192,192,39556,1,0,0:0:0:0:
64,192,39631,1,0,0:0:0:0:
192,192,39707,1,0,0:0:0:0:
320,192,39782,1,0,0:0:0:0:
448,192,39782,1,0,0:0:0:0:
64,192,39782,1,0,0:0:0:0:
192,192,39858,1,0,0:0:0:0:
320,192,39933,1,0,0:0:0:0:
448,192,39933,1,0,0:0:0:0:
64,192,40008,1,0,0:0:0:0:
192,192,40008,1,0,0:0:0:0:
320,192,40084,1,0,0:0:0:0:
448,192,40084,1,0,0:0:0:0:
64,192,40234,1,0,0:0:0:0:
192,192,40234,1,0,0:0:0:0:
448,192,40234,1,0,0:0:0:0:
192,192,40536,1,0,0:0:0:0:
64,192,40536,1,0,0:0:0:0:
448,192,40536,1,0,0:0:0:0:
320,192,40536,1,0,0:0:0:0:
448,192,40687,1,0,0:0:0:0:
320,192,40687,1,0,0:0:0:0:
64,192,40687,1,0,0:0:0:0:
192,192,40988,1,0,0:0:0:0:
320,192,40988,1,0,0:0:0:0:
448,192,40988,1,0,0:0:0:0:
64,192,41214,1,0,0:0:0:0:
192,192,41214,1,0,0:0:0:0:
320,192,41214,1,0,0:0:0:0:
192,192,41441,1,0,0:0:0:0:
320,192,41441,1,0,0:0:0:0:
448,192,41441,1,0,0:0:0:0:
64,192,41591,1,0,0:0:0:0:
320,192,41591,1,0,0:0:0:0:
448,192,41591,1,0,0:0:0:0:
192,192,41591,1,0,0:0:0:0:
448,192,41817,1,0,0:0:0:0:
192,192,41817,1,0,0:0:0:0:
64,192,41817,1,0,0:0:0:0:
448,192,42044,1,0,0:0:0:0:
64,192,42044,1,0,0:0:0:0:
320,192,42044,1,0,0:0:0:0:
64,192,42194,1,0,0:0:0:0:
192,192,42194,1,0,0:0:0:0:
320,192,42194,1,0,0:0:0:0:
448,192,42194,1,0,0:0:0:0:
64,192,42420,1,0,0:0:0:0:
320,192,42420,1,0,0:0:0:0:
448,192,42420,1,0,0:0:0:0:
192,192,42647,1,0,0:0:0:0:
64,192,42647,1,0,0:0:0:0:
448,192,42647,1,0,0:0:0:0:
320,192,42797,1,0,0:0:0:0:
448,192,42797,1,0,0:0:0:0:
64,192,42797,1,0,0:0:0:0:
192,192,42797,1,0,0:0:0:0:
320,192,43023,1,0,0:0:0:0:
192,192,43023,1,0,0:0:0:0:
64,192,43023,1,0,0:0:0:0:
320,192,43250,1,0,0:0:0:0:
448,192,43250,1,0,0:0:0:0:
192,192,43250,1,0,0:0:0:0:
192,192,43400,1,0,0:0:0:0:
320,192,43400,1,0,0:0:0:0:
448,192,43400,1,0,0:0:0:0:
64,192,43400,1,0,0:0:0:0:
320,192,43626,1,0,0:0:0:0:
192,192,43626,1,0,0:0:0:0:
64,192,43626,1,0,0:0:0:0:
448,192,43853,1,0,0:0:0:0:
320,192,43853,1,0,0:0:0:0:
192,192,43853,1,0,0:0:0:0:
64,192,44003,1,0,0:0:0:0:
320,192,44003,1,0,0:0:0:0:
448,192,44003,1,0,0:0:0:0:
192,192,44154,128,0,44305:0:0:0:0:
448,192,44154,1,0,0:0:0:0:
320,192,44305,128,0,44456:0:0:0:0:
64,192,44305,1,0,0:0:0:0:
448,192,44305,1,0,0:0:0:0:
64,192,44456,1,0,0:0:0:0:
448,192,44606,1,0,0:0:0:0:
192,192,44606,1,0,0:0:0:0:
320,192,44606,1,0,0:0:0:0:
64,192,44757,128,0,44908:0:0:0:0:
320,192,44757,1,0,0:0:0:0:
192,192,44908,128,0,45059:0:0:0:0:
320,192,44908,1,0,0:0:0:0:
448,192,44908,1,0,0:0:0:0:
448,192,45059,1,0,0:0:0:0:
64,192,45209,1,0,0:0:0:0:
192,192,45209,1,0,0:0:0:0:
64,192,45360,1,0,0:0:0:0:
192,192,45360,1,0,0:0:0:0:
64,192,45511,1,0,0:0:0:0:
192,192,45511,1,0,0:0:0:0:
64,192,45662,1,0,0:0:0:0:
192,192,45662,1,0,0:0:0:0:
64,192,45812,1,0,0:0:0:0:
192,192,45812,1,0,0:0:0:0:
448,192,45812,1,0,0:0:0:0:
448,192,46039,1,0,0:0:0:0:
320,192,46039,1,0,0:0:0:0:
64,192,46039,1,0,0:0:0:0:
320,192,46265,1,0,0:0:0:0:
192,192,46265,1,0,0:0:0:0:
64,192,46265,1,0,0:0:0:0:
448,192,46415,1,0,0:0:0:0:
320,192,46415,1,0,0:0:0:0:
192,192,46491,1,0,0:0:0:0:
64,192,46491,1,0,0:0:0:0:
320,192,46566,1,0,0:0:0:0:
448,192,46566,1,0,0:0:0:0:
64,192,46642,1,0,0:0:0:0:
192,192,46642,1,0,0:0:0:0:
320,192,46642,1,0,0:0:0:0:
64,192,46868,1,0,0:0:0:0:
192,192,46868,1,0,0:0:0:0:
320,192,46943,1,0,0:0:0:0:
448,192,47018,1,0,0:0:0:0:
64,192,47094,1,0,0:0:0:0:
192,192,47169,1,0,0:0:0:0:
320,192,47245,1,0,0:0:0:0:
192,192,47320,1,0,0:0:0:0:
448,192,47395,1,0,0:0:0:0:
320,192,47471,1,0,0:0:0:0:
192,192,47471,1,0,0:0:0:0:
448,192,47546,1,0,0:0:0:0:
64,192,47621,1,0,0:0:0:0:
192,192,47621,1,0,0:0:0:0:
448,192,47697,1,0,0:0:0:0:
320,192,47697,1,0,0:0:0:0:
64,192,47772,1,0,0:0:0:0:
192,192,47772,1,0,0:0:0:0:
448,192,47848,1,0,0:0:0:0:
64,192,47848,1,0,0:0:0:0:
320,192,47848,1,0,0:0:0:0:
448,192,48074,1,0,0:0:0:0:
320,192,48074,1,0,0:0:0:0:
64,192,48149,1,0,0:0:0:0:
192,192,48224,1,0,0:0:0:0:
448,192,48224,1,0,0:0:0:0:
320,192,48300,1,0,0:0:0:0:
448,192,48375,1,0,0:0:0:0:
64,192,48375,1,0,0:0:0:0:
192,192,48451,1,0,0:0:0:0:
64,192,48526,1,0,0:0:0:0:
320,192,48526,1,0,0:0:0:0:
448,192,48601,1,0,0:0:0:0:
320,192,48677,1,0,0:0:0:0:
64,192,48677,1,0,0:0:0:0:
192,192,48752,1,0,0:0:0:0:
320,192,48827,1,0,0:0:0:0:
448,192,48827,128,0,53652:0:0:0:0:
64,192,48827,1,0,0:0:0:0:
64,192,50033,128,0,51240:0:0:0:0:
192,192,51240,128,0,52446:0:0:0:0:
320,192,52446,128,0,53652:0:0:0:0:
64,192,53652,128,0,54858:0:0:0:0:
448,192,53802,1,0,0:0:0:0:
320,192,53953,1,0,0:0:0:0:
192,192,54104,1,0,0:0:0:0:
192,192,54405,1,0,0:0:0:0:
448,192,54556,1,0,0:0:0:0:
320,192,54707,1,0,0:0:0:0:
192,192,54858,128,0,56064:0:0:0:0:
448,192,55008,1,0,0:0:0:0:
64,192,55159,1,0,0:0:0:0:
320,192,55310,1,0,0:0:0:0:
64,192,55611,1,0,0:0:0:0:
320,192,55762,1,0,0:0:0:0:
448,192,55913,1,0,0:0:0:0:
320,192,56064,128,0,57270:0:0:0:0:
64,192,56214,1,0,0:0:0:0:
448,192,56365,1,0,0:0:0:0:
192,192,56516,1,0,0:0:0:0:
448,192,56817,1,0,0:0:0:0:
192,192,56968,1,0,0:0:0:0:
64,192,57119,1,0,0:0:0:0:
448,192,57270,128,0,58476:0:0:0:0:
64,192,57420,1,0,0:0:0:0:
192,192,57571,1,0,0:0:0:0:
320,192,57722,1,0,0:0:0:0:
320,192,58023,1,0,0:0:0:0:
64,192,58174,1,0,0:0:0:0:
320,192,58325,1,0,0:0:0:0:
64,192,58476,1,0,0:0:0:0:
192,192,58476,1,0,0:0:0:0:
320,192,58476,1,0,0:0:0:0:
64,192,58626,1,0,0:0:0:0:
320,192,58626,1,0,0:0:0:0:
192,192,58677,1,0,0:0:0:0:
320,192,58727,1,0,0:0:0:0:
192,192,58777,1,0,0:0:0:0:
448,192,58777,1,0,0:0:0:0:
320,192,58928,1,0,0:0:0:0:
192,192,58928,1,0,0:0:0:0:
448,192,59079,1,0,0:0:0:0:
64,192,59079,1,0,0:0:0:0:
320,192,59305,1,0,0:0:0:0:
64,192,59305,1,0,0:0:0:0:
448,192,59531,1,0,0:0:0:0:
192,192,59531,1,0,0:0:0:0:
64,192,59682,1,0,0:0:0:0:
448,192,59682,1,0,0:0:0:0:
64,192,59832,1,0,0:0:0:0:
320,192,59832,1,0,0:0:0:0:
448,192,59883,1,0,0:0:0:0:
320,192,59933,1,0,0:0:0:0:
192,192,59983,1,0,0:0:0:0:
448,192,59983,1,0,0:0:0:0:
64,192,60134,1,0,0:0:0:0:
192,192,60134,1,0,0:0:0:0:
64,192,60285,1,0,0:0:0:0:
448,192,60285,1,0,0:0:0:0:
448,192,60511,1,0,0:0:0:0:
192,192,60511,1,0,0:0:0:0:
320,192,60737,1,0,0:0:0:0:
64,192,60737,1,0,0:0:0:0:
192,192,60888,1,0,0:0:0:0:
448,192,60888,1,0,0:0:0:0:
64,192,61039,1,0,0:0:0:0:
448,192,61039,1,0,0:0:0:0:
320,192,61089,1,0,0:0:0:0:
192,192,61139,1,0,0:0:0:0:
448,192,61189,1,0,0:0:0:0:
64,192,61189,1,0,0:0:0:0:
320,192,61340,1,0,0:0:0:0:
448,192,61340,1,0,0:0:0:0:
64,192,61491,1,0,0:0:0:0:
448,192,61491,1,0,0:0:0:0:
192,192,61717,1,0,0:0:0:0:
448,192,61717,1,0,0:0:0:0:
320,192,61943,1,0,0:0:0:0:
64,192,61943,1,0,0:0:0:0:
448,192,62018,1,0,0:0:0:0:
64,192,62094,1,0,0:0:0:0:
320,192,62094,1,0,0:0:0:0:
64,192,62320,1,0,0:0:0:0:
320,192,62320,1,0,0:0:0:0:
64,192,62546,1,0,0:0:0:0:
320,192,62546,1,0,0:0:0:0:
192,192,62621,1,0,0:0:0:0:
448,192,62697,1,0,0:0:0:0:
64,192,62697,1,0,0:0:0:0:
320,192,62923,1,0,0:0:0:0:
192,192,62923,1,0,0:0:0:0:
64,192,63149,1,0,0:0:0:0:
448,192,63149,1,0,0:0:0:0:
448,192,63300,1,0,0:0:0:0:
320,192,63300,1,0,0:0:0:0:
192,192,63300,1,0,0:0:0:0:
64,192,63300,1,0,0:0:0:0:
320,192,63451,1,0,0:0:0:0:
448,192,63451,1,0,0:0:0:0:
64,192,63501,1,0,0:0:0:0:
192,192,63551,1,0,0:0:0:0:
64,192,63601,1,0,0:0:0:0:
320,192,63601,1,0,0:0:0:0:
192,192,63752,1,0,0:0:0:0:
448,192,63752,1,0,0:0:0:0:
320,192,63903,1,0,0:0:0:0:
192,192,63903,1,0,0:0:0:0:
64,192,63903,1,0,0:0:0:0:
192,192,64129,1,0,0:0:0:0:
320,192,64129,1,0,0:0:0:0:
448,192,64129,1,0,0:0:0:0:
64,192,64355,1,0,0:0:0:0:
192,192,64355,1,0,0:0:0:0:
448,192,64355,1,0,0:0:0:0:
320,192,64506,1,0,0:0:0:0:
192,192,64506,1,0,0:0:0:0:
64,192,64657,1,0,0:0:0:0:
448,192,64657,1,0,0:0:0:0:
320,192,64707,1,0,0:0:0:0:
192,192,64757,1,0,0:0:0:0:
64,192,64807,1,0,0:0:0:0:
320,192,64807,1,0,0:0:0:0:
192,192,64958,1,0,0:0:0:0:
448,192,64958,1,0,0:0:0:0:
64,192,65109,1,0,0:0:0:0:
192,192,65109,1,0,0:0:0:0:
64,192,65184,1,0,0:0:0:0:
192,192,65184,1,0,0:0:0:0:
320,192,65335,1,0,0:0:0:0:
448,192,65335,1,0,0:0:0:0:
64,192,65335,1,0,0:0:0:0:
192,192,65561,1,0,0:0:0:0:
64,192,65561,1,0,0:0:0:0:
448,192,65561,1,0,0:0:0:0:
320,192,65712,1,0,0:0:0:0:
448,192,65712,1,0,0:0:0:0:
192,192,65787,1,0,0:0:0:0:
64,192,65787,1,0,0:0:0:0:
320,192,65863,1,0,0:0:0:0:
448,192,65863,1,0,0:0:0:0:
192,192,65938,1,0,0:0:0:0:
64,192,65938,1,0,0:0:0:0:
320,192,66013,1,0,0:0:0:0:
448,192,66013,1,0,0:0:0:0:
192,192,66089,1,0,0:0:0:0:
64,192,66089,1,0,0:0:0:0:
448,192,66164,1,0,0:0:0:0:
320,192,66164,1,0,0:0:0:0:
64,192,66240,1,0,0:0:0:0:
192,192,66240,1,0,0:0:0:0:
448,192,66315,1,0,0:0:0:0:
320,192,66315,1,0,0:0:0:0:
64,192,66390,1,0,0:0:0:0:
192,192,66390,1,0,0:0:0:0:
448,192,66466,1,0,0:0:0:0:
320,192,66466,1,0,0:0:0:0:
192,192,66541,1,0,0:0:0:0:
64,192,66541,1,0,0:0:0:0:
320,192,66616,1,0,0:0:0:0:
448,192,66616,1,0,0:0:0:0:
192,192,66692,1,0,0:0:0:0:
64,192,66692,1,0,0:0:0:0:
320,192,66767,1,0,0:0:0:0:
448,192,66767,1,0,0:0:0:0:
192,192,66843,1,0,0:0:0:0:
64,192,66843,1,0,0:0:0:0:
320,192,66918,1,0,0:0:0:0:
448,192,66918,1,0,0:0:0:0:
64,192,66993,1,0,0:0:0:0:
192,192,66993,1,0,0:0:0:0:
448,192,67069,1,0,0:0:0:0:
320,192,67069,1,0,0:0:0:0:
64,192,67144,1,0,0:0:0:0:
192,192,67144,1,0,0:0:0:0:
448,192,67219,1,0,0:0:0:0:
320,192,67219,1,0,0:0:0:0:
64,192,67295,1,0,0:0:0:0:
192,192,67295,1,0,0:0:0:0:
448,192,67370,1,0,0:0:0:0:
320,192,67370,1,0,0:0:0:0:
192,192,67446,1,0,0:0:0:0:
64,192,67446,1,0,0:0:0:0:
320,192,67521,1,0,0:0:0:0:
448,192,67521,1,0,0:0:0:0:
192,192,67596,1,0,0:0:0:0:
64,192,67596,1,0,0:0:0:0:
320,192,67672,1,0,0:0:0:0:
448,192,67672,1,0,0:0:0:0:
192,192,67747,1,0,0:0:0:0:
64,192,67747,1,0,0:0:0:0:
320,192,67822,1,0,0:0:0:0:
448,192,67822,1,0,0:0:0:0:
64,192,67898,1,0,0:0:0:0:
192,192,67898,1,0,0:0:0:0:
320,192,67973,1,0,0:0:0:0:
448,192,67973,1,0,0:0:0:0:
192,192,68049,1,0,0:0:0:0:
64,192,68049,1,0,0:0:0:0:
320,192,68124,1,0,0:0:0:0:
448,192,68124,1,0,0:0:0:0:
64,192,68174,1,0,0:0:0:0:
192,192,68224,1,0,0:0:0:0:
448,192,68275,1,0,0:0:0:0:
320,192,68325,1,0,0:0:0:0:
64,192,68375,1,0,0:0:0:0:
192,192,68425,1,0,0:0:0:0:
448,192,68476,1,0,0:0:0:0:
320,192,68526,1,0,0:0:0:0:
64,192,68576,1,0,0:0:0:0:
192,192,68626,1,0,0:0:0:0:
448,192,68677,1,0,0:0:0:0:
320,192,68727,1,0,0:0:0:0:
64,192,68777,1,0,0:0:0:0:
192,192,68827,1,0,0:0:0:0:
448,192,68878,1,0,0:0:0:0:
320,192,68928,1,0,0:0:0:0:
64,192,68978,1,0,0:0:0:0:
192,192,69028,1,0,0:0:0:0:
448,192,69079,1,0,0:0:0:0:
320,192,69129,1,0,0:0:0:0:
64,192,69179,1,0,0:0:0:0:
192,192,69229,1,0,0:0:0:0:
448,192,69280,1,0,0:0:0:0:
192,192,69330,1,0,0:0:0:0:
320,192,69330,1,0,0:0:0:0:
448,192,69481,1,0,0:0:0:0:
64,192,69631,1,0,0:0:0:0:
320,192,69631,128,0,69782:0:0:0:0:
192,192,69782,1,0,0:0:0:0:
448,192,69782,128,0,69933:0:0:0:0:
64,192,69933,1,0,0:0:0:0:
192,192,69933,1,0,0:0:0:0:
320,192,69983,1,0,0:0:0:0:
448,192,69983,1,0,0:0:0:0:
192,192,70033,1,0,0:0:0:0:
64,192,70033,1,0,0:0:0:0:
320,192,70084,1,0,0:0:0:0:
448,192,70084,1,0,0:0:0:0:
192,192,70134,1,0,0:0:0:0:
64,192,70134,1,0,0:0:0:0:
320,192,70184,1,0,0:0:0:0:
448,192,70184,1,0,0:0:0:0:
192,192,70234,1,0,0:0:0:0:
64,192,70234,1,0,0:0:0:0:
64,192,70536,1,0,0:0:0:0:
192,192,70536,1,0,0:0:0:0:
448,192,70536,1,0,0:0:0:0:
320,192,70611,1,0,0:0:0:0:
192,192,70687,1,0,0:0:0:0:
320,192,70762,1,0,0:0:0:0:
192,192,70838,1,0,0:0:0:0:
448,192,70838,1,0,0:0:0:0:
64,192,70838,1,0,0:0:0:0:
320,192,70913,1,0,0:0:0:0:
192,192,70988,1,0,0:0:0:0:
64,192,71064,1,0,0:0:0:0:
192,192,71139,1,0,0:0:0:0:
320,192,71139,1,0,0:0:0:0:
448,192,71139,1,0,0:0:0:0:
64,192,71214,1,0,0:0:0:0:
192,192,71290,1,0,0:0:0:0:
320,192,71365,1,0,0:0:0:0:
64,192,71441,1,0,0:0:0:0:
192,192,71441,1,0,0:0:0:0:
448,192,71441,1,0,0:0:0:0:
320,192,71516,1,0,0:0:0:0:
192,192,71591,1,0,0:0:0:0:
64,192,71667,1,0,0:0:0:0:
320,192,71742,1,0,0:0:0:0:
448,192,71742,1,0,0:0:0:0:
192,192,71742,1,0,0:0:0:0:
64,192,71817,1,0,0:0:0:0:
192,192,71893,1,0,0:0:0:0:
320,192,71968,1,0,0:0:0:0:
192,192,72044,1,0,0:0:0:0:
64,192,72044,1,0,0:0:0:0:
448,192,72044,1,0,0:0:0:0:
320,192,72119,1,0,0:0:0:0:
192,192,72194,1,0,0:0:0:0:
320,192,72270,1,0,0:0:0:0:
192,192,72345,1,0,0:0:0:0:
448,192,72345,1,0,0:0:0:0:
64,192,72345,1,0,0:0:0:0:
320,192,72420,1,0,0:0:0:0:
64,192,72496,1,0,0:0:0:0:
192,192,72571,1,0,0:0:0:0:
64,192,72647,1,0,0:0:0:0:
320,192,72647,1,0,0:0:0:0:
448,192,72647,1,0,0:0:0:0:
192,192,72722,1,0,0:0:0:0:
320,192,72797,1,0,0:0:0:0:
192,192,72873,1,0,0:0:0:0:
448,192,72948,1,0,0:0:0:0:
64,192,72948,1,0,0:0:0:0:
320,192,72948,1,0,0:0:0:0:
192,192,73023,1,0,0:0:0:0:
320,192,73099,1,0,0:0:0:0:
448,192,73174,1,0,0:0:0:0:
320,192,73250,1,0,0:0:0:0:
64,192,73250,1,0,0:0:0:0:
192,192,73250,1,0,0:0:0:0:
448,192,73325,1,0,0:0:0:0:
320,192,73400,1,0,0:0:0:0:
192,192,73476,1,0,0:0:0:0:
320,192,73551,1,0,0:0:0:0:
64,192,73551,1,0,0:0:0:0:
448,192,73551,1,0,0:0:0:0:
192,192,73626,1,0,0:0:0:0:
320,192,73702,1,0,0:0:0:0:
192,192,73777,1,0,0:0:0:0:
64,192,73853,1,0,0:0:0:0:
320,192,73853,1,0,0:0:0:0:
448,192,73853,1,0,0:0:0:0:
192,192,73928,1,0,0:0:0:0:
320,192,74003,1,0,0:0:0:0:
448,192,74079,1,0,0:0:0:0:
192,192,74154,1,0,0:0:0:0:
320,192,74154,1,0,0:0:0:0:
64,192,74154,1,0,0:0:0:0:
448,192,74229,1,0,0:0:0:0:
320,192,74305,1,0,0:0:0:0:
192,192,74380,1,0,0:0:0:0:
320,192,74456,1,0,0:0:0:0:
448,192,74456,1,0,0:0:0:0:
64,192,74456,1,0,0:0:0:0:
192,192,74531,1,0,0:0:0:0:
320,192,74606,1,0,0:0:0:0:
192,192,74682,1,0,0:0:0:0:
320,192,74757,1,0,0:0:0:0:
448,192,74757,1,0,0:0:0:0:
64,192,74757,1,0,0:0:0:0:
192,192,74832,1,0,0:0:0:0:
320,192,74908,1,0,0:0:0:0:
448,192,74983,1,0,0:0:0:0:
64,192,75059,1,0,0:0:0:0:
320,192,75059,1,0,0:0:0:0:
192,192,75059,1,0,0:0:0:0:
448,192,75209,1,0,0:0:0:0:
320,192,75209,1,0,0:0:0:0:
64,192,75209,1,0,0:0:0:0:
64,192,75360,1,0,0:0:0:0:
192,192,75360,1,0,0:0:0:0:
448,192,75360,1,0,0:0:0:0:
320,192,75436,1,0,0:0:0:0:
448,192,75511,1,0,0:0:0:0:
192,192,75586,1,0,0:0:0:0:
320,192,75662,1,0,0:0:0:0:
448,192,75662,1,0,0:0:0:0:
64,192,75662,1,0,0:0:0:0:
192,192,75737,1,0,0:0:0:0:
320,192,75812,1,0,0:0:0:0:
448,192,75888,1,0,0:0:0:0:
64,192,75963,1,0,0:0:0:0:
192,192,75963,1,0,0:0:0:0:
320,192,75963,1,0,0:0:0:0:
448,192,76039,1,0,0:0:0:0:
320,192,76114,1,0,0:0:0:0:
192,192,76189,1,0,0:0:0:0:
64,192,76265,1,0,0:0:0:0:
320,192,76265,1,0,0:0:0:0:
448,192,76265,1,0,0:0:0:0:
192,192,76340,1,0,0:0:0:0:
320,192,76415,1,0,0:0:0:0:
192,192,76491,1,0,0:0:0:0:
320,192,76566,1,0,0:0:0:0:
64,192,76566,1,0,0:0:0:0:
448,192,76566,1,0,0:0:0:0:
192,192,76642,1,0,0:0:0:0:
64,192,76717,1,0,0:0:0:0:
192,192,76792,1,0,0:0:0:0:
320,192,76868,1,0,0:0:0:0:
448,192,76868,1,0,0:0:0:0:
64,192,76868,1,0,0:0:0:0:
192,192,76943,1,0,0:0:0:0:
320,192,77018,1,0,0:0:0:0:
448,192,77094,1,0,0:0:0:0:
320,192,77169,1,0,0:0:0:0:
192,192,77169,1,0,0:0:0:0:
64,192,77169,1,0,0:0:0:0:
448,192,77245,1,0,0:0:0:0:
320,192,77320,1,0,0:0:0:0:
192,192,77395,1,0,0:0:0:0:
320,192,77471,1,0,0:0:0:0:
448,192,77471,1,0,0:0:0:0:
64,192,77471,1,0,0:0:0:0:
192,192,77546,1,0,0:0:0:0:
64,192,77621,1,0,0:0:0:0:
320,192,77697,1,0,0:0:0:0:
448,192,77772,1,0,0:0:0:0:
64,192,77772,1,0,0:0:0:0:
192,192,77772,1,0,0:0:0:0:
448,192,77923,1,0,0:0:0:0:
320,192,77923,1,0,0:0:0:0:
64,192,77923,1,0,0:0:0:0:
64,192,78074,1,0,0:0:0:0:
192,192,78074,1,0,0:0:0:0:
320,192,78074,1,0,0:0:0:0:
448,192,78224,1,0,0:0:0:0:
64,192,78224,1,0,0:0:0:0:
192,192,78224,1,0,0:0:0:0:
320,192,78375,1,0,0:0:0:0:
192,192,78375,1,0,0:0:0:0:
448,192,78375,1,0,0:0:0:0:
64,192,78526,1,0,0:0:0:0:
192,192,78526,1,0,0:0:0:0:
448,192,78526,1,0,0:0:0:0:
320,192,78677,1,0,0:0:0:0:
192,192,78677,1,0,0:0:0:0:
64,192,78677,1,0,0:0:0:0:
320,192,78827,1,0,0:0:0:0:
448,192,78827,1,0,0:0:0:0:
64,192,78827,1,0,0:0:0:0:
192,192,78978,1,0,0:0:0:0:
64,192,78978,1,0,0:0:0:0:
448,192,78978,1,0,0:0:0:0:
448,192,79204,1,0,0:0:0:0:
320,192,79204,1,0,0:0:0:0:
192,192,79204,1,0,0:0:0:0:
64,192,79430,1,0,0:0:0:0:
320,192,79430,1,0,0:0:0:0:
192,192,79430,1,0,0:0:0:0:
448,192,79581,1,0,0:0:0:0:
320,192,79581,1,0,0:0:0:0:
192,192,79581,1,0,0:0:0:0:
64,192,79581,1,0,0:0:0:0:
448,192,79807,1,0,0:0:0:0:
320,192,79807,1,0,0:0:0:0:
64,192,79807,1,0,0:0:0:0:
64,192,80033,1,0,0:0:0:0:
192,192,80033,1,0,0:0:0:0:
448,192,80033,1,0,0:0:0:0:
320,192,80033,128,0,80787:0:0:0:0:
64,192,80486,1,0,0:0:0:0:
192,192,80486,1,0,0:0:0:0:
448,192,80486,1,0,0:0:0:0:
192,192,80637,1,0,0:0:0:0:
64,192,80787,1,0,0:0:0:0:
192,192,80787,1,0,0:0:0:0:
448,192,80787,128,0,81390:0:0:0:0:
192,192,80938,1,0,0:0:0:0:
64,192,81089,1,0,0:0:0:0:
320,192,81089,1,0,0:0:0:0:
192,192,81089,1,0,0:0:0:0:
320,192,81240,1,0,0:0:0:0:
320,192,81390,128,0,81993:0:0:0:0:
64,192,81390,1,0,0:0:0:0:
192,192,81390,1,0,0:0:0:0:
448,192,81541,1,0,0:0:0:0:
64,192,81692,1,0,0:0:0:0:
192,192,81692,1,0,0:0:0:0:
448,192,81692,1,0,0:0:0:0:
192,192,81843,1,0,0:0:0:0:
64,192,81993,128,0,82596:0:0:0:0:
448,192,81993,1,0,0:0:0:0:
192,192,81993,1,0,0:0:0:0:
192,192,82144,1,0,0:0:0:0:
192,192,82295,1,0,0:0:0:0:
320,192,82295,1,0,0:0:0:0:
448,192,82295,1,0,0:0:0:0:
448,192,82446,1,0,0:0:0:0:
192,192,82596,1,0,0:0:0:0:
320,192,82596,128,0,82898:0:0:0:0:
448,192,82596,1,0,0:0:0:0:
64,192,82747,1,0,0:0:0:0:
448,192,82898,128,0,83049:0:0:0:0:
64,192,82898,1,0,0:0:0:0:
192,192,82898,1,0,0:0:0:0:
64,192,83049,128,0,83350:0:0:0:0:
320,192,83049,1,0,0:0:0:0:
192,192,83199,1,0,0:0:0:0:
320,192,83199,1,0,0:0:0:0:
448,192,83199,1,0,0:0:0:0:
320,192,83350,128,0,83652:0:0:0:0:
448,192,83350,1,0,0:0:0:0:
192,192,83501,1,0,0:0:0:0:
64,192,83501,1,0,0:0:0:0:
448,192,83501,1,0,0:0:0:0:
448,192,83652,128,0,84405:0:0:0:0:
192,192,83652,1,0,0:0:0:0:
64,192,83802,1,0,0:0:0:0:
192,192,83802,1,0,0:0:0:0:
320,192,83802,1,0,0:0:0:0:
320,192,83953,1,0,0:0:0:0:
64,192,84104,1,0,0:0:0:0:
192,192,84104,1,0,0:0:0:0:
320,192,84104,1,0,0:0:0:0:
192,192,84255,1,0,0:0:0:0:
64,192,84405,128,0,85008:0:0:0:0:
192,192,84405,1,0,0:0:0:0:
320,192,84405,1,0,0:0:0:0:
448,192,84556,1,0,0:0:0:0:
192,192,84707,1,0,0:0:0:0:
320,192,84707,1,0,0:0:0:0:
448,192,84707,1,0,0:0:0:0:
320,192,84858,1,0,0:0:0:0:
448,192,85008,128,0,85611:0:0:0:0:
192,192,85008,1,0,0:0:0:0:
320,192,85008,1,0,0:0:0:0:
64,192,85159,1,0,0:0:0:0:
192,192,85159,1,0,0:0:0:0:
320,192,85310,1,0,0:0:0:0:
192,192,85310,1,0,0:0:0:0:
64,192,85461,1,0,0:0:0:0:
192,192,85461,1,0,0:0:0:0:
192,192,85611,128,0,86214:0:0:0:0:
320,192,85611,1,0,0:0:0:0:
64,192,85611,1,0,0:0:0:0:
320,192,85762,1,0,0:0:0:0:
448,192,85762,1,0,0:0:0:0:
64,192,85913,1,0,0:0:0:0:
320,192,85913,1,0,0:0:0:0:
320,192,86064,1,0,0:0:0:0:
64,192,86064,1,0,0:0:0:0:
320,192,86214,128,0,86817:0:0:0:0:
64,192,86214,1,0,0:0:0:0:
448,192,86214,1,0,0:0:0:0:
448,192,86365,1,0,0:0:0:0:
192,192,86365,1,0,0:0:0:0:
192,192,86516,1,0,0:0:0:0:
64,192,86516,1,0,0:0:0:0:
64,192,86667,1,0,0:0:0:0:
192,192,86667,1,0,0:0:0:0:
64,192,86817,128,0,87420:0:0:0:0:
448,192,86817,1,0,0:0:0:0:
192,192,86817,1,0,0:0:0:0:
192,192,86968,1,0,0:0:0:0:
320,192,86968,1,0,0:0:0:0:
320,192,87119,1,0,0:0:0:0:
448,192,87119,1,0,0:0:0:0:
320,192,87270,1,0,0:0:0:0:
448,192,87270,1,0,0:0:0:0:
448,192,87420,128,0,88325:0:0:0:0:
320,192,87420,1,0,0:0:0:0:
192,192,87496,1,0,0:0:0:0:
64,192,87571,1,0,0:0:0:0:
320,192,87571,1,0,0:0:0:0:
192,192,87647,1,0,0:0:0:0:
64,192,87722,1,0,0:0:0:0:
320,192,87722,1,0,0:0:0:0:
192,192,87797,1,0,0:0:0:0:
64,192,87873,1,0,0:0:0:0:
320,192,87873,1,0,0:0:0:0:
192,192,87948,1,0,0:0:0:0:
320,192,88023,1,0,0:0:0:0:
64,192,88023,1,0,0:0:0:0:
192,192,88099,1,0,0:0:0:0:
64,192,88174,1,0,0:0:0:0:
320,192,88174,1,0,0:0:0:0:
192,192,88250,1,0,0:0:0:0:
64,192,88325,1,0,0:0:0:0:
320,192,88325,1,0,0:0:0:0:
192,192,88476,1,0,0:0:0:0:
64,192,88476,1,0,0:0:0:0:
448,192,88476,1,0,0:0:0:0:
448,192,88777,1,0,0:0:0:0:
320,192,88815,1,0,0:0:0:0:
64,192,88853,1,0,0:0:0:0:
192,192,88890,1,0,0:0:0:0:
448,192,88928,1,0,0:0:0:0:
320,192,88966,1,0,0:0:0:0:
64,192,89003,1,0,0:0:0:0:
192,192,89041,1,0,0:0:0:0:
448,192,89079,1,0,0:0:0:0:
320,192,89116,1,0,0:0:0:0:
64,192,89154,1,0,0:0:0:0:
192,192,89192,1,0,0:0:0:0:
448,192,89229,1,0,0:0:0:0:
320,192,89267,1,0,0:0:0:0:
64,192,89305,1,0,0:0:0:0:
192,192,89343,1,0,0:0:0:0:
448,192,89380,1,0,0:0:0:0:
320,192,89418,1,0,0:0:0:0:
64,192,89456,1,0,0:0:0:0:
192,192,89481,1,0,0:0:0:0:
320,192,89531,1,0,0:0:0:0:
448,192,89531,1,0,0:0:0:0:
64,192,89531,1,0,0:0:0:0:
448,192,89832,1,0,0:0:0:0:
64,192,89832,1,0,0:0:0:0:
320,192,89832,1,0,0:0:0:0:
192,192,89908,1,0,0:0:0:0:
448,192,89983,1,0,0:0:0:0:
64,192,89983,1,0,0:0:0:0:
320,192,90059,1,0,0:0:0:0:
64,192,90134,1,0,0:0:0:0:
192,192,90134,1,0,0:0:0:0:
448,192,90134,1,0,0:0:0:0:
320,192,90209,1,0,0:0:0:0:
448,192,90285,1,0,0:0:0:0:
192,192,90285,1,0,0:0:0:0:
64,192,90360,1,0,0:0:0:0:
192,192,90436,1,0,0:0:0:0:
320,192,90436,1,0,0:0:0:0:
448,192,90436,1,0,0:0:0:0:
64,192,90511,1,0,0:0:0:0:
192,192,90586,1,0,0:0:0:0:
448,192,90586,1,0,0:0:0:0:
320,192,90662,1,0,0:0:0:0:
448,192,90737,1,0,0:0:0:0:
192,192,90737,1,0,0:0:0:0:
64,192,90737,1,0,0:0:0:0:
320,192,90812,1,0,0:0:0:0:
64,192,90888,1,0,0:0:0:0:
448,192,90888,1,0,0:0:0:0:
192,192,90963,1,0,0:0:0:0:
64,192,91039,1,0,0:0:0:0:
448,192,91039,1,0,0:0:0:0:
320,192,91039,1,0,0:0:0:0:
192,192,91114,1,0,0:0:0:0:
448,192,91189,1,0,0:0:0:0:
64,192,91189,1,0,0:0:0:0:
320,192,91265,1,0,0:0:0:0:
192,192,91340,1,0,0:0:0:0:
64,192,91340,1,0,0:0:0:0:
448,192,91340,1,0,0:0:0:0:
320,192,91415,1,0,0:0:0:0:
192,192,91491,1,0,0:0:0:0:
448,192,91491,1,0,0:0:0:0:
64,192,91566,1,0,0:0:0:0:
192,192,91642,1,0,0:0:0:0:
320,192,91642,1,0,0:0:0:0:
448,192,91642,1,0,0:0:0:0:
64,192,91717,1,0,0:0:0:0:
192,192,91792,1,0,0:0:0:0:
448,192,91792,1,0,0:0:0:0:
320,192,91868,1,0,0:0:0:0:
448,192,91943,1,0,0:0:0:0:
192,192,91943,1,0,0:0:0:0:
64,192,91943,1,0,0:0:0:0:
320,192,92018,1,0,0:0:0:0:
64,192,92094,1,0,0:0:0:0:
448,192,92094,1,0,0:0:0:0:
320,192,92169,1,0,0:0:0:0:
64,192,92245,128,0,92395:0:0:0:0:
192,192,92245,1,0,0:0:0:0:
448,192,92245,1,0,0:0:0:0:
320,192,92395,1,0,0:0:0:0:
64,192,92546,128,0,92697:0:0:0:0:
448,192,92546,1,0,0:0:0:0:
320,192,92546,1,0,0:0:0:0:
192,192,92546,1,0,0:0:0:0:
320,192,92697,128,0,92848:0:0:0:0:
192,192,92848,128,0,92998:0:0:0:0:
64,192,92848,1,0,0:0:0:0:
448,192,92848,1,0,0:0:0:0:
320,192,92998,1,0,0:0:0:0:
320,192,93149,1,0,0:0:0:0:
192,192,93149,1,0,0:0:0:0:
64,192,93149,1,0,0:0:0:0:
448,192,93149,128,0,93300:0:0:0:0:
192,192,93300,128,0,93451:0:0:0:0:
448,192,93451,128,0,93601:0:0:0:0:
320,192,93451,1,0,0:0:0:0:
64,192,93451,1,0,0:0:0:0:
192,192,93601,1,0,0:0:0:0:
320,192,93752,1,0,0:0:0:0:
192,192,93752,1,0,0:0:0:0:
64,192,93752,1,0,0:0:0:0:
448,192,93752,128,0,93903:0:0:0:0:
64,192,93903,128,0,93978:0:0:0:0:
192,192,94054,1,0,0:0:0:0:
320,192,94054,1,0,0:0:0:0:
448,192,94054,1,0,0:0:0:0:
64,192,94054,128,0,94204:0:0:0:0:
320,192,94204,1,0,0:0:0:0:
320,192,94355,1,0,0:0:0:0:
448,192,94355,1,0,0:0:0:0:
64,192,94355,1,0,0:0:0:0:
192,192,94355,128,0,94430:0:0:0:0:
192,192,94506,128,0,94657:0:0:0:0:
64,192,94657,1,0,0:0:0:0:
448,192,94657,1,0,0:0:0:0:
320,192,94732,1,0,0:0:0:0:
64,192,94807,1,0,0:0:0:0:
448,192,94807,1,0,0:0:0:0:
320,192,94883,1,0,0:0:0:0:
192,192,94958,1,0,0:0:0:0:
64,192,94958,1,0,0:0:0:0:
448,192,94958,1,0,0:0:0:0:
320,192,95033,1,0,0:0:0:0:
64,192,95109,1,0,0:0:0:0:
448,192,95109,1,0,0:0:0:0:
192,192,95184,1,0,0:0:0:0:
320,192,95260,1,0,0:0:0:0:
448,192,95260,1,0,0:0:0:0:
64,192,95260,1,0,0:0:0:0:
192,192,95335,1,0,0:0:0:0:
64,192,95410,1,0,0:0:0:0:
320,192,95410,1,0,0:0:0:0:
448,192,95486,1,0,0:0:0:0:
320,192,95561,1,0,0:0:0:0:
192,192,95561,1,0,0:0:0:0:
64,192,95561,1,0,0:0:0:0:
448,192,95637,1,0,0:0:0:0:
320,192,95712,1,0,0:0:0:0:
64,192,95712,1,0,0:0:0:0:
192,192,95787,1,0,0:0:0:0:
320,192,95863,1,0,0:0:0:0:
448,192,95863,1,0,0:0:0:0:
64,192,95863,1,0,0:0:0:0:
192,192,95938,1,0,0:0:0:0:
448,192,96013,1,0,0:0:0:0:
64,192,96013,1,0,0:0:0:0:
320,192,96089,1,0,0:0:0:0:
64,192,96164,1,0,0:0:0:0:
192,192,96164,1,0,0:0:0:0:
448,192,96164,1,0,0:0:0:0:
320,192,96240,1,0,0:0:0:0:
64,192,96315,1,0,0:0:0:0:
448,192,96315,1,0,0:0:0:0:
192,192,96390,1,0,0:0:0:0:
320,192,96466,1,0,0:0:0:0:
448,192,96466,1,0,0:0:0:0:
64,192,96466,1,0,0:0:0:0:
192,192,96541,1,0,0:0:0:0:
64,192,96616,1,0,0:0:0:0:
320,192,96616,1,0,0:0:0:0:
448,192,96692,1,0,0:0:0:0:
320,192,96767,1,0,0:0:0:0:
192,192,96767,1,0,0:0:0:0:
64,192,96767,1,0,0:0:0:0:
448,192,96918,1,0,0:0:0:0:
192,192,96918,1,0,0:0:0:0:
64,192,96918,1,0,0:0:0:0:
192,192,97069,1,0,0:0:0:0:
448,192,97069,1,0,0:0:0:0:
320,192,97069,1,0,0:0:0:0:
64,192,97069,1,0,0:0:0:0:
64,192,97295,1,0,0:0:0:0:
192,192,97295,1,0,0:0:0:0:
448,192,97295,1,0,0:0:0:0:
448,192,97521,1,0,0:0:0:0:
320,192,97521,1,0,0:0:0:0:
64,192,97521,1,0,0:0:0:0:
192,192,97672,1,0,0:0:0:0:
64,192,97672,1,0,0:0:0:0:
320,192,97672,1,0,0:0:0:0:
448,192,97672,1,0,0:0:0:0:
320,192,97898,1,0,0:0:0:0:
192,192,97898,1,0,0:0:0:0:
64,192,97898,1,0,0:0:0:0:
448,192,98124,1,0,0:0:0:0:
320,192,98124,1,0,0:0:0:0:
192,192,98124,1,0,0:0:0:0:
64,192,98275,1,0,0:0:0:0:
192,192,98275,1,0,0:0:0:0:
320,192,98275,1,0,0:0:0:0:
448,192,98275,1,0,0:0:0:0:
448,192,98501,1,0,0:0:0:0:
192,192,98501,1,0,0:0:0:0:
64,192,98501,1,0,0:0:0:0:
448,192,98727,1,0,0:0:0:0:
320,192,98727,1,0,0:0:0:0:
64,192,98727,1,0,0:0:0:0:
192,192,98878,1,0,0:0:0:0:
64,192,98878,1,0,0:0:0:0:
320,192,98878,1,0,0:0:0:0:
448,192,98878,1,0,0:0:0:0:
192,192,99104,1,0,0:0:0:0:
64,192,99104,1,0,0:0:0:0:
448,192,99104,1,0,0:0:0:0:
448,192,99330,1,0,0:0:0:0:
320,192,99330,1,0,0:0:0:0:
64,192,99330,1,0,0:0:0:0:
64,192,99481,1,0,0:0:0:0:
320,192,99481,1,0,0:0:0:0:
448,192,99481,1,0,0:0:0:0:
192,192,99556,1,0,0:0:0:0:
64,192,99631,1,0,0:0:0:0:
448,192,99631,1,0,0:0:0:0:
320,192,99707,1,0,0:0:0:0:
192,192,99782,1,0,0:0:0:0:
64,192,99782,1,0,0:0:0:0:
448,192,99782,1,0,0:0:0:0:
320,192,99858,1,0,0:0:0:0:
192,192,99933,1,0,0:0:0:0:
448,192,99933,1,0,0:0:0:0:
64,192,100008,1,0,0:0:0:0:
192,192,100084,1,0,0:0:0:0:
320,192,100084,1,0,0:0:0:0:
448,192,100084,1,0,0:0:0:0:
64,192,100159,1,0,0:0:0:0:
192,192,100234,1,0,0:0:0:0:
448,192,100234,1,0,0:0:0:0:
320,192,100310,1,0,0:0:0:0:
192,192,100385,1,0,0:0:0:0:
64,192,100385,1,0,0:0:0:0:
448,192,100385,1,0,0:0:0:0:
320,192,100461,1,0,0:0:0:0:
64,192,100536,1,0,0:0:0:0:
448,192,100536,1,0,0:0:0:0:
192,192,100611,1,0,0:0:0:0:
320,192,100687,1,0,0:0:0:0:
448,192,100687,1,0,0:0:0:0:
64,192,100687,1,0,0:0:0:0:
192,192,100762,1,0,0:0:0:0:
64,192,100838,1,0,0:0:0:0:
320,192,100838,1,0,0:0:0:0:
448,192,100913,1,0,0:0:0:0:
320,192,100988,1,0,0:0:0:0:
192,192,100988,1,0,0:0:0:0:
64,192,100988,1,0,0:0:0:0:
448,192,101064,1,0,0:0:0:0:
320,192,101139,1,0,0:0:0:0:
64,192,101139,1,0,0:0:0:0:
192,192,101214,1,0,0:0:0:0:
448,192,101290,1,0,0:0:0:0:
64,192,101290,1,0,0:0:0:0:
448,192,101365,1,0,0:0:0:0:
64,192,101365,1,0,0:0:0:0:
192,192,101516,1,0,0:0:0:0:
320,192,101516,1,0,0:0:0:0:
64,192,101516,1,0,0:0:0:0:
448,192,101742,1,0,0:0:0:0:
320,192,101742,1,0,0:0:0:0:
192,192,101742,1,0,0:0:0:0:
64,192,101893,1,0,0:0:0:0:
192,192,101893,1,0,0:0:0:0:
64,192,101968,1,0,0:0:0:0:
192,192,101968,1,0,0:0:0:0:
448,192,102119,1,0,0:0:0:0:
320,192,102119,1,0,0:0:0:0:
192,192,102119,1,0,0:0:0:0:
64,192,102345,1,0,0:0:0:0:
192,192,102345,1,0,0:0:0:0:
320,192,102345,1,0,0:0:0:0:
448,192,102496,1,0,0:0:0:0:
320,192,102496,1,0,0:0:0:0:
192,192,102496,1,0,0:0:0:0:
64,192,102722,1,0,0:0:0:0:
192,192,102722,1,0,0:0:0:0:
448,192,102722,1,0,0:0:0:0:
320,192,102948,1,0,0:0:0:0:
448,192,102948,1,0,0:0:0:0:
192,192,102948,1,0,0:0:0:0:
64,192,103099,1,0,0:0:0:0:
192,192,103099,1,0,0:0:0:0:
192,192,103174,1,0,0:0:0:0:
64,192,103174,1,0,0:0:0:0:
448,192,103325,1,0,0:0:0:0:
320,192,103325,1,0,0:0:0:0:
448,192,103400,1,0,0:0:0:0:
320,192,103400,1,0,0:0:0:0:
192,192,103551,1,0,0:0:0:0:
320,192,103551,1,0,0:0:0:0:
192,192,103626,1,0,0:0:0:0:
320,192,103626,1,0,0:0:0:0:
192,192,103702,1,0,0:0:0:0:
320,192,103702,1,0,0:0:0:0:
192,192,103928,1,0,0:0:0:0:
448,192,103928,1,0,0:0:0:0:
64,192,103928,1,0,0:0:0:0:
448,192,104154,1,0,0:0:0:0:
320,192,104154,1,0,0:0:0:0:
64,192,104154,1,0,0:0:0:0:
64,192,104305,1,0,0:0:0:0:
192,192,104305,1,0,0:0:0:0:
320,192,104380,1,0,0:0:0:0:
448,192,104380,1,0,0:0:0:0:
192,192,104456,1,0,0:0:0:0:
64,192,104456,1,0,0:0:0:0:
320,192,104531,1,0,0:0:0:0:
448,192,104531,1,0,0:0:0:0:
192,192,104606,1,0,0:0:0:0:
64,192,104606,1,0,0:0:0:0:
320,192,104682,1,0,0:0:0:0:
448,192,104682,1,0,0:0:0:0:
192,192,104757,1,0,0:0:0:0:
64,192,104757,1,0,0:0:0:0:
320,192,104832,1,0,0:0:0:0:
448,192,104832,1,0,0:0:0:0:
192,192,104908,1,0,0:0:0:0:
64,192,104908,1,0,0:0:0:0:
320,192,104983,1,0,0:0:0:0:
448,192,104983,1,0,0:0:0:0:
64,192,105059,1,0,0:0:0:0:
192,192,105059,1,0,0:0:0:0:
320,192,105134,1,0,0:0:0:0:
448,192,105134,1,0,0:0:0:0:
192,192,105209,1,0,0:0:0:0:
64,192,105209,1,0,0:0:0:0:
448,192,105209,1,0,0:0:0:0:
448,192,105511,1,0,0:0:0:0:
192,192,105511,1,0,0:0:0:0:
320,192,105586,1,0,0:0:0:0:
64,192,105586,1,0,0:0:0:0:
192,192,105662,1,0,0:0:0:0:
448,192,105662,1,0,0:0:0:0:
320,192,105737,1,0,0:0:0:0:
64,192,105737,1,0,0:0:0:0:
192,192,105812,1,0,0:0:0:0:
448,192,105812,1,0,0:0:0:0:
320,192,105888,1,0,0:0:0:0:
64,192,105888,1,0,0:0:0:0:
192,192,105963,1,0,0:0:0:0:
448,192,105963,1,0,0:0:0:0:
320,192,106039,1,0,0:0:0:0:
64,192,106039,1,0,0:0:0:0:
192,192,106114,1,0,0:0:0:0:
448,192,106114,1,0,0:0:0:0:
320,192,106189,1,0,0:0:0:0:
64,192,106189,1,0,0:0:0:0:
192,192,106265,1,0,0:0:0:0:
448,192,106265,1,0,0:0:0:0:
320,192,106340,1,0,0:0:0:0:
64,192,106340,1,0,0:0:0:0:
192,192,106415,1,0,0:0:0:0:
448,192,106415,1,0,0:0:0:0:
64,192,106415,1,0,0:0:0:0:
448,192,106717,1,0,0:0:0:0:
320,192,106717,1,0,0:0:0:0:
64,192,106717,1,0,0:0:0:0:
192,192,106943,1,0,0:0:0:0:
64,192,106943,1,0,0:0:0:0:
448,192,106943,1,0,0:0:0:0:
448,192,107169,1,0,0:0:0:0:
320,192,107169,1,0,0:0:0:0:
64,192,107169,1,0,0:0:0:0:
64,192,107320,1,0,0:0:0:0:
192,192,107320,1,0,0:0:0:0:
320,192,107320,1,0,0:0:0:0:
448,192,107320,1,0,0:0:0:0:
448,192,107546,1,0,0:0:0:0:
192,192,107546,1,0,0:0:0:0:
64,192,107546,1,0,0:0:0:0:
320,192,107772,1,0,0:0:0:0:
448,192,107772,1,0,0:0:0:0:
64,192,107772,1,0,0:0:0:0:
192,192,107923,1,0,0:0:0:0:
64,192,107923,1,0,0:0:0:0:
320,192,107923,1,0,0:0:0:0:
448,192,107923,1,0,0:0:0:0:
320,192,108149,1,0,0:0:0:0:
64,192,108149,1,0,0:0:0:0:
448,192,108149,1,0,0:0:0:0:
448,192,108375,1,0,0:0:0:0:
192,192,108375,1,0,0:0:0:0:
64,192,108375,1,0,0:0:0:0:
320,192,108526,1,0,0:0:0:0:
448,192,108526,1,0,0:0:0:0:
192,192,108601,1,0,0:0:0:0:
64,192,108601,1,0,0:0:0:0:
320,192,108677,1,0,0:0:0:0:
448,192,108677,1,0,0:0:0:0:
192,192,108752,1,0,0:0:0:0:
64,192,108752,1,0,0:0:0:0:
320,192,108827,1,0,0:0:0:0:
448,192,108827,1,0,0:0:0:0:
192,192,108903,1,0,0:0:0:0:
64,192,108903,1,0,0:0:0:0:
320,192,108978,1,0,0:0:0:0:
448,192,108978,1,0,0:0:0:0:
192,192,109054,1,0,0:0:0:0:
64,192,109054,1,0,0:0:0:0:
448,192,109129,1,0,0:0:0:0:
320,192,109179,1,0,0:0:0:0:
64,192,109229,1,0,0:0:0:0:
192,192,109280,1,0,0:0:0:0:
448,192,109330,1,0,0:0:0:0:
320,192,109380,1,0,0:0:0:0:
64,192,109430,1,0,0:0:0:0:
192,192,109481,1,0,0:0:0:0:
448,192,109531,1,0,0:0:0:0:
320,192,109581,1,0,0:0:0:0:
64,192,109631,1,0,0:0:0:0:
192,192,109682,1,0,0:0:0:0:
448,192,109732,1,0,0:0:0:0:
320,192,109782,1,0,0:0:0:0:
64,192,109832,1,0,0:0:0:0:
192,192,109883,1,0,0:0:0:0:
448,192,109933,1,0,0:0:0:0:
320,192,109983,1,0,0:0:0:0:
64,192,110033,1,0,0:0:0:0:
192,192,110084,1,0,0:0:0:0:
448,192,110134,1,0,0:0:0:0:
320,192,110184,1,0,0:0:0:0:
64,192,110234,1,0,0:0:0:0:
192,192,110285,1,0,0:0:0:0:
320,192,110335,1,0,0:0:0:0:
448,192,110385,1,0,0:0:0:0:
64,192,110436,1,0,0:0:0:0:
192,192,110486,1,0,0:0:0:0:
320,192,110536,1,0,0:0:0:0:
448,192,110586,1,0,0:0:0:0:
64,192,110637,1,0,0:0:0:0:
192,192,110687,1,0,0:0:0:0:
320,192,110737,1,0,0:0:0:0:
448,192,110787,1,0,0:0:0:0:
64,192,110838,1,0,0:0:0:0:
192,192,110888,1,0,0:0:0:0:
320,192,110938,1,0,0:0:0:0:
448,192,110988,1,0,0:0:0:0:
64,192,111039,1,0,0:0:0:0:
192,192,111089,1,0,0:0:0:0:
320,192,111139,1,0,0:0:0:0:
448,192,111189,1,0,0:0:0:0:
64,192,111240,1,0,0:0:0:0:
192,192,111290,1,0,0:0:0:0:
320,192,111340,1,0,0:0:0:0:
448,192,111390,1,0,0:0:0:0:
64,192,111441,1,0,0:0:0:0:
192,192,111491,1,0,0:0:0:0:
320,192,111541,1,0,0:0:0:0:
448,192,111591,1,0,0:0:0:0:
