osu file format v14

[General]
AudioFilename: PLight.mp3
AudioLeadIn: 0
PreviewTime: 89812
Countdown: 0
SampleSet: Soft
StackLeniency: 0.3
Mode: 0
LetterboxInBreaks: 0
WidescreenStoryboard: 0

[Editor]
DistanceSpacing: 0.8
BeatDivisor: 8
GridSize: 4
TimelineZoom: 1.4

[Metadata]
Title:Gekkou Ranbu
TitleUnicode:ζœˆε…‰δΉ±θˆž
Artist:P*Light
ArtistUnicode:P*Light
Creator:liaoxingyao
Version:GRAVITY
Source:SOUND VOLTEX III GRAVITY WARS
Tags:SDVX Spring
BeatmapID:883618
BeatmapSetID:406623

[Difficulty]
HPDrainRate:6.6
CircleSize:4
OverallDifficulty:8.2
ApproachRate:9.3
SliderMultiplier:1.7
SliderTickRate:1

[Events]
//Background and Video events
0,0,"BG.jpg",0,0
//Break Periods
2,66787,67968
//Storyboard Layer 0 (Background)
//Storyboard Layer 1 (Fail)
//Storyboard Layer 2 (Pass)
//Storyboard Layer 3 (Foreground)
//Storyboard Sound Samples

[TimingPoints]
2071,322.58064516129,4,2,0,70,1,0
2716,-100,4,2,0,70,0,0
9812,-66.6666666666667,4,2,0,70,0,0
11103,-100,4,2,0,70,0,0
11748,-50,4,2,0,70,0,0
12393,-100,4,2,0,70,0,0
21587,-66.6666666666667,4,2,0,70,0,0
22393,-50,4,2,0,70,0,0
22716,-100,4,2,0,70,0,0
31909,-66.6666666666667,4,2,0,70,0,0
32554,-50,4,2,0,70,0,0
33038,-100,4,2,0,70,0,0
68522,-133.333333333333,4,2,0,70,0,0
79490,-100,4,2,0,70,0,0
89812,-100,4,2,0,80,0,1
98845,-66.6666666666667,4,2,0,80,0,0
100135,-100,4,2,0,80,0,1
110458,-100,4,2,0,80,0,0

[Colours]
Combo1 : 136,247,219
Combo2 : 255,128,64
Combo3 : 243,203,12
Combo4 : 255,128,192

[HitObjects]
51,85,1426,5,2,0:0:0:0:
124,51,1587,1,0,0:0:0:0:
204,37,1748,1,2,0:0:0:0:
284,45,1909,1,0,0:0:0:0:
360,72,2071,6,0,L|355:237,1,127.5,6|0,1:2|0:0,0:0:0:0:
272,297,2393,2,0,L|275:246,1,42.5,10|0,1:2|0:0,0:0:0:0:
412,357,2554,2,0,L|408:278,1,42.5,6|0,1:2|0:0,0:0:0:0:
345,263,2716,5,2,0:0:0:0:
272,297,2877,1,0,0:0:0:0:
192,311,3038,1,2,0:0:0:0:
112,303,3199,1,0,0:0:0:0:
36,276,3361,6,0,L|41:111,1,127.5,6|0,1:2|0:0,0:0:0:0:
124,51,3683,2,0,L|121:102,1,42.5,10|0,1:2|0:0,0:0:0:0:
170,205,3844,2,0,L|174:126,1,42.5,6|0,1:2|0:0,0:0:0:0:
124,51,4006,5,2,0:0:0:0:
197,85,4167,1,0,0:0:0:0:
277,99,4328,1,2,0:0:0:0:
357,91,4489,1,0,0:0:0:0:
434,45,4651,6,0,L|437:136,2,85,6|0|0,1:2|0:0|0:0,0:0:0:0:
367,166,5135,2,0,L|370:256,2,85,6|0|0,1:2|0:0|0:0,0:0:0:0:
448,281,5619,2,0,L|451:371,1,85,6|0,1:2|0:0,0:0:0:0:
367,166,5941,6,0,L|370:256,1,85,6|0,1:2|0:0,0:0:0:0:
272,297,6264,1,10,1:2:0:0:
389,154,6425,2,0,L|390:211,1,42.5,6|0,1:2|0:0,0:0:0:0:
345,263,6587,5,2,0:0:0:0:
272,297,6748,1,0,0:0:0:0:
192,311,6909,1,2,0:0:0:0:
112,303,7070,1,0,0:0:0:0:
36,276,7232,6,6,L|27:188,1,85,6|0,1:2|0:0,1:2:0:0:
100,47,7554,2,6,L|108:131,1,85,2|0,1:2|0:0,1:2:0:0:
192,215,7877,5,2,1:2:0:0:
265,249,8038,1,0,0:0:0:0:
345,263,8199,1,2,1:2:0:0:
425,255,8360,1,0,0:0:0:0:
497,110,8522,6,6,L|506:198,1,85,6|0,1:2|0:0,1:2:0:0:
433,339,8844,2,6,L|425:255,1,85,2|0,1:2|0:0,1:2:0:0:
341,171,9167,5,2,1:2:0:0:
268,137,9328,1,0,0:0:0:0:
188,123,9489,1,2,1:2:0:0:
108,131,9650,1,0,0:0:0:0:
37,168,9812,6,0,L|46:240,1,63.7500024318696,6|0,1:2|0:0,0:0:0:0:
109,305,9974,2,0,L|118:377,1,63.7500024318696,2|0,1:2|0:0,0:0:0:0:
188,123,10135,2,0,L|197:195,1,63.7500024318696,6|0,1:2|0:0,0:0:0:0:
260,260,10297,2,0,L|269:332,1,63.7500024318696,2|0,1:2|0:0,0:0:0:0:
268,137,10458,5,6,1:2:0:0:
258,117,10538,1,2,1:2:0:0:
336,99,10619,1,2,1:2:0:0:
333,76,10699,1,2,1:2:0:0:
414,73,10780,1,6,1:2:0:0:
419,51,10860,1,2,1:2:0:0:
490,87,10941,1,2,1:2:0:0:
503,68,11021,1,2,1:2:0:0:
440,150,11103,6,0,P|430:193|449:257,1,85,6|0,1:2|0:0,0:0:0:0:
491,364,11425,2,0,P|501:321|482:257,1,85
440,150,11748,6,0,P|430:193|449:257,1,85,2|2,1:3|1:3,0:0:0:0:
491,364,11909,2,0,P|501:321|482:257,1,85,2|2,1:3|1:3,0:0:0:0:
336,99,12070,1,2,1:2:0:0:
336,99,12393,6,0,L|326:213,1,85,6|0,1:2|0:0,0:0:0:0:
314,192,12635,2,0,P|259:206|218:187,1,85,2|0,0:0|0:0,0:0:0:0:
219,184,12877,2,0,L|215:127,1,42.5,2|0,0:0|0:0,0:0:0:0:
153,92,13038,1,2,1:2:0:0:
116,209,13200,1,0,0:0:0:0:
336,221,13361,1,10,1:2:0:0:
219,184,13523,1,0,0:0:0:0:
36,191,13683,6,0,L|46:305,1,85,2|0,1:2|0:0,0:0:0:0:
58,284,13925,2,0,P|112:298|153:279,1,85,2|0,0:0|0:0,0:0:0:0:
153,276,14167,2,0,L|157:219,1,42.5,2|0,0:0|0:0,0:0:0:0:
219,184,14328,1,2,1:2:0:0:
256,301,14490,1,0,0:0:0:0:
36,313,14651,1,10,1:2:0:0:
219,184,14813,1,0,0:0:0:0:
336,221,14974,6,0,L|429:218,1,85,2|0,1:2|0:0,0:0:0:0:
465,151,15216,2,0,B|474:112|474:112|459:59,1,85,2|0,0:0|0:0,0:0:0:0:
393,27,15458,2,0,L|346:28,1,42.5,2|0,0:0|0:0,0:0:0:0:
274,67,15619,1,2,1:2:0:0:
107,59,15780,1,0,0:0:0:0:
191,48,15941,1,10,1:2:0:0:
32,97,16103,1,0,0:0:0:0:
194,147,16264,6,0,L|101:150,1,85,2|0,1:2|0:0,0:0:0:0:
65,217,16506,2,0,B|56:256|56:256|71:309,1,85,2|0,0:0|0:0,0:0:0:0:
137,341,16748,2,0,L|184:340,1,42.5,2|0,0:0|0:0,0:0:0:0:
256,301,16909,1,2,1:2:0:0:
423,308,17070,1,0,0:0:0:0:
339,319,17231,1,10,1:2:0:0:
498,270,17393,1,6,1:2:0:0:
339,319,17554,6,0,L|345:229,1,85,6|0,1:2|0:0,0:0:0:0:
322,198,17796,1,0,0:0:0:0:
288,172,17877,2,0,P|247:163|177:184,1,85,10|0,1:2|0:0,0:0:0:0:
137,341,18200,1,2,1:2:0:0:
122,173,18361,1,0,0:0:0:0:
138,256,18522,1,10,1:2:0:0:
127,88,18683,1,0,0:0:0:0:
71,320,18845,6,0,L|65:230,1,85,6|0,1:2|0:0,0:0:0:0:
88,199,19087,1,0,0:0:0:0:
122,173,19168,2,0,P|163:164|233:185,1,85,10|0,1:2|0:0,0:0:0:0:
273,342,19491,1,2,1:2:0:0:
287,175,19652,1,0,0:0:0:0:
271,258,19813,1,10,1:2:0:0:
282,90,19974,1,2,1:2:0:0:
271,258,20135,6,0,L|274:375,1,85,6|0,1:2|0:0,0:0:0:0:
293,351,20377,2,0,P|348:365|389:346,1,85,2|0,1:2|0:0,0:0:0:0:
388,343,20619,2,0,L|392:286,1,42.5,2|0,1:2|0:0,0:0:0:0:
459,256,20780,2,0,L|455:199,1,42.5,6|0,1:2|0:0,0:0:0:0:
386,151,20941,2,0,L|390:94,1,42.5,2|0,1:2|0:0,0:0:0:0:
457,64,21102,2,0,L|453:7,1,42.5,6|0,1:2|0:0,0:0:0:0:
375,27,21264,2,0,L|332:25,1,42.5,6|0,1:2|0:0,0:0:0:0:
332,25,21587,6,0,L|319:162,1,127.500004863739,6|0,1:2|0:0,0:0:0:0:
244,196,21829,2,0,L|256:69,1,127.500004863739,6|0,1:2|0:0,0:0:0:0:
179,104,22070,2,0,L|166:230,1,127.500004863739,6|0,1:2|0:0,0:0:0:0:
166,230,22393,6,0,L|335:247,1,170,14|0,1:2|0:0,0:0:0:0:
459,256,22716,5,6,1:2:0:0:
396,123,22877,1,2,0:0:0:0:
407,100,22958,1,0,0:0:0:0:
243,74,23119,1,2,0:0:0:0:
232,51,23200,1,0,0:0:0:0:
396,123,23361,2,0,L|399:223,1,85,2|0,1:2|0:0,0:0:0:0:
306,311,23683,2,0,L|206:314,1,85,10|0,1:2|0:0,0:0:0:0:
105,332,24006,5,2,1:2:0:0:
25,172,24167,1,2,0:0:0:0:
14,149,24248,1,0,0:0:0:0:
168,95,24409,1,2,0:0:0:0:
179,72,24490,1,0,0:0:0:0:
25,172,24651,2,0,L|22:272,1,85,2|0,1:2|0:0,0:0:0:0:
105,332,24973,2,0,L|205:335,1,85,10|0,1:2|0:0,0:0:0:0:
310,228,25296,5,2,1:2:0:0:
397,128,25458,1,2,0:0:0:0:
419,138,25538,1,2,0:0:0:0:
276,83,25700,1,2,0:0:0:0:
254,93,25780,1,2,0:0:0:0:
310,228,25941,2,0,P|304:269|314:317,1,85,2|0,1:2|0:0,0:0:0:0:
420,221,26264,2,0,P|426:180|416:132,1,85,10|0,1:2|0:0,0:0:0:0:
226,226,26587,5,2,1:2:0:0:
126,313,26749,1,2,0:0:0:0:
136,335,26829,1,2,0:0:0:0:
81,192,26991,1,2,0:0:0:0:
91,170,27071,1,2,0:0:0:0:
226,226,27232,2,0,P|267:220|315:230,1,85,2|0,1:2|0:0,0:0:0:0:
219,336,27555,2,0,P|178:342|130:332,1,85,10|2,1:2|1:2,0:0:0:0:
309,227,27877,6,0,L|320:125,1,85,6|0,1:2|0:0,0:0:0:0:
357,125,28119,1,0,0:0:0:0:
397,110,28200,2,0,L|408:8,1,85,10|0,1:2|0:0,0:0:0:0:
464,163,28522,1,2,1:2:0:0:
444,261,28683,1,0,0:0:0:0:
309,227,28845,1,10,1:2:0:0:
329,325,29006,1,0,0:0:0:0:
203,227,29167,6,0,L|192:125,1,85,6|0,1:2|0:0,0:0:0:0:
155,125,29409,1,0,0:0:0:0:
115,110,29490,2,0,L|104:8,1,85,10|0,1:2|0:0,0:0:0:0:
48,163,29812,1,2,1:2:0:0:
68,261,29973,1,0,0:0:0:0:
203,227,30135,1,10,1:2:0:0:
183,325,30296,1,2,1:2:0:0:
68,261,30458,6,0,L|48:168,1,85,6|10,1:2|1:2,0:0:0:0:
115,110,30700,1,0,0:0:0:0:
155,125,30780,2,0,L|248:145,1,85,2|10,1:2|1:2,0:0:0:0:
68,261,31103,2,0,L|73:198,1,42.5,2|2,1:2|1:2,0:0:0:0:
113,320,31264,2,0,L|108:383,1,42.5,10|2,1:2|1:2,0:0:0:0:
203,227,31425,2,0,L|208:164,1,42.5,2|2,1:2|1:2,0:0:0:0:
248,286,31586,2,0,L|243:349,1,42.5,10|2,1:2|1:2,0:0:0:0:
244,328,31909,6,0,P|311:310|383:335,1,127.500004863739,6|0,1:2|0:0,0:0:0:0:
365,324,32151,2,0,P|347:256|372:184,1,127.500004863739,6|0,1:2|0:0,0:0:0:0:
361,201,32393,6,0,P|316:212|268:196,1,63.7500024318696,6|0,1:2|0:0,0:0:0:0:
238,164,32554,2,0,P|261:254|232:350,1,170,2|14,1:2|1:2,0:0:0:0:
244,327,33038,6,0,P|260:245|238:164,1,170,6|10,1:2|1:2,0:0:0:0:
164,55,33683,1,10,1:2:0:0:
125,38,33763,1,0,0:0:0:0:
84,46,33844,1,0,0:0:0:0:
54,75,33924,1,0,0:0:0:0:
121,117,34005,1,10,1:2:0:0:
149,153,34087,1,0,0:0:0:0:
166,191,34167,1,0,0:0:0:0:
158,232,34248,1,0,0:0:0:0:
129,262,34329,6,0,L|52:254,3,42.5,10|0|0|0,1:2|0:0|0:0|0:0,0:0:0:0:
60,175,34651,2,0,L|-17:167,3,42.5,10|0|0|0,1:2|0:0|0:0|0:0,0:0:0:0:
54,75,34974,2,0,P|79:57|120:49,2,56.6666666666667,10|0|0,1:2|0:0|0:0,0:0:0:0:
149,153,35296,2,0,P|215:190|263:170,1,127.5,10|0,1:2|0:0,0:0:0:0:
230,95,35619,6,0,P|213:177|236:258,1,170,10|10,1:2|1:2,0:0:0:0:
353,333,36264,1,10,1:2:0:0:
391,350,36344,1,0,0:0:0:0:
433,342,36425,1,0,0:0:0:0:
463,313,36505,1,0,0:0:0:0:
396,271,36586,1,10,1:2:0:0:
368,235,36668,1,0,0:0:0:0:
351,197,36748,1,0,0:0:0:0:
359,156,36829,1,0,0:0:0:0:
388,126,36910,6,0,L|465:134,3,42.5,10|0|0|0,1:2|0:0|0:0|0:0,0:0:0:0:
457,213,37232,2,0,L|534:221,3,42.5,10|0|0|0,1:2|0:0|0:0|0:0,0:0:0:0:
463,313,37555,2,0,P|396:350|348:330,1,127.5,10|0,1:2|0:0,0:0:0:0:
277,261,37877,1,10,1:2:0:0:
246,233,37957,1,0,0:0:0:0:
207,225,38038,1,0,0:0:0:0:
169,239,38118,1,0,0:0:0:0:
139,270,38200,5,14,1:2:0:0:
139,270,38361,1,10,1:2:0:0:
65,180,38522,1,10,1:2:0:0:
65,180,38683,1,10,1:2:0:0:
162,133,38845,1,10,1:2:0:0:
162,133,39006,1,10,1:2:0:0:
106,41,39167,1,10,1:2:0:0:
106,41,39328,1,10,1:2:0:0:
391,112,39490,5,14,1:2:0:0:
447,204,39651,1,10,1:2:0:0:
391,112,39812,1,10,1:2:0:0:
447,204,39973,1,10,1:2:0:0:
350,251,40135,1,10,1:2:0:0:
406,343,40296,1,10,1:2:0:0:
350,251,40458,1,10,1:2:0:0:
406,343,40619,1,10,1:2:0:0:
447,204,40780,5,14,1:2:0:0:
416,127,40941,1,10,1:2:0:0:
338,101,41102,1,10,1:2:0:0:
268,145,41264,2,0,L|219:138,1,42.5,10|0,1:2|0:0,0:0:0:0:
129,187,41425,5,14,1:2:0:0:
159,263,41586,1,10,1:2:0:0:
237,289,41747,1,10,1:2:0:0:
307,245,41909,2,0,L|356:252,1,42.5,10|0,1:2|0:0,0:0:0:0:
406,343,42070,6,0,L|414:290,1,42.5,14|0,1:2|0:0,0:0:0:0:
349,250,42232,2,0,L|307:245,1,42.5,10|0,1:2|0:0,0:0:0:0:
159,263,42393,2,0,L|167:316,1,42.5,10|0,1:2|0:0,0:0:0:0:
102,355,42555,2,0,L|59:360,1,42.5,10|0,1:2|0:0,0:0:0:0:
25,263,42716,5,10,1:2:0:0:
23,239,42796,1,10,1:2:0:0:
79,206,42877,5,10,1:2:0:0:
81,182,42957,1,10,1:2:0:0:
20,150,43038,5,10,1:2:0:0:
18,126,43118,1,10,1:2:0:0:
74,93,43199,5,10,1:2:0:0:
76,69,43279,1,10,1:2:0:0:
14,26,43361,5,6,1:2:0:0:
14,26,43683,1,2,0:0:0:0:
98,20,43844,1,2,0:0:0:0:
172,64,44006,1,2,0:0:0:0:
257,58,44167,1,2,0:0:0:0:
321,115,44329,1,2,0:0:0:0:
327,200,44490,1,2,0:0:0:0:
259,251,44651,6,0,L|252:308,1,42.5,6|0,1:2|0:0,0:0:0:0:
170,307,44812,2,0,L|177:364,1,42.5,6|0,1:2|0:0,0:0:0:0:
100,247,44974,2,0,L|93:190,1,42.5,6|0,1:2|0:0,0:0:0:0:
11,191,45135,2,0,L|18:134,1,42.5,6|0,1:2|0:0,0:0:0:0:
79,59,45296,5,2,1:2:0:0:
79,59,45458,2,0,L|82:124,1,42.5,2|0,0:0|0:0,0:0:0:0:
94,204,45619,1,14,0:0:0:0:
94,204,45941,6,6,L|82:308,1,85,6|0,1:2|0:0,1:2:0:0:
162,150,46264,1,10,1:2:0:0:
196,127,46344,1,0,0:0:0:0:
237,134,46425,1,0,0:0:0:0:
261,168,46505,1,0,0:0:0:0:
254,209,46587,1,2,1:2:0:0:
261,250,46667,1,0,0:0:0:0:
293,277,46748,1,0,0:0:0:0:
334,275,46828,1,0,0:0:0:0:
365,247,46909,2,0,P|370:223|368:193,3,42.5,10|0|0|0,1:2|0:0|0:0|0:0,0:0:0:0:
334,135,47232,6,0,L|331:38,1,85,2|0,1:2|0:0,0:0:0:0:
450,17,47554,1,10,1:2:0:0:
417,118,47716,1,0,0:0:0:0:
479,200,47877,2,0,L|484:307,1,85,2|0,1:2|0:0,0:0:0:0:
368,331,48200,2,0,L|363:224,1,85,10|2,1:2|1:2,0:0:0:0:
330,92,48522,6,0,P|288:81|225:106,1,85,2|0,1:2|0:0,0:0:0:0:
159,187,48845,1,10,1:2:0:0:
124,163,48925,1,0,0:0:0:0:
110,123,49006,1,0,0:0:0:0:
121,83,49086,1,0,0:0:0:0:
154,57,49167,1,2,1:2:0:0:
144,97,49247,1,0,0:0:0:0:
110,123,49328,1,0,0:0:0:0:
69,127,49408,1,0,0:0:0:0:
35,102,49490,2,0,P|32:78|34:55,3,42.5,10|0|0|0,1:2|0:0|0:0|0:0,0:0:0:0:
90,166,49812,6,0,P|93:190|91:213,3,42.5,2|0|0|0,1:2|0:0|0:0|0:0,0:0:0:0:
144,97,50135,2,0,P|141:73|143:50,3,42.5,10|0|0|0,1:2|0:0|0:0|0:0,0:0:0:0:
218,28,50458,2,0,L|321:24,1,85,2|2,1:2|1:2,0:0:0:0:
391,120,50780,2,0,L|255:114,1,127.5,14|0,1:2|0:0,0:0:0:0:
218,28,51103,1,2,1:2:0:0:
203,52,51183,1,2,1:2:0:0:
197,85,51264,1,2,1:2:0:0:
213,124,51345,1,2,1:2:0:0:
259,146,51425,6,0,L|381:138,1,85,14|0,1:2|0:0,0:0:0:0:
419,254,51748,2,0,P|424:280|416:340,1,85,2|0,1:2|0:0,0:0:0:0:
256,229,52070,2,0,P|251:203|259:143,1,85,10|0,1:2|0:0,0:0:0:0:
419,254,52393,5,2,1:2:0:0:
392,286,52473,1,0,0:0:0:0:
356,308,52554,1,0,0:0:0:0:
314,317,52634,1,0,0:0:0:0:
273,311,52716,1,10,1:2:0:0:
242,282,52796,1,0,0:0:0:0:
201,271,52877,1,0,0:0:0:0:
160,279,52957,1,0,0:0:0:0:
127,305,53038,2,0,L|119:361,3,42.5,2|0|0|0,1:2|0:0|0:0|0:0,0:0:0:0:
46,330,53361,2,0,L|38:386,3,42.5,10|0|2|0,1:2|0:0|1:2|0:0,0:0:0:0:
17,252,53683,6,0,L|24:122,1,127.5,6|0,1:2|0:0,0:0:0:0:
76,70,54006,2,0,L|167:62,1,85,10|0,1:2|0:0,0:0:0:0:
297,126,54329,2,0,L|304:256,1,127.5,6|0,1:2|0:0,0:0:0:0:
356,308,54652,2,0,L|447:316,1,85,10|0,1:2|0:0,0:0:0:0:
489,256,54974,6,0,L|494:195,1,42.5,6|0,1:2|0:0,0:0:0:0:
440,315,55135,2,0,L|435:376,1,42.5,2|0,1:2|0:0,0:0:0:0:
405,249,55296,2,0,L|410:188,1,42.5,2|0,1:2|0:0,0:0:0:0:
356,308,55457,2,0,L|351:369,1,42.5,2|0,1:2|0:0,0:0:0:0:
315,246,55619,5,2,1:2:0:0:
289,243,55699,1,0,0:0:0:0:
226,272,55780,1,2,1:2:0:0:
200,269,55860,1,0,0:0:0:0:
146,231,55941,2,0,L|55:223,1,85,2|0,1:2|0:0,0:0:0:0:
19,15,56264,6,0,L|28:127,1,85,6|0,1:2|0:0,0:0:0:0:
146,231,56587,2,0,L|138:140,1,85,10|0,1:2|0:0,0:0:0:0:
250,86,56909,1,2,1:2:0:0:
287,66,56989,1,0,0:0:0:0:
329,62,57070,1,0,0:0:0:0:
369,75,57150,1,0,0:0:0:0:
401,103,57232,1,10,1:2:0:0:
388,142,57312,1,0,0:0:0:0:
403,181,57393,1,0,0:0:0:0:
438,203,57473,1,0,0:0:0:0:
480,197,57554,6,0,L|473:258,3,42.5,2|0|0|0,1:2|0:0|0:0|0:0,0:0:0:0:
398,274,57877,2,0,L|334:267,1,42.5,10|0,1:2|0:0,0:0:0:0:
284,312,58038,2,0,L|220:319,1,42.5
191,257,58200,6,0,L|198:196,3,42.5,2|0|0|0,1:2|0:0|0:0|0:0,0:0:0:0:
274,180,58523,2,0,L|338:187,1,42.5,10|0,1:2|0:0,0:0:0:0:
388,142,58684,2,0,L|452:135,1,42.5
490,89,58845,6,0,P|496:42|487:7,1,85,2|0,1:2|0:0,0:0:0:0:
388,142,59167,2,0,P|382:189|391:224,1,85,10|0,1:2|0:0,0:0:0:0:
274,180,59490,1,2,1:2:0:0:
238,157,59570,1,0,0:0:0:0:
196,154,59651,1,0,0:0:0:0:
157,170,59731,1,0,0:0:0:0:
131,203,59812,1,10,1:2:0:0:
116,164,59892,1,0,0:0:0:0:
123,122,59973,1,0,0:0:0:0:
149,90,60053,1,0,0:0:0:0:
188,75,60135,6,0,L|249:82,3,42.5,2|0|0|0,1:2|0:0|0:0|0:0,0:0:0:0:
297,40,60458,2,0,L|358:33,3,42.5,10|0|0|0,1:2|0:0|0:0|0:0,0:0:0:0:
410,83,60780,1,2,1:2:0:0:
425,122,60860,1,0,0:0:0:0:
427,164,60941,1,0,0:0:0:0:
414,204,61022,1,0,0:0:0:0:
389,239,61103,1,10,1:2:0:0:
374,278,61183,1,0,0:0:0:0:
372,320,61264,1,0,0:0:0:0:
385,360,61344,1,0,0:0:0:0:
426,372,61425,6,0,L|439:281,1,85,6|0,1:2|0:0,0:0:0:0:
427,164,61748,1,2,1:2:0:0:
427,164,61909,1,2,1:2:0:0:
427,164,61990,1,2,1:2:0:0:
427,164,62070,6,0,L|336:151,1,85,6|0,1:2|0:0,0:0:0:0:
219,163,62393,1,2,1:2:0:0:
219,163,62554,1,2,1:2:0:0:
219,163,62635,1,2,1:2:0:0:
219,163,62716,6,0,L|206:254,1,85,6|0,1:2|0:0,0:0:0:0:
218,371,63039,1,2,1:2:0:0:
218,371,63200,1,2,1:2:0:0:
218,371,63281,1,2,1:2:0:0:
218,371,63361,6,0,L|127:358,1,85,6|0,1:2|0:0,0:0:0:0:
10,370,63684,1,2,1:2:0:0:
10,370,63845,1,2,1:2:0:0:
10,370,63926,1,2,1:2:0:0:
10,370,64006,5,6,1:2:0:0:
17,347,64087,2,0,P|22:323|19:302,1,42.5
90,252,64248,1,2,1:2:0:0:
97,275,64329,2,0,P|102:299|99:320,1,42.5
177,370,64490,2,0,P|182:346|179:325,1,42.5,2|0,1:2|0:0,0:0:0:0:
261,256,64651,5,6,1:2:0:0:
268,279,64732,2,0,P|273:303|270:324,1,42.5
341,374,64893,1,2,1:2:0:0:
348,351,64974,2,0,P|353:327|350:306,1,42.5
428,256,65135,2,0,P|433:280|430:301,1,42.5,2|0,1:2|0:0,0:0:0:0:
495,370,65296,6,0,L|499:315,1,42.5,6|0,1:2|0:0,0:0:0:0:
428,256,65458,2,0,L|432:201,1,42.5,2|0,1:2|0:0,0:0:0:0:
499,173,65619,2,0,L|503:118,1,42.5,6|0,1:2|0:0,0:0:0:0:
432,59,65781,2,0,L|436:4,1,42.5,2|0,1:2|0:0,0:0:0:0:
346,52,65941,5,2,1:2:0:0:
306,33,66022,1,2,1:2:0:0:
263,25,66102,1,2,1:2:0:0:
220,29,66183,1,2,1:2:0:0:
168,83,66264,5,2,1:2:0:0:
208,102,66345,1,2,1:2:0:0:
251,110,66425,1,2,1:2:0:0:
294,106,66506,1,2,1:2:0:0:
346,52,66587,5,4,1:0:0:0:
52,69,68522,5,0,0:0:0:0:
117,29,68683,1,0,0:0:0:0:
193,17,68845,1,0,0:0:0:0:
267,35,69006,1,0,0:0:0:0:
336,66,69167,6,0,B|320:112|320:112|348:152|334:213|334:213|313:177|282:157|229:176,1,255.000009727478,2|0,0:0|0:0,0:0:0:0:
236,81,69974,2,0,L|224:15,2,63.7500024318696
251,170,70458,2,0,B|215:186|179:136|179:136|153:170|171:212|144:261|144:261|135:211,1,255.000009727478,2|0,0:0|0:0,0:0:0:0:
83,308,71264,2,0,L|71:374,2,63.7500024318696
138,224,71748,5,2,0:0:0:0:
218,203,71909,1,0,0:0:0:0:
296,230,72070,1,0,0:0:0:0:
376,209,72231,1,0,0:0:0:0:
397,297,72393,2,0,L|323:305,1,63.7500024318696
263,361,72716,2,0,L|189:369,1,63.7500024318696
83,308,73038,2,0,B|116:284|159:274|196:295|196:295|237:271|256:233|227:194|174:220|195:285,1,255.000009727478,2|0,0:0|0:0,0:0:0:0:
167,161,73845,2,0,L|155:95,2,63.7500024318696
191,249,74329,6,2,B|257:268|257:268|378:242|378:242|460:268,1,255.000009727478,2|0,0:0|0:0,0:0:0:0:
506,305,75135,2,0,L|494:371,2,63.7500024318696
437,260,75619,2,0,B|445:219|434:186|403:176|403:176|380:188|365:215|352:239|352:239|322:236|312:210|308:185|332:162,1,255.000009727478,2|0,0:0|0:0,0:0:0:0:
292,99,76425,2,0,L|280:33,2,63.7500024318696
252,167,76909,5,2,0:0:0:0:
187,207,77070,1,0,0:0:0:0:
111,219,77232,1,0,0:0:0:0:
37,201,77393,1,0,0:0:0:0:
85,126,77554,5,2,0:0:0:0:
125,191,77715,1,0,0:0:0:0:
137,267,77877,1,0,0:0:0:0:
119,341,78038,1,0,0:0:0:0:
37,201,78200,5,2,0:0:0:0:
256,192,78280,12,14,79167,0:0:0:0:
457,136,79490,5,14,1:2:0:0:
423,136,79570,1,0,0:0:0:0:
389,137,79651,1,0,0:0:0:0:
355,138,79731,1,0,0:0:0:0:
321,139,79812,1,10,1:2:0:0:
222,229,79974,5,0,0:0:0:0:
256,229,80054,1,0,0:0:0:0:
290,228,80135,1,10,1:2:0:0:
324,227,80215,1,0,0:0:0:0:
358,226,80296,2,0,L|414:215,1,42.5
321,139,80458,1,10,1:2:0:0:
286,115,80538,1,0,0:0:0:0:
244,108,80619,2,0,L|225:155,1,42.5
152,275,80780,5,10,1:2:0:0:
152,241,80860,1,0,0:0:0:0:
153,207,80941,1,0,0:0:0:0:
154,173,81021,1,0,0:0:0:0:
155,139,81102,1,10,1:2:0:0:
245,40,81264,5,0,0:0:0:0:
245,74,81344,1,0,0:0:0:0:
244,108,81425,1,10,1:2:0:0:
243,142,81505,1,0,0:0:0:0:
242,176,81587,2,0,L|235:235,1,42.5
135,192,81748,1,10,1:2:0:0:
111,157,81828,1,0,0:0:0:0:
104,115,81909,1,0,0:0:0:0:
107,73,81990,1,0,0:0:0:0:
120,33,82070,6,0,L|239:27,1,85,10|0,1:2|0:0,0:0:0:0:
259,82,82312,2,0,L|140:76,1,85
104,115,82554,2,0,L|223:109,1,85
262,163,82796,2,0,L|143:157,1,85
104,115,83038,1,10,1:2:0:0:
259,82,83200,1,0,0:0:0:0:
288,87,83280,1,0,0:0:0:0:
316,118,83361,6,0,L|197:112,1,85,10|0,1:2|0:0,0:0:0:0:
177,167,83603,2,0,L|296:161,1,85
332,200,83845,2,0,L|213:194,1,85
174,248,84087,2,0,L|293:242,1,85
332,200,84329,1,10,1:2:0:0:
177,167,84491,1,0,0:0:0:0:
148,172,84571,1,0,0:0:0:0:
118,188,84651,6,0,L|112:254,1,42.5,14|0,1:2|0:0,0:0:0:0:
62,286,84812,2,0,L|56:352,1,42.5,2|0,1:2|0:0,0:0:0:0:
119,377,84974,1,10,1:2:0:0:
256,272,85135,2,0,L|322:278,1,42.5,2|0,1:2|0:0,0:0:0:0:
394,188,85296,6,0,L|400:254,1,42.5,14|0,1:2|0:0,0:0:0:0:
450,286,85457,2,0,L|456:352,1,42.5,2|0,1:2|0:0,0:0:0:0:
393,377,85619,1,10,1:2:0:0:
256,272,85780,2,0,L|190:278,1,42.5,2|0,1:2|0:0,0:0:0:0:
121,230,85941,6,0,L|115:164,1,42.5,14|0,1:2|0:0,0:0:0:0:
65,132,86102,2,0,L|59:66,1,42.5,2|0,1:2|0:0,0:0:0:0:
122,41,86264,1,10,1:2:0:0:
259,146,86425,2,0,L|325:140,1,42.5,2|0,1:2|0:0,0:0:0:0:
397,230,86586,6,0,L|403:164,1,42.5,14|0,1:2|0:0,0:0:0:0:
452,130,86748,2,0,L|458:64,1,42.5,2|0,1:2|0:0,0:0:0:0:
396,41,86909,1,10,1:2:0:0:
259,146,87070,2,0,L|193:140,1,42.5,2|0,1:2|0:0,0:0:0:0:
122,41,87232,5,14,1:2:0:0:
100,76,87312,1,0,0:0:0:0:
96,118,87393,1,10,1:2:0:0:
113,157,87473,1,0,0:0:0:0:
150,179,87554,1,10,1:2:0:0:
171,214,87634,1,0,0:0:0:0:
175,256,87715,1,10,1:2:0:0:
158,295,87795,1,0,0:0:0:0:
117,307,87877,2,0,L|66:300,3,42.5,10|2|10|2,1:2|1:2|1:2|1:2,0:0:0:0:
175,256,88200,6,0,L|203:251,1,21.25,10|10,1:2|1:2,0:0:0:0:
201,279,88280,2,0,L|226:265,1,21.25,2|2,1:2|1:2,0:0:0:0:
235,293,88361,2,0,L|253:271,1,21.25,2|2,1:2|1:2,0:0:0:0:
270,294,88441,2,0,L|280:267,1,21.25,2|2,1:2|1:2,0:0:0:0:
304,283,88522,5,2,1:2:0:0:
332,261,88845,5,2,0:0:0:0:
351,230,89167,5,2,0:0:0:0:
354,222,89248,5,2,0:0:0:0:
356,213,89329,5,2,0:0:0:0:
358,204,89409,5,2,0:0:0:0:
358,195,89490,5,2,0:0:0:0:
358,195,89813,5,6,1:2:0:0:
321,213,89892,1,0,0:0:0:0:
282,198,89973,1,0,0:0:0:0:
268,160,90053,1,0,0:0:0:0:
287,123,90134,1,10,1:2:0:0:
424,256,90296,1,2,0:0:0:0:
422,285,90376,1,2,0:0:0:0:
308,275,90538,1,2,0:0:0:0:
310,304,90618,1,2,0:0:0:0:
312,334,90700,1,2,0:0:0:0:
314,363,90780,2,0,L|260:357,1,42.5,10|0,1:2|0:0,0:0:0:0:
195,325,90941,2,0,L|141:331,1,42.5,2|0,0:0|0:0,0:0:0:0:
82,279,91103,5,2,1:2:0:0:
99,240,91183,1,0,0:0:0:0:
104,198,91264,1,0,0:0:0:0:
96,156,91344,1,0,0:0:0:0:
76,119,91425,1,10,1:2:0:0:
184,42,91587,1,2,0:0:0:0:
213,38,91667,1,2,0:0:0:0:
316,127,91829,1,2,0:0:0:0:
287,123,91909,1,2,0:0:0:0:
258,119,91990,1,2,0:0:0:0:
229,114,92070,2,0,P|222:135|225:161,1,42.5,10|0,1:2|0:0,0:0:0:0:
277,252,92232,2,0,P|284:231|281:205,1,42.5,2|0,0:0|0:0,0:0:0:0:
229,114,92393,6,0,B|187:100|187:100|121:116,1,85,2|0,1:2|0:0,0:0:0:0:
20,172,92635,2,0,B|62:186|62:186|128:170,1,85,2|0,0:0|0:0,0:0:0:0:
229,246,92877,2,0,B|187:232|187:232|121:248,1,85,2|0,0:0|0:0,0:0:0:0:
20,304,93119,2,0,B|62:318|62:318|128:302,1,85,2|0,0:0|0:0,0:0:0:0:
147,241,93361,1,10,1:2:0:0:
175,362,93522,2,0,L|233:379,1,42.5,0|2,0:0|0:0,0:0:0:0:
287,317,93683,6,0,B|329:331|329:331|395:315,1,85,2|0,1:2|0:0,0:0:0:0:
496,259,93925,2,0,B|454:245|454:245|388:261,1,85,2|0,0:0|0:0,0:0:0:0:
287,185,94167,2,0,B|329:199|329:199|395:183,1,85,2|0,0:0|0:0,0:0:0:0:
496,127,94409,2,0,B|454:113|454:113|388:129,1,85,2|0,0:0|0:0,0:0:0:0:
369,190,94651,1,10,1:2:0:0:
352,64,94812,1,10,1:2:0:0:
496,127,94974,5,6,1:2:0:0:
463,153,95054,1,0,0:0:0:0:
451,193,95135,1,0,0:0:0:0:
463,233,95215,1,0,0:0:0:0:
496,259,95296,1,10,1:2:0:0:
369,190,95458,1,0,0:0:0:0:
346,186,95538,1,2,0:0:0:0:
236,260,95700,1,0,0:0:0:0:
259,256,95780,1,2,0:0:0:0:
282,252,95861,1,0,0:0:0:0:
305,248,95941,2,0,L|310:312,1,42.5,10|0,1:2|0:0,0:0:0:0:
385,362,96103,2,0,L|380:298,1,42.5,2|0,0:0|0:0,0:0:0:0:
305,248,96264,5,6,1:2:0:0:
272,222,96344,1,0,0:0:0:0:
260,182,96425,1,0,0:0:0:0:
272,142,96505,1,0,0:0:0:0:
305,116,96586,1,10,1:2:0:0:
178,185,96748,1,0,0:0:0:0:
155,189,96828,1,2,0:0:0:0:
45,115,96990,1,0,0:0:0:0:
68,119,97070,1,2,0:0:0:0:
91,123,97151,1,0,0:0:0:0:
114,127,97231,2,0,L|119:63,1,42.5,10|0,1:2|0:0,0:0:0:0:
194,13,97393,2,0,L|189:77,1,42.5,2|0,0:0|0:0,0:0:0:0:
114,127,97554,6,0,P|109:167|145:219,1,85,6|0,1:2|0:0,0:0:0:0:
181,81,97796,2,0,P|196:118|253:145,1,85,2|0,1:2|0:0,0:0:0:0:
232,22,98038,2,0,P|248:34|279:31,1,42.5,2|0,1:2|0:0,0:0:0:0:
342,56,98200,5,6,1:2:0:0:
375,54,98280,1,2,1:2:0:0:
409,53,98361,1,2,1:2:0:0:
443,52,98441,1,2,1:2:0:0:
470,105,98522,5,2,1:2:0:0:
437,103,98602,1,2,1:2:0:0:
403,102,98683,2,0,L|397:137,3,21.25,2|2|2|2,1:2|1:2|1:2|1:2,0:0:0:0:
399,122,99006,6,0,L|387:253,1,127.500004863739,2|0,1:2|0:0,0:0:0:0:
311,293,99248,2,0,L|322:161,1,127.500004863739,2|0,1:2|0:0,0:0:0:0:
253,127,99490,2,0,L|241:258,1,127.500004863739,2|0,1:2|0:0,0:0:0:0:
262,298,99732,1,2,1:2:0:0:
301,326,99812,1,14,0:0:0:0:
301,326,100135,6,0,L|359:321,1,42.5,2|0,1:2|0:0,0:0:0:0:
452,350,100296,2,0,L|394:355,1,42.5,2|0,0:0|0:0,0:0:0:0:
400,263,100458,1,10,1:2:0:0:
262,298,100619,1,2,0:0:0:0:
238,295,100699,1,2,0:0:0:0:
111,350,100861,1,2,0:0:0:0:
135,347,100941,1,2,0:0:0:0:
159,345,101022,1,2,0:0:0:0:
183,341,101103,1,10,1:2:0:0:
192,300,101183,1,0,0:0:0:0:
175,262,101264,1,0,0:0:0:0:
137,243,101344,1,0,0:0:0:0:
96,252,101425,6,0,L|91:196,1,42.5,2|0,1:2|0:0,0:0:0:0:
36,150,101587,2,0,L|33:108,1,42.5
87,44,101748,1,10,1:2:0:0:
187,120,101909,1,2,0:0:0:0:
210,118,101989,1,2,0:0:0:0:
349,173,102151,1,2,0:0:0:0:
325,170,102231,1,2,0:0:0:0:
301,167,102312,1,2,0:0:0:0:
277,163,102393,1,10,1:2:0:0:
267,122,102473,1,0,0:0:0:0:
284,84,102554,1,0,0:0:0:0:
322,65,102634,1,0,0:0:0:0:
365,66,102716,6,0,B|408:75|408:75|438:42,1,85,2|0,1:2|0:0,0:0:0:0:
494,152,102958,2,0,B|451:143|451:143|421:176,1,85,2|0,0:0|0:0,0:0:0:0:
349,173,103200,2,0,B|306:182|306:182|276:149,1,85,2|0,0:0|0:0,0:0:0:0:
220,259,103442,2,0,B|263:250|263:250|293:283,1,85,2|0,0:0|0:0,0:0:0:0:
322,355,103683,1,10,1:2:0:0:
220,259,103845,2,0,L|207:193,1,42.5
192,336,104006,6,0,B|149:327|149:327|119:360,1,85,2|0,1:2|0:0,0:0:0:0:
63,250,104248,2,0,B|106:259|106:259|136:226,1,85,2|0,0:0|0:0,0:0:0:0:
208,229,104490,2,0,B|251:220|251:220|281:253,1,85,2|0,0:0|0:0,0:0:0:0:
337,143,104732,2,0,B|294:152|294:152|264:119,1,85,2|0,0:0|0:0,0:0:0:0:
235,47,104973,1,10,1:2:0:0:
373,25,105135,1,2,1:2:0:0:
337,143,105296,5,14,1:2:0:0:
334,174,105376,1,0,0:0:0:0:
331,206,105457,1,0,0:0:0:0:
329,238,105537,1,0,0:0:0:0:
326,270,105618,1,10,1:2:0:0:
198,357,105780,5,0,0:0:0:0:
200,325,105860,1,0,0:0:0:0:
203,293,105941,1,10,1:2:0:0:
205,261,106021,1,0,0:0:0:0:
208,229,106103,2,0,L|210:180,1,42.5
94,144,106264,5,10,1:2:0:0:
91,175,106344,1,0,0:0:0:0:
88,207,106425,1,0,0:0:0:0:
86,239,106505,1,0,0:0:0:0:
83,271,106587,6,0,L|78:324,3,42.5,14|0|0|0,1:2|0:0|0:0|0:0,0:0:0:0:
123,371,106909,1,10,1:2:0:0:
208,229,107070,6,0,L|213:176,3,42.5,0|0|10|0,0:0|0:0|1:2|0:0,0:0:0:0:
168,129,107393,1,0,0:0:0:0:
204,108,107473,1,0,0:0:0:0:
246,108,107554,1,10,1:2:0:0:
283,129,107634,1,0,0:0:0:0:
306,164,107716,2,0,L|312:215,1,42.5,2|0,1:2|0:0,0:0:0:0:
377,258,107877,6,0,L|475:254,1,85,6|0,1:2|0:0,0:0:0:0:
499,173,108119,2,0,L|401:177,1,85,2|0,1:2|0:0,0:0:0:0:
371,96,108361,2,0,L|420:94,1,42.5,2|0,1:2|0:0,0:0:0:0:
472,36,108522,1,6,1:2:0:0:
433,18,108602,1,2,1:2:0:0:
391,14,108683,1,2,1:2:0:0:
350,24,108763,1,2,1:2:0:0:
313,45,108845,1,2,1:2:0:0:
274,62,108925,1,2,1:2:0:0:
232,66,109006,1,2,1:2:0:0:
191,56,109086,1,2,1:2:0:0:
153,37,109167,6,0,P|114:26|68:43,1,85,2|0,1:2|0:0,0:0:0:0:
16,132,109409,2,0,P|55:121|101:138,1,85,2|0,1:2|0:0,0:0:0:0:
139,198,109651,2,0,B|152:240|152:240|131:303,1,85,2|0,1:2|0:0,0:0:0:0:
58,353,109893,2,0,B|45:311|45:311|66:248,1,85,2|0,1:2|0:0,0:0:0:0:
139,198,110135,2,0,B|152:240|152:240|119:342,1,127.5,2|0,1:2|0:0,0:0:0:0:
57,272,110458,5,4,1:0:0:0:
