osu file format v14

[General]
AudioFilename: P-Light - FUNKY SUMMER BEACH.mp3
AudioLeadIn: 0
PreviewTime: -1
Countdown: 0
SampleSet: Normal
StackLeniency: 0.7
Mode: 1
LetterboxInBreaks: 1
WidescreenStoryboard: 0

[Editor]
DistanceSpacing: 0.9
BeatDivisor: 4
GridSize: 4
TimelineZoom: 1

[Metadata]
Title:FUNKY SUMMER BEACH
TitleUnicode:FUNKY SUMMER BEACH
Artist:P*Light
ArtistUnicode:P*Light
Creator:goatlife
Version:Inner Oni
Source:
Tags:goatlife P*Light funky summer beach
BeatmapID:677084
BeatmapSetID:302035

[Difficulty]
HPDrainRate:5
CircleSize:5
OverallDifficulty:5
ApproachRate:5
SliderMultiplier:1.4
SliderTickRate:2

[Events]
//Background and Video events
0,0,"tropical-caribbean-beach-1366x768.jpg",0,0
//Break Periods
//Storyboard Layer 0 (Background)
//Storyboard Layer 1 (Fail)
//Storyboard Layer 2 (Pass)
//Storyboard Layer 3 (Foreground)
//Storyboard Sound Samples

[TimingPoints]
1333,342.857142857143,4,1,0,100,1,0
34247,-100,4,1,0,100,0,1
45218,-100,4,1,0,100,0,0
80875,-100,4,1,0,100,0,1
91847,-100,4,1,0,100,0,0

[HitObjects]
264,188,1333,5,0,0:0:0:0:
284,200,1504,1,0,0:0:0:0:
284,196,1590,1,0,0:0:0:0:
284,196,1675,1,0,0:0:0:0:
280,188,1847,1,0,0:0:0:0:
276,192,2018,1,8,0:0:0:0:
292,216,2190,1,0,0:0:0:0:
292,204,2361,1,8,0:0:0:0:
288,208,2533,1,8,0:0:0:0:
260,192,2704,5,0,0:0:0:0:
248,200,2875,1,0,0:0:0:0:
280,168,3047,1,8,0:0:0:0:
272,184,3218,1,8,0:0:0:0:
292,192,3390,1,0,0:0:0:0:
264,196,3561,1,0,0:0:0:0:
272,180,3733,1,8,0:0:0:0:
248,180,4075,1,8,0:0:0:0:
248,180,4161,1,8,0:0:0:0:
252,180,4247,1,8,0:0:0:0:
248,176,4333,1,8,0:0:0:0:
284,196,4418,1,8,0:0:0:0:
272,188,4590,1,0,0:0:0:0:
284,192,4761,1,8,0:0:0:0:
316,224,4933,1,0,0:0:0:0:
316,224,5018,1,0,0:0:0:0:
316,224,5104,1,0,0:0:0:0:
332,232,5275,1,8,0:0:0:0:
328,232,5447,1,4,0:0:0:0:
304,212,5704,5,4,0:0:0:0:
328,240,5961,1,0,0:0:0:0:
312,228,6133,1,8,0:0:0:0:
328,224,6304,1,0,0:0:0:0:
336,232,6475,1,8,0:0:0:0:
328,204,6647,1,0,0:0:0:0:
328,204,6733,1,0,0:0:0:0:
328,204,6818,1,0,0:0:0:0:
312,200,6990,1,0,0:0:0:0:
320,212,7075,1,8,0:0:0:0:
300,224,7161,1,0,0:0:0:0:
312,224,7333,1,0,0:0:0:0:
336,224,7504,1,8,0:0:0:0:
312,220,7675,1,0,0:0:0:0:
312,220,7761,1,0,0:0:0:0:
316,212,7847,1,8,0:0:0:0:
336,236,8018,1,0,0:0:0:0:
336,236,8190,1,4,0:0:0:0:
340,228,8533,1,4,0:0:0:0:
312,248,8875,1,8,0:0:0:0:
328,232,9047,1,0,0:0:0:0:
328,232,9133,1,0,0:0:0:0:
328,232,9218,1,0,0:0:0:0:
312,248,9390,1,8,0:0:0:0:
336,236,9561,1,0,0:0:0:0:
336,240,9818,5,0,0:0:0:0:
332,236,10075,1,0,0:0:0:0:
344,248,10247,1,8,0:0:0:0:
336,252,10590,1,0,0:0:0:0:
352,252,10761,1,8,0:0:0:0:
348,248,10933,1,0,0:0:0:0:
304,228,11275,2,0,B|668:-12|676:-16|672:-12|672:-12,1,420
316,200,12475,5,8,0:0:0:0:
304,204,12647,1,0,0:0:0:0:
296,236,12818,1,8,0:0:0:0:
316,236,12904,1,0,0:0:0:0:
324,232,13075,1,8,0:0:0:0:
324,232,13161,1,0,0:0:0:0:
312,232,13333,1,8,0:0:0:0:
292,224,13504,1,0,0:0:0:0:
292,224,13590,1,0,0:0:0:0:
276,232,13675,1,8,0:0:0:0:
276,232,13761,1,8,0:0:0:0:
276,232,13847,1,8,0:0:0:0:
284,248,14018,1,0,0:0:0:0:
288,248,14190,1,8,0:0:0:0:
288,248,14275,1,8,0:0:0:0:
296,256,14361,1,0,0:0:0:0:
288,248,14447,1,8,0:0:0:0:
288,248,14533,1,8,0:0:0:0:
272,248,14704,1,8,0:0:0:0:
260,244,14875,1,0,0:0:0:0:
260,244,15047,1,0,0:0:0:0:
272,240,15218,1,0,0:0:0:0:
272,240,15304,1,0,0:0:0:0:
292,224,15390,1,8,0:0:0:0:
256,224,15475,1,8,0:0:0:0:
264,224,15561,1,0,0:0:0:0:
260,224,15647,1,0,0:0:0:0:
304,232,15733,1,8,0:0:0:0:
272,244,15818,1,8,0:0:0:0:
292,236,15904,1,0,0:0:0:0:
264,200,15990,1,0,0:0:0:0:
304,232,16075,1,8,0:0:0:0:
272,208,16247,1,0,0:0:0:0:
284,224,16418,1,0,0:0:0:0:
280,224,16590,1,0,0:0:0:0:
264,212,16675,1,0,0:0:0:0:
316,224,16761,1,0,0:0:0:0:
264,208,16847,1,8,0:0:0:0:
296,236,16933,1,0,0:0:0:0:
296,236,17018,1,0,0:0:0:0:
288,232,17104,1,8,0:0:0:0:
284,228,17275,1,0,0:0:0:0:
292,232,17447,1,8,0:0:0:0:
284,228,17618,1,0,0:0:0:0:
288,256,17790,1,0,0:0:0:0:
300,224,17875,1,8,0:0:0:0:
300,232,17961,1,8,0:0:0:0:
276,188,18047,1,8,0:0:0:0:
272,224,18133,1,0,0:0:0:0:
300,232,18218,1,8,0:0:0:0:
300,232,18304,1,8,0:0:0:0:
288,232,18475,1,0,0:0:0:0:
276,240,18561,1,8,0:0:0:0:
276,248,18647,1,0,0:0:0:0:
288,232,18818,1,0,0:0:0:0:
300,232,18990,1,8,0:0:0:0:
268,232,19075,1,0,0:0:0:0:
268,240,19161,1,8,0:0:0:0:
272,232,19333,1,8,0:0:0:0:
292,212,19504,1,8,0:0:0:0:
272,216,19590,1,0,0:0:0:0:
276,216,19675,1,0,0:0:0:0:
276,216,19761,1,0,0:0:0:0:
272,212,19847,1,8,0:0:0:0:
272,236,19933,1,0,0:0:0:0:
288,232,20018,1,0,0:0:0:0:
288,232,20104,1,0,0:0:0:0:
296,224,20190,1,8,0:0:0:0:
280,232,20275,1,0,0:0:0:0:
276,228,20361,1,0,0:0:0:0:
292,236,20533,1,8,0:0:0:0:
292,236,20704,1,8,0:0:0:0:
276,232,20875,1,8,0:0:0:0:
284,236,20961,1,0,0:0:0:0:
296,240,21047,1,8,0:0:0:0:
276,232,21218,1,0,0:0:0:0:
276,232,21304,1,0,0:0:0:0:
276,232,21390,1,0,0:0:0:0:
288,240,21561,1,8,0:0:0:0:
284,224,21733,1,0,0:0:0:0:
288,240,21904,1,8,0:0:0:0:
284,224,22075,1,0,0:0:0:0:
288,240,22247,1,8,0:0:0:0:
264,220,22418,1,0,0:0:0:0:
288,240,22590,1,8,0:0:0:0:
288,240,22761,1,8,0:0:0:0:
288,240,22933,1,8,0:0:0:0:
288,240,23104,1,8,0:0:0:0:
288,240,23275,1,12,0:0:0:0:
292,232,23618,1,0,0:0:0:0:
292,232,23961,1,0,0:0:0:0:
292,232,24304,1,0,0:0:0:0:
292,232,24647,1,0,0:0:0:0:
292,232,24990,1,0,0:0:0:0:
292,232,25333,1,0,0:0:0:0:
272,232,25675,1,12,0:0:0:0:
272,232,26018,1,12,0:0:0:0:
292,232,26361,1,0,0:0:0:0:
292,232,26704,1,0,0:0:0:0:
288,236,27047,1,0,0:0:0:0:
272,232,27390,1,12,0:0:0:0:
272,232,27733,1,12,0:0:0:0:
272,232,28075,1,12,0:0:0:0:
240,216,28247,1,8,0:0:0:0:
272,232,28418,1,12,0:0:0:0:
240,216,28590,1,8,0:0:0:0:
264,192,28761,1,8,0:0:0:0:
264,208,28847,1,8,0:0:0:0:
264,208,28933,1,8,0:0:0:0:
264,208,29018,1,8,0:0:0:0:
264,208,29104,1,8,0:0:0:0:
264,208,29190,1,8,0:0:0:0:
264,208,29275,1,8,0:0:0:0:
264,208,29361,1,8,0:0:0:0:
264,208,29447,1,8,0:0:0:0:
264,208,29533,1,8,0:0:0:0:
264,208,29618,1,8,0:0:0:0:
264,208,29704,1,8,0:0:0:0:
264,192,29790,1,0,0:0:0:0:
288,216,30133,1,8,0:0:0:0:
320,200,30218,1,8,0:0:0:0:
320,200,30304,1,8,0:0:0:0:
320,200,30390,1,8,0:0:0:0:
320,200,30475,1,8,0:0:0:0:
320,200,30561,1,8,0:0:0:0:
320,200,30647,1,8,0:0:0:0:
320,200,30733,1,8,0:0:0:0:
288,212,30818,1,0,0:0:0:0:
312,192,30904,1,8,0:0:0:0:
268,188,30990,1,0,0:0:0:0:
288,176,31075,1,8,0:0:0:0:
264,192,31161,1,0,0:0:0:0:
288,196,31504,1,8,0:0:0:0:
260,196,31590,1,0,0:0:0:0:
264,192,31675,1,0,0:0:0:0:
264,192,31761,1,0,0:0:0:0:
288,196,31847,1,8,0:0:0:0:
264,192,31933,1,0,0:0:0:0:
264,192,32018,1,0,0:0:0:0:
264,192,32104,1,0,0:0:0:0:
288,196,32190,1,8,0:0:0:0:
264,192,32275,1,0,0:0:0:0:
264,192,32361,1,0,0:0:0:0:
264,192,32447,1,0,0:0:0:0:
288,196,32533,1,8,0:0:0:0:
260,192,32618,1,0,0:0:0:0:
260,192,32704,1,0,0:0:0:0:
260,192,32790,1,0,0:0:0:0:
280,196,32875,1,8,0:0:0:0:
296,196,33047,1,0,0:0:0:0:
284,200,33218,1,8,0:0:0:0:
304,204,33390,1,0,0:0:0:0:
288,204,33561,1,0,0:0:0:0:
288,204,33647,1,0,0:0:0:0:
288,204,33733,1,0,0:0:0:0:
292,200,33818,1,0,0:0:0:0:
296,200,33904,1,8,0:0:0:0:
268,184,34247,1,8,0:0:0:0:
272,184,34504,1,8,0:0:0:0:
260,188,34590,5,0,0:0:0:0:
268,184,34761,1,8,0:0:0:0:
260,188,34933,1,0,0:0:0:0:
272,200,35104,1,8,0:0:0:0:
272,200,35275,1,8,0:0:0:0:
272,200,35361,1,8,0:0:0:0:
268,200,35447,1,0,0:0:0:0:
280,212,35618,1,0,0:0:0:0:
288,244,35790,1,0,0:0:0:0:
268,204,35875,1,8,0:0:0:0:
272,216,36047,1,0,0:0:0:0:
252,188,36133,1,0,0:0:0:0:
280,204,36304,1,8,0:0:0:0:
280,204,36475,1,8,0:0:0:0:
280,216,36647,5,0,0:0:0:0:
284,240,36733,1,0,0:0:0:0:
272,224,36818,1,8,0:0:0:0:
276,208,36990,1,8,0:0:0:0:
300,232,37161,1,0,0:0:0:0:
272,228,37247,1,0,0:0:0:0:
312,220,37418,1,0,0:0:0:0:
312,224,37504,5,8,0:0:0:0:
300,232,37675,1,0,0:0:0:0:
300,232,37847,1,0,0:0:0:0:
308,232,38018,1,8,0:0:0:0:
308,232,38104,1,8,0:0:0:0:
312,228,38190,1,0,0:0:0:0:
288,192,38361,1,8,0:0:0:0:
292,216,38447,1,0,0:0:0:0:
292,216,38533,1,0,0:0:0:0:
288,192,38618,1,8,0:0:0:0:
292,216,38704,1,0,0:0:0:0:
292,216,38790,1,0,0:0:0:0:
288,192,38875,1,8,0:0:0:0:
260,216,38961,1,0,0:0:0:0:
288,192,39047,1,8,0:0:0:0:
260,216,39133,1,0,0:0:0:0:
288,192,39218,1,8,0:0:0:0:
260,216,39304,1,0,0:0:0:0:
288,192,39390,1,8,0:0:0:0:
292,232,39561,1,0,0:0:0:0:
276,208,39733,1,8,0:0:0:0:
276,212,39904,1,0,0:0:0:0:
276,212,39990,1,0,0:0:0:0:
288,224,40161,1,0,0:0:0:0:
312,240,40247,1,8,0:0:0:0:
272,224,40418,1,0,0:0:0:0:
272,224,40590,1,0,0:0:0:0:
300,232,40761,1,8,0:0:0:0:
296,224,40847,1,8,0:0:0:0:
316,228,40933,1,0,0:0:0:0:
284,224,41104,1,0,0:0:0:0:
296,212,41275,1,0,0:0:0:0:
292,216,41361,1,8,0:0:0:0:
296,252,41533,1,0,0:0:0:0:
312,232,41618,1,8,0:0:0:0:
312,232,41790,1,8,0:0:0:0:
312,232,41961,1,8,0:0:0:0:
304,236,42133,1,0,0:0:0:0:
304,236,42218,1,0,0:0:0:0:
296,232,42304,1,8,0:0:0:0:
288,224,42475,1,0,0:0:0:0:
284,220,42647,1,0,0:0:0:0:
284,224,42733,1,0,0:0:0:0:
308,224,42818,1,8,0:0:0:0:
280,200,42990,1,8,0:0:0:0:
288,224,43161,1,0,0:0:0:0:
312,272,43333,5,0,0:0:0:0:
272,196,43504,1,8,0:0:0:0:
272,196,43590,1,8,0:0:0:0:
284,208,43675,5,0,0:0:0:0:
288,192,43847,1,8,0:0:0:0:
292,216,43933,1,0,0:0:0:0:
292,216,44019,1,0,0:0:0:0:
288,192,44104,1,8,0:0:0:0:
292,216,44190,1,0,0:0:0:0:
292,216,44276,1,0,0:0:0:0:
288,192,44361,1,8,0:0:0:0:
260,216,44447,1,0,0:0:0:0:
288,192,44533,1,8,0:0:0:0:
260,216,44619,1,0,0:0:0:0:
288,192,44704,1,8,0:0:0:0:
260,216,44790,1,0,0:0:0:0:
288,192,44876,1,8,0:0:0:0:
260,184,45218,1,8,0:0:0:0:
236,192,45475,1,0,0:0:0:0:
264,184,45561,1,8,0:0:0:0:
252,188,45733,1,0,0:0:0:0:
264,200,45904,1,8,0:0:0:0:
264,200,46075,1,8,0:0:0:0:
264,200,46247,1,8,0:0:0:0:
252,176,46333,1,0,0:0:0:0:
248,180,46418,1,8,0:0:0:0:
268,220,46590,1,0,0:0:0:0:
264,216,46761,1,0,0:0:0:0:
264,216,46847,1,0,0:0:0:0:
240,192,46933,1,8,0:0:0:0:
280,212,47104,1,0,0:0:0:0:
248,176,47275,5,12,0:0:0:0:
264,188,47447,1,0,0:0:0:0:
248,192,47618,1,12,0:0:0:0:
248,192,47790,1,12,0:0:0:0:
288,228,47961,1,0,0:0:0:0:
264,200,48133,1,8,0:0:0:0:
268,208,48218,1,0,0:0:0:0:
268,208,48304,1,0,0:0:0:0:
268,208,48390,1,0,0:0:0:0:
280,232,48475,1,8,0:0:0:0:
268,208,48561,1,0,0:0:0:0:
268,208,48647,1,0,0:0:0:0:
268,208,48733,1,0,0:0:0:0:
280,232,48818,1,8,0:0:0:0:
268,208,48904,1,0,0:0:0:0:
268,208,48990,1,0,0:0:0:0:
264,208,49075,1,0,0:0:0:0:
256,212,49161,1,8,0:0:0:0:
248,188,49333,1,4,0:0:0:0:
248,188,49504,1,4,0:0:0:0:
248,188,49675,1,4,0:0:0:0:
248,188,49847,1,4,0:0:0:0:
248,188,50018,1,12,0:0:0:0:
236,160,50190,1,12,0:0:0:0:
248,172,50361,1,12,0:0:0:0:
232,176,50533,1,0,0:0:0:0:
240,180,50704,1,8,0:0:0:0:
232,180,50790,1,0,0:0:0:0:
248,188,50875,1,0,0:0:0:0:
248,188,50961,1,0,0:0:0:0:
248,188,51047,1,0,0:0:0:0:
248,188,51133,1,0,0:0:0:0:
248,188,51218,1,0,0:0:0:0:
248,188,51304,1,0,0:0:0:0:
248,244,51390,5,8,0:0:0:0:
248,188,51475,1,0,0:0:0:0:
248,188,51561,1,0,0:0:0:0:
248,188,51647,1,0,0:0:0:0:
248,188,51733,1,0,0:0:0:0:
248,188,51818,1,0,0:0:0:0:
248,184,51904,1,0,0:0:0:0:
248,184,51990,1,0,0:0:0:0:
244,208,52075,1,8,0:0:0:0:
248,184,52161,1,0,0:0:0:0:
248,184,52247,1,0,0:0:0:0:
248,184,52333,1,0,0:0:0:0:
248,244,52418,1,8,0:0:0:0:
248,184,52504,1,0,0:0:0:0:
248,184,52590,1,0,0:0:0:0:
248,188,52675,1,0,0:0:0:0:
264,200,52761,1,8,0:0:0:0:
248,188,52847,1,0,0:0:0:0:
248,188,52933,1,0,0:0:0:0:
248,188,53018,1,0,0:0:0:0:
264,216,53104,1,8,0:0:0:0:
248,188,53190,1,0,0:0:0:0:
248,188,53275,1,0,0:0:0:0:
248,188,53361,1,0,0:0:0:0:
264,216,53447,1,8,0:0:0:0:
248,188,53533,1,0,0:0:0:0:
264,216,53618,1,8,0:0:0:0:
248,184,53704,1,0,0:0:0:0:
264,216,53790,1,8,0:0:0:0:
248,184,53875,1,0,0:0:0:0:
264,224,53961,1,8,0:0:0:0:
248,184,54047,1,0,0:0:0:0:
264,224,54133,1,8,0:0:0:0:
248,184,54218,1,0,0:0:0:0:
236,204,54304,1,8,0:0:0:0:
248,184,54390,1,0,0:0:0:0:
240,204,54475,1,8,0:0:0:0:
248,184,54561,1,0,0:0:0:0:
240,204,54647,1,8,0:0:0:0:
248,188,54733,1,0,0:0:0:0:
244,208,54818,1,8,0:0:0:0:
240,204,54904,1,8,0:0:0:0:
244,208,54990,1,8,0:0:0:0:
244,204,55075,1,8,0:0:0:0:
244,208,55161,1,8,0:0:0:0:
244,204,55247,1,8,0:0:0:0:
244,208,55333,1,8,0:0:0:0:
244,204,55418,1,8,0:0:0:0:
244,208,55504,1,8,0:0:0:0:
256,176,55590,5,8,0:0:0:0:
256,176,55675,1,8,0:0:0:0:
256,176,55761,1,8,0:0:0:0:
256,176,55847,1,8,0:0:0:0:
256,176,55933,1,8,0:0:0:0:
232,176,56018,5,8,0:0:0:0:
260,176,56061,1,8,0:0:0:0:
260,176,56104,1,8,0:0:0:0:
260,176,56147,1,8,0:0:0:0:
260,176,56190,1,8,0:0:0:0:
256,192,56533,12,0,58761,0:0:0:0:
256,192,58933,5,0,0:0:0:0:
256,180,59275,1,8,0:0:0:0:
240,172,59447,1,8,0:0:0:0:
260,192,59618,1,0,0:0:0:0:
260,192,59790,1,0,0:0:0:0:
272,192,59961,1,8,0:0:0:0:
272,192,60133,1,8,0:0:0:0:
280,200,60304,1,0,0:0:0:0:
272,184,60647,1,8,0:0:0:0:
256,188,60990,1,0,0:0:0:0:
256,188,61161,1,0,0:0:0:0:
256,188,61333,1,0,0:0:0:0:
276,204,61675,1,0,0:0:0:0:
276,204,61847,1,0,0:0:0:0:
268,204,62018,1,8,0:0:0:0:
268,204,62190,1,8,0:0:0:0:
264,192,62361,1,0,0:0:0:0:
264,200,62533,1,0,0:0:0:0:
264,200,62704,1,8,0:0:0:0:
264,200,62875,1,8,0:0:0:0:
256,212,63047,1,0,0:0:0:0:
272,228,63390,1,0,0:0:0:0:
272,228,63561,1,0,0:0:0:0:
240,212,63733,1,8,0:0:0:0:
228,204,64075,1,0,0:0:0:0:
252,216,64418,1,0,0:0:0:0:
212,216,64590,1,8,0:0:0:0:
252,216,64761,1,0,0:0:0:0:
212,216,64933,1,8,0:0:0:0:
244,228,65104,1,8,0:0:0:0:
208,216,65447,1,8,0:0:0:0:
220,216,65618,1,8,0:0:0:0:
248,232,65790,1,0,0:0:0:0:
260,232,65961,1,8,0:0:0:0:
248,232,66133,1,0,0:0:0:0:
260,232,66304,1,8,0:0:0:0:
240,224,66475,1,0,0:0:0:0:
224,204,66818,5,8,0:0:0:0:
248,216,66990,1,8,0:0:0:0:
248,232,67161,1,8,0:0:0:0:
244,216,67333,1,0,0:0:0:0:
260,220,67504,1,8,0:0:0:0:
260,220,67675,1,8,0:0:0:0:
260,220,68018,1,8,0:0:0:0:
264,216,68361,1,0,0:0:0:0:
256,192,68533,12,0,69733,0:0:0:0:
264,216,69904,5,4,0:0:0:0:
260,224,70247,5,8,0:0:0:0:
256,224,70933,1,8,0:0:0:0:
260,200,71104,1,4,0:0:0:0:
260,200,71275,1,4,0:0:0:0:
240,200,71618,1,8,0:0:0:0:
252,208,71961,1,4,0:0:0:0:
252,208,72133,1,4,0:0:0:0:
272,208,72304,1,4,0:0:0:0:
252,208,72647,1,4,0:0:0:0:
240,240,72990,1,8,0:0:0:0:
264,212,73675,1,8,0:0:0:0:
252,208,73847,1,4,0:0:0:0:
252,208,74018,1,4,0:0:0:0:
256,220,74361,1,4,0:0:0:0:
256,220,74704,1,4,0:0:0:0:
256,220,74875,1,4,0:0:0:0:
256,220,75047,1,4,0:0:0:0:
240,212,75218,1,0,0:0:0:0:
240,212,75304,1,0,0:0:0:0:
264,212,75390,1,8,0:0:0:0:
272,252,75475,1,0,0:0:0:0:
272,252,75561,1,0,0:0:0:0:
272,252,75647,1,0,0:0:0:0:
272,252,75733,1,0,0:0:0:0:
272,252,75818,1,0,0:0:0:0:
272,252,75904,1,0,0:0:0:0:
272,252,75990,1,0,0:0:0:0:
264,212,76075,1,8,0:0:0:0:
272,252,76161,1,0,0:0:0:0:
272,252,76247,1,0,0:0:0:0:
272,252,76333,1,0,0:0:0:0:
272,252,76418,1,0,0:0:0:0:
272,252,76504,1,0,0:0:0:0:
272,252,76590,1,0,0:0:0:0:
272,252,76675,1,0,0:0:0:0:
264,212,76761,1,8,0:0:0:0:
272,252,76847,1,0,0:0:0:0:
272,252,76933,1,0,0:0:0:0:
272,252,77018,1,0,0:0:0:0:
272,252,77104,1,0,0:0:0:0:
272,252,77190,1,0,0:0:0:0:
272,256,77275,1,0,0:0:0:0:
272,256,77361,1,0,0:0:0:0:
256,216,77447,5,8,0:0:0:0:
276,256,77533,1,0,0:0:0:0:
276,256,77618,1,0,0:0:0:0:
276,256,77704,1,0,0:0:0:0:
276,256,77790,1,0,0:0:0:0:
276,256,77875,1,0,0:0:0:0:
276,256,77961,1,0,0:0:0:0:
276,256,78047,1,0,0:0:0:0:
264,212,78133,1,8,0:0:0:0:
276,256,78218,1,0,0:0:0:0:
276,256,78304,1,0,0:0:0:0:
276,256,78390,1,0,0:0:0:0:
256,216,78475,1,8,0:0:0:0:
276,256,78561,1,0,0:0:0:0:
276,256,78647,1,0,0:0:0:0:
276,256,78733,1,0,0:0:0:0:
256,216,78818,1,8,0:0:0:0:
276,256,78904,1,0,0:0:0:0:
276,256,78990,1,0,0:0:0:0:
272,256,79075,1,0,0:0:0:0:
256,216,79161,1,8,0:0:0:0:
276,256,79247,1,0,0:0:0:0:
276,256,79333,1,0,0:0:0:0:
276,256,79418,1,0,0:0:0:0:
268,208,79504,1,8,0:0:0:0:
240,232,79675,1,0,0:0:0:0:
248,232,79847,1,0,0:0:0:0:
256,192,80018,1,8,0:0:0:0:
244,220,80190,1,0,0:0:0:0:
244,220,80275,1,0,0:0:0:0:
244,220,80361,1,0,0:0:0:0:
248,220,80447,1,0,0:0:0:0:
252,192,80533,1,8,0:0:0:0:
240,200,80875,1,8,0:0:0:0:
256,216,80961,1,0,0:0:0:0:
260,220,81047,1,0,0:0:0:0:
236,216,81133,1,8,0:0:0:0:
261,220,81218,1,0,0:0:0:0:
261,220,81304,1,0,0:0:0:0:
256,232,81390,1,8,0:0:0:0:
261,220,81475,1,0,0:0:0:0:
261,220,81561,1,0,0:0:0:0:
260,248,81647,1,8,0:0:0:0:
261,220,81733,1,0,0:0:0:0:
251,217,81818,1,0,0:0:0:0:
264,248,81904,1,8,0:0:0:0:
251,217,81990,1,0,0:0:0:0:
248,240,82075,5,8,0:0:0:0:
251,217,82161,1,0,0:0:0:0:
260,236,82247,1,8,0:0:0:0:
251,217,82333,1,0,0:0:0:0:
251,217,82418,1,0,0:0:0:0:
260,236,82504,1,8,0:0:0:0:
251,217,82590,1,0,0:0:0:0:
251,217,82675,1,0,0:0:0:0:
264,240,82761,1,8,0:0:0:0:
251,217,82847,1,0,0:0:0:0:
251,217,82933,1,0,0:0:0:0:
276,248,83018,1,8,0:0:0:0:
251,217,83104,1,0,0:0:0:0:
251,217,83190,1,0,0:0:0:0:
272,248,83275,1,8,0:0:0:0:
251,217,83361,1,0,0:0:0:0:
272,248,83447,1,8,0:0:0:0:
251,217,83533,1,0,0:0:0:0:
272,248,83618,1,8,0:0:0:0:
251,217,83704,1,0,0:0:0:0:
251,217,83790,1,0,0:0:0:0:
272,248,83875,1,8,0:0:0:0:
251,217,83961,1,0,0:0:0:0:
251,217,84047,1,0,0:0:0:0:
272,248,84133,1,8,0:0:0:0:
251,217,84218,1,0,0:0:0:0:
251,217,84304,1,0,0:0:0:0:
272,248,84390,1,8,0:0:0:0:
251,217,84475,1,0,0:0:0:0:
251,217,84561,1,0,0:0:0:0:
276,248,84647,1,8,0:0:0:0:
251,217,84733,1,0,0:0:0:0:
276,248,84818,1,8,0:0:0:0:
251,217,84904,1,0,0:0:0:0:
272,248,84990,1,8,0:0:0:0:
251,217,85075,1,0,0:0:0:0:
251,217,85161,1,0,0:0:0:0:
296,272,85247,1,8,0:0:0:0:
251,217,85333,1,0,0:0:0:0:
251,217,85418,1,0,0:0:0:0:
296,272,85504,1,8,0:0:0:0:
251,217,85590,1,0,0:0:0:0:
251,217,85675,1,0,0:0:0:0:
296,272,85761,1,8,0:0:0:0:
251,217,85847,1,0,0:0:0:0:
251,217,85933,1,0,0:0:0:0:
296,272,86018,1,8,0:0:0:0:
251,217,86104,1,0,0:0:0:0:
296,272,86190,1,8,0:0:0:0:
251,217,86275,1,0,0:0:0:0:
296,272,86361,1,8,0:0:0:0:
251,217,86447,1,0,0:0:0:0:
251,217,86533,1,0,0:0:0:0:
304,272,86618,1,8,0:0:0:0:
251,217,86704,1,0,0:0:0:0:
251,217,86790,1,0,0:0:0:0:
304,272,86875,1,8,0:0:0:0:
251,217,86961,1,0,0:0:0:0:
251,217,87047,1,0,0:0:0:0:
304,272,87133,1,8,0:0:0:0:
251,217,87218,1,0,0:0:0:0:
251,217,87304,1,0,0:0:0:0:
304,272,87390,1,8,0:0:0:0:
251,217,87475,1,0,0:0:0:0:
304,272,87561,1,8,0:0:0:0:
251,217,87647,1,0,0:0:0:0:
304,272,87733,1,8,0:0:0:0:
251,217,87818,1,0,0:0:0:0:
251,217,87904,1,0,0:0:0:0:
304,272,87990,1,8,0:0:0:0:
251,217,88075,1,0,0:0:0:0:
251,217,88161,1,0,0:0:0:0:
304,272,88247,1,8,0:0:0:0:
251,217,88333,1,0,0:0:0:0:
251,217,88418,1,0,0:0:0:0:
304,272,88504,1,8,0:0:0:0:
251,217,88590,1,0,0:0:0:0:
251,217,88675,1,0,0:0:0:0:
304,272,88761,1,8,0:0:0:0:
251,217,88847,1,0,0:0:0:0:
304,272,88933,1,8,0:0:0:0:
251,217,89018,1,0,0:0:0:0:
304,272,89104,1,8,0:0:0:0:
243,211,89190,1,0,0:0:0:0:
243,211,89275,1,0,0:0:0:0:
304,272,89361,1,8,0:0:0:0:
243,211,89447,1,0,0:0:0:0:
243,211,89533,1,0,0:0:0:0:
304,272,89618,1,8,0:0:0:0:
243,211,89704,1,0,0:0:0:0:
243,211,89790,1,0,0:0:0:0:
304,272,89875,1,8,0:0:0:0:
243,211,89961,1,0,0:0:0:0:
243,211,90047,1,0,0:0:0:0:
304,272,90133,1,8,0:0:0:0:
243,211,90218,1,0,0:0:0:0:
243,211,90304,1,0,0:0:0:0:
253,189,90390,1,8,0:0:0:0:
249,206,90475,1,0,0:0:0:0:
269,252,90647,1,8,0:0:0:0:
264,240,90733,1,0,0:0:0:0:
269,252,90904,1,8,0:0:0:0:
264,240,90990,1,0,0:0:0:0:
269,252,91161,1,8,0:0:0:0:
264,240,91247,1,0,0:0:0:0:
264,240,91504,1,0,0:0:0:0:
264,240,91590,1,0,0:0:0:0:
264,240,91675,1,0,0:0:0:0:
264,240,91761,1,0,0:0:0:0:
264,217,91847,1,8,0:0:0:0:
257,219,92018,1,8,0:0:0:0:
235,219,92104,1,0,0:0:0:0:
245,223,92190,1,0,0:0:0:0:
245,223,92275,1,0,0:0:0:0:
257,219,92361,1,8,0:0:0:0:
246,223,92447,1,0,0:0:0:0:
246,223,92533,1,0,0:0:0:0:
246,223,92618,1,0,0:0:0:0:
257,219,92704,1,8,0:0:0:0:
246,223,92790,1,0,0:0:0:0:
246,223,92875,1,0,0:0:0:0:
246,223,92961,1,0,0:0:0:0:
264,217,93047,1,8,0:0:0:0:
246,223,93133,1,0,0:0:0:0:
246,223,93218,1,0,0:0:0:0:
246,223,93304,1,0,0:0:0:0:
257,219,93390,1,8,0:0:0:0:
246,223,93475,1,0,0:0:0:0:
246,223,93561,1,0,0:0:0:0:
246,223,93647,1,0,0:0:0:0:
257,219,93733,1,8,0:0:0:0:
246,223,93818,1,0,0:0:0:0:
248,219,93904,1,8,0:0:0:0:
271,213,93990,1,0,0:0:0:0:
253,218,94075,1,8,0:0:0:0:
277,214,94161,1,0,0:0:0:0:
256,217,94247,1,8,0:0:0:0:
279,214,94333,1,0,0:0:0:0:
256,217,94418,1,8,0:0:0:0:
246,223,94504,1,0,0:0:0:0:
246,223,94590,1,0,0:0:0:0:
246,223,94675,1,0,0:0:0:0:
257,219,94761,1,8,0:0:0:0:
246,223,94847,1,0,0:0:0:0:
246,223,94933,1,0,0:0:0:0:
246,223,95018,1,0,0:0:0:0:
257,219,95104,1,8,0:0:0:0:
246,223,95190,1,0,0:0:0:0:
246,223,95275,1,0,0:0:0:0:
246,223,95361,1,0,0:0:0:0:
257,219,95447,1,8,0:0:0:0:
246,223,95533,1,0,0:0:0:0:
246,223,95618,1,0,0:0:0:0:
246,223,95704,1,0,0:0:0:0:
257,219,95790,1,8,0:0:0:0:
252,216,95961,1,0,0:0:0:0:
254,223,96133,1,4,0:0:0:0:
254,223,96304,1,4,0:0:0:0:
254,223,96475,1,4,0:0:0:0:
255,210,96647,1,12,0:0:0:0:
268,229,96818,5,12,0:0:0:0:
267,227,96990,1,12,0:0:0:0:
257,219,97161,1,12,0:0:0:0:
268,204,97333,1,8,0:0:0:0:
265,226,97418,1,0,0:0:0:0:
268,226,97504,1,0,0:0:0:0:
271,226,97590,1,0,0:0:0:0:
303,221,97675,1,0,0:0:0:0:
303,221,97761,1,0,0:0:0:0:
303,221,97847,1,0,0:0:0:0:
303,221,97933,1,0,0:0:0:0:
303,221,98018,1,0,0:0:0:0:
303,221,98104,1,0,0:0:0:0:
303,221,98190,1,0,0:0:0:0:
303,221,98275,1,0,0:0:0:0:
259,229,98361,1,8,0:0:0:0:
303,221,98447,1,0,0:0:0:0:
259,229,98533,1,8,0:0:0:0:
303,221,98618,1,0,0:0:0:0:
259,229,98704,1,8,0:0:0:0:
296,212,98790,1,0,0:0:0:0:
295,212,98875,1,0,0:0:0:0:
294,212,98961,1,0,0:0:0:0:
294,212,99047,1,0,0:0:0:0:
293,212,99133,1,0,0:0:0:0:
293,212,99218,1,0,0:0:0:0:
293,212,99304,1,0,0:0:0:0:
293,212,99390,1,0,0:0:0:0:
268,233,99475,1,8,0:0:0:0:
293,212,99561,1,0,0:0:0:0:
293,212,99647,1,0,0:0:0:0:
253,239,99733,1,8,0:0:0:0:
293,212,99818,1,0,0:0:0:0:
260,214,99904,1,8,0:0:0:0:
293,212,99990,1,0,0:0:0:0:
260,214,100075,1,8,0:0:0:0:
293,212,100161,1,0,0:0:0:0:
293,212,100247,1,0,0:0:0:0:
292,212,100333,1,0,0:0:0:0:
281,232,100418,1,8,0:0:0:0:
296,212,100504,1,0,0:0:0:0:
291,212,100590,1,0,0:0:0:0:
295,212,100675,1,0,0:0:0:0:
281,232,100761,1,8,0:0:0:0:
294,212,100847,1,0,0:0:0:0:
293,212,100933,1,0,0:0:0:0:
293,212,101018,1,0,0:0:0:0:
281,232,101104,1,8,0:0:0:0:
293,212,101190,1,0,0:0:0:0:
293,212,101275,1,0,0:0:0:0:
293,212,101361,1,0,0:0:0:0:
293,230,101447,1,8,0:0:0:0:
293,230,101533,1,8,0:0:0:0:
293,230,101618,1,8,0:0:0:0:
293,230,101704,1,8,0:0:0:0:
293,229,101790,1,8,0:0:0:0:
293,229,101875,1,8,0:0:0:0:
293,229,101961,1,8,0:0:0:0:
293,229,102047,1,8,0:0:0:0:
306,251,102133,1,8,0:0:0:0:
306,251,102218,1,8,0:0:0:0:
306,251,102304,1,8,0:0:0:0:
306,251,102390,1,8,0:0:0:0:
306,251,102475,1,8,0:0:0:0:
306,224,102561,1,8,0:0:0:0:
306,224,102647,1,8,0:0:0:0:
324,223,102690,1,8,0:0:0:0:
324,223,102733,1,8,0:0:0:0:
324,223,102775,1,8,0:0:0:0:
331,218,102818,5,0,0:0:0:0:
