osu file format v14

[General]
AudioFilename: ribbon(inf).mp3
AudioLeadIn: 0
PreviewTime: 12806
Countdown: 0
SampleSet: Normal
StackLeniency: 0.7
Mode: 3
LetterboxInBreaks: 1
SpecialStyle: 0
WidescreenStoryboard: 1

[Editor]
DistanceSpacing: 0.5
BeatDivisor: 4
GridSize: 32
TimelineZoom: 2.7

[Metadata]
Title:Caramel Ribbon
TitleUnicode:Caramel Ribbon
Artist:P*Light
ArtistUnicode:P*Light
Creator:PiraTom
Version:4K INF
Source:SOUND VOLTEX BOOTH
Tags:sdvx jubeat sound voltex booth p*light
BeatmapID:659315
BeatmapSetID:146650

[Difficulty]
HPDrainRate:8
CircleSize:4
OverallDifficulty:8
ApproachRate:5
SliderMultiplier:2
SliderTickRate:1

[Events]
//Background and Video events
0,0,"bg.jpg",0,0
//Break Periods
//Storyboard Layer 0 (Background)
//Storyboard Layer 1 (Fail)
//Storyboard Layer 2 (Pass)
//Storyboard Layer 3 (Foreground)
//Storyboard Sound Samples

[TimingPoints]
635,342.857142857143,4,1,0,0,1,0

[HitObjects]
64,192,635,5,0,0:0:0:0:
320,192,635,1,0,0:0:0:0:
448,192,720,1,0,0:0:0:0:
192,192,720,1,0,0:0:0:0:
192,192,892,1,0,0:0:0:0:
448,192,892,1,0,0:0:0:0:
64,192,977,1,0,0:0:0:0:
320,192,977,1,0,0:0:0:0:
64,192,1149,1,0,0:0:0:0:
320,192,1149,1,0,0:0:0:0:
192,192,1235,1,0,0:0:0:0:
448,192,1235,1,0,0:0:0:0:
320,192,1320,1,0,0:0:0:0:
192,192,1406,1,0,0:0:0:0:
64,192,1492,1,0,0:0:0:0:
320,192,1577,1,0,0:0:0:0:
192,192,1663,1,0,0:0:0:0:
64,192,1663,1,0,0:0:0:0:
448,192,1663,1,0,0:0:0:0:
320,192,1749,1,0,0:0:0:0:
192,192,1835,1,0,0:0:0:0:
64,192,1920,1,0,0:0:0:0:
448,192,2006,1,0,0:0:0:0:
320,192,2006,1,0,0:0:0:0:
320,192,2349,1,0,0:0:0:0:
64,192,2349,1,0,0:0:0:0:
192,192,2520,1,0,0:0:0:0:
320,192,2692,1,0,0:0:0:0:
64,192,2692,1,0,0:0:0:0:
192,192,3035,1,0,0:0:0:0:
448,192,3035,1,0,0:0:0:0:
64,192,3377,1,0,0:0:0:0:
448,192,3377,1,0,0:0:0:0:
320,192,3549,1,0,0:0:0:0:
448,192,3549,1,0,0:0:0:0:
64,192,3720,1,0,0:0:0:0:
320,192,3720,1,0,0:0:0:0:
64,192,3892,1,0,0:0:0:0:
192,192,3892,1,0,0:0:0:0:
192,192,4063,1,0,0:0:0:0:
448,192,4063,1,0,0:0:0:0:
64,192,4235,1,0,0:0:0:0:
320,192,4235,1,0,0:0:0:0:
320,192,4406,1,0,0:0:0:0:
64,192,4406,1,0,0:0:0:0:
320,192,4577,1,0,0:0:0:0:
64,192,4577,1,0,0:0:0:0:
448,192,4749,1,0,0:0:0:0:
64,192,4749,1,0,0:0:0:0:
192,192,4749,1,0,0:0:0:0:
64,192,5092,1,0,0:0:0:0:
320,192,5092,1,0,0:0:0:0:
448,192,5263,1,0,0:0:0:0:
320,192,5435,1,0,0:0:0:0:
192,192,5435,1,0,0:0:0:0:
64,192,5606,1,0,0:0:0:0:
320,192,5777,1,0,0:0:0:0:
448,192,5777,1,0,0:0:0:0:
192,192,5949,1,0,0:0:0:0:
320,192,6120,1,0,0:0:0:0:
64,192,6120,128,0,6463:0:0:0:0:
448,192,6463,1,0,0:0:0:0:
192,192,6463,128,0,6806:0:0:0:0:
320,192,6806,128,0,6977:0:0:0:0:
64,192,6806,1,0,0:0:0:0:
192,192,6977,1,0,0:0:0:0:
320,192,7063,1,0,0:0:0:0:
448,192,7149,128,0,7406:0:0:0:0:
64,192,7149,128,0,7320:0:0:0:0:
192,192,7149,128,0,7235:0:0:0:0:
320,192,7320,128,0,7406:0:0:0:0:
192,192,7320,128,0,7406:0:0:0:0:
64,192,7492,1,0,0:0:0:0:
192,192,7492,1,0,0:0:0:0:
448,192,7492,1,0,0:0:0:0:
320,192,7663,1,0,0:0:0:0:
64,192,7835,1,0,0:0:0:0:
448,192,7835,1,0,0:0:0:0:
192,192,8006,1,0,0:0:0:0:
64,192,8177,1,0,0:0:0:0:
448,192,8177,1,0,0:0:0:0:
448,192,8349,1,0,0:0:0:0:
192,192,8349,1,0,0:0:0:0:
64,192,8520,1,0,0:0:0:0:
192,192,8520,1,0,0:0:0:0:
320,192,8520,1,0,0:0:0:0:
448,192,8692,1,0,0:0:0:0:
320,192,8692,1,0,0:0:0:0:
64,192,8863,1,0,0:0:0:0:
320,192,8863,1,0,0:0:0:0:
192,192,9035,1,0,0:0:0:0:
64,192,9206,1,0,0:0:0:0:
320,192,9206,1,0,0:0:0:0:
192,192,9377,1,0,0:0:0:0:
320,192,9549,1,0,0:0:0:0:
192,192,9720,1,0,0:0:0:0:
448,192,9720,1,0,0:0:0:0:
192,192,9892,1,0,0:0:0:0:
448,192,9892,1,0,0:0:0:0:
192,192,10063,1,0,0:0:0:0:
448,192,10063,1,0,0:0:0:0:
448,192,10235,1,0,0:0:0:0:
320,192,10235,128,0,10320:0:0:0:0:
192,192,10406,128,0,10492:0:0:0:0:
64,192,10406,1,0,0:0:0:0:
320,192,10577,128,0,10663:0:0:0:0:
448,192,10577,1,0,0:0:0:0:
192,192,10749,128,0,10835:0:0:0:0:
64,192,10749,1,0,0:0:0:0:
320,192,10920,1,0,0:0:0:0:
448,192,10920,1,0,0:0:0:0:
64,192,11006,1,0,0:0:0:0:
192,192,11006,1,0,0:0:0:0:
448,192,11092,1,0,0:0:0:0:
320,192,11092,1,0,0:0:0:0:
192,192,11177,1,0,0:0:0:0:
320,192,11263,1,0,0:0:0:0:
64,192,11263,1,0,0:0:0:0:
192,192,11349,1,0,0:0:0:0:
448,192,11349,1,0,0:0:0:0:
64,192,11435,1,0,0:0:0:0:
320,192,11435,1,0,0:0:0:0:
448,192,11520,1,0,0:0:0:0:
64,192,11606,128,0,12292:0:0:0:0:
192,192,11606,1,0,0:0:0:0:
320,192,11606,1,0,0:0:0:0:
192,192,11949,1,0,0:0:0:0:
320,192,11949,1,0,0:0:0:0:
192,192,12292,1,0,0:0:0:0:
320,192,12292,1,0,0:0:0:0:
64,192,12635,1,0,0:0:0:0:
192,192,12635,1,0,0:0:0:0:
448,192,12635,1,0,0:0:0:0:
320,192,12720,1,0,0:0:0:0:
192,192,12806,1,0,0:0:0:0:
64,192,12892,1,0,0:0:0:0:
448,192,12977,1,0,0:0:0:0:
320,192,12977,1,0,0:0:0:0:
192,192,13149,1,0,0:0:0:0:
320,192,13149,1,0,0:0:0:0:
64,192,13235,1,0,0:0:0:0:
320,192,13320,1,0,0:0:0:0:
448,192,13320,1,0,0:0:0:0:
192,192,13406,1,0,0:0:0:0:
320,192,13492,1,0,0:0:0:0:
448,192,13663,1,0,0:0:0:0:
192,192,13663,1,0,0:0:0:0:
320,192,13835,1,0,0:0:0:0:
448,192,13835,1,0,0:0:0:0:
64,192,13920,1,0,0:0:0:0:
448,192,14006,1,0,0:0:0:0:
192,192,14006,1,0,0:0:0:0:
320,192,14092,1,0,0:0:0:0:
64,192,14177,1,0,0:0:0:0:
448,192,14349,1,0,0:0:0:0:
320,192,14349,1,0,0:0:0:0:
64,192,14520,1,0,0:0:0:0:
448,192,14520,1,0,0:0:0:0:
192,192,14606,1,0,0:0:0:0:
64,192,14692,1,0,0:0:0:0:
320,192,14692,1,0,0:0:0:0:
448,192,14777,1,0,0:0:0:0:
320,192,14863,1,0,0:0:0:0:
320,192,15035,1,0,0:0:0:0:
64,192,15035,1,0,0:0:0:0:
448,192,15035,1,0,0:0:0:0:
192,192,15206,1,0,0:0:0:0:
448,192,15206,1,0,0:0:0:0:
64,192,15292,1,0,0:0:0:0:
320,192,15377,1,0,0:0:0:0:
448,192,15377,1,0,0:0:0:0:
192,192,15463,1,0,0:0:0:0:
64,192,15549,1,0,0:0:0:0:
320,192,15720,1,0,0:0:0:0:
192,192,15720,1,0,0:0:0:0:
448,192,15720,1,0,0:0:0:0:
320,192,15892,1,0,0:0:0:0:
192,192,16063,1,0,0:0:0:0:
448,192,16063,1,0,0:0:0:0:
64,192,16063,128,0,16235:0:0:0:0:
320,192,16235,1,0,0:0:0:0:
320,192,16406,1,0,0:0:0:0:
192,192,16406,1,0,0:0:0:0:
448,192,16577,1,0,0:0:0:0:
64,192,16577,1,0,0:0:0:0:
320,192,16663,1,0,0:0:0:0:
64,192,16749,1,0,0:0:0:0:
448,192,16749,128,0,16920:0:0:0:0:
192,192,16749,1,0,0:0:0:0:
320,192,16835,1,0,0:0:0:0:
192,192,16920,1,0,0:0:0:0:
64,192,17092,1,0,0:0:0:0:
448,192,17092,1,0,0:0:0:0:
320,192,17263,1,0,0:0:0:0:
64,192,17435,128,0,17520:0:0:0:0:
192,192,17435,1,0,0:0:0:0:
448,192,17435,1,0,0:0:0:0:
192,192,17606,128,0,18035:0:0:0:0:
320,192,17606,128,0,18035:0:0:0:0:
64,192,18120,1,0,0:0:0:0:
448,192,18120,128,0,18463:0:0:0:0:
320,192,18120,1,0,0:0:0:0:
192,192,18206,1,0,0:0:0:0:
320,192,18292,1,0,0:0:0:0:
64,192,18377,1,0,0:0:0:0:
320,192,18463,1,0,0:0:0:0:
192,192,18463,1,0,0:0:0:0:
448,192,18635,1,0,0:0:0:0:
320,192,18720,1,0,0:0:0:0:
64,192,18806,1,0,0:0:0:0:
192,192,18806,1,0,0:0:0:0:
448,192,18892,1,0,0:0:0:0:
64,192,18977,1,0,0:0:0:0:
192,192,19149,1,0,0:0:0:0:
320,192,19149,1,0,0:0:0:0:
64,192,19320,1,0,0:0:0:0:
448,192,19320,1,0,0:0:0:0:
320,192,19406,1,0,0:0:0:0:
192,192,19492,1,0,0:0:0:0:
448,192,19492,1,0,0:0:0:0:
64,192,19577,1,0,0:0:0:0:
320,192,19663,1,0,0:0:0:0:
64,192,19835,1,0,0:0:0:0:
320,192,19835,1,0,0:0:0:0:
320,192,20006,1,0,0:0:0:0:
448,192,20006,1,0,0:0:0:0:
192,192,20092,1,0,0:0:0:0:
64,192,20177,1,0,0:0:0:0:
448,192,20177,1,0,0:0:0:0:
192,192,20263,1,0,0:0:0:0:
448,192,20349,1,0,0:0:0:0:
64,192,20520,1,0,0:0:0:0:
320,192,20520,1,0,0:0:0:0:
192,192,20520,1,0,0:0:0:0:
192,192,20692,1,0,0:0:0:0:
448,192,20692,1,0,0:0:0:0:
64,192,20777,1,0,0:0:0:0:
192,192,20863,1,0,0:0:0:0:
320,192,20863,1,0,0:0:0:0:
448,192,20949,1,0,0:0:0:0:
64,192,21035,1,0,0:0:0:0:
320,192,21206,1,0,0:0:0:0:
448,192,21206,1,0,0:0:0:0:
64,192,21377,1,0,0:0:0:0:
192,192,21463,1,0,0:0:0:0:
448,192,21549,128,0,21720:0:0:0:0:
64,192,21549,1,0,0:0:0:0:
320,192,21549,1,0,0:0:0:0:
192,192,21635,1,0,0:0:0:0:
320,192,21720,1,0,0:0:0:0:
64,192,21892,1,0,0:0:0:0:
448,192,21892,1,0,0:0:0:0:
192,192,22063,1,0,0:0:0:0:
448,192,22149,1,0,0:0:0:0:
64,192,22235,128,0,22406:0:0:0:0:
192,192,22235,1,0,0:0:0:0:
320,192,22235,1,0,0:0:0:0:
448,192,22320,1,0,0:0:0:0:
320,192,22406,1,0,0:0:0:0:
192,192,22577,1,0,0:0:0:0:
448,192,22577,1,0,0:0:0:0:
64,192,22749,1,0,0:0:0:0:
320,192,22749,1,0,0:0:0:0:
320,192,22920,1,0,0:0:0:0:
448,192,22920,1,0,0:0:0:0:
192,192,23006,1,0,0:0:0:0:
64,192,23006,1,0,0:0:0:0:
320,192,23092,1,0,0:0:0:0:
448,192,23177,1,0,0:0:0:0:
192,192,23263,1,0,0:0:0:0:
320,192,23349,1,0,0:0:0:0:
192,192,23435,1,0,0:0:0:0:
64,192,23520,1,0,0:0:0:0:
192,192,23606,1,0,0:0:0:0:
320,192,23606,1,0,0:0:0:0:
448,192,23606,1,0,0:0:0:0:
448,192,23692,1,0,0:0:0:0:
320,192,23777,1,0,0:0:0:0:
192,192,23777,1,0,0:0:0:0:
64,192,23777,1,0,0:0:0:0:
64,192,23863,1,0,0:0:0:0:
192,192,23949,1,0,0:0:0:0:
448,192,23949,1,0,0:0:0:0:
320,192,23949,1,0,0:0:0:0:
192,192,24120,1,0,0:0:0:0:
320,192,24292,128,0,24463:0:0:0:0:
448,192,24292,1,0,0:0:0:0:
64,192,24292,1,0,0:0:0:0:
192,192,24463,128,0,24635:0:0:0:0:
448,192,24635,128,0,24977:0:0:0:0:
64,192,24635,1,0,0:0:0:0:
192,192,24806,1,0,0:0:0:0:
320,192,24977,128,0,25320:0:0:0:0:
64,192,24977,1,0,0:0:0:0:
192,192,25063,1,0,0:0:0:0:
448,192,25149,1,0,0:0:0:0:
64,192,25235,1,0,0:0:0:0:
192,192,25320,128,0,25492:0:0:0:0:
448,192,25320,128,0,25663:0:0:0:0:
64,192,25492,128,0,25663:0:0:0:0:
192,192,25663,128,0,26006:0:0:0:0:
320,192,25663,128,0,25835:0:0:0:0:
448,192,25835,128,0,26006:0:0:0:0:
64,192,26006,128,0,26349:0:0:0:0:
320,192,26006,1,0,0:0:0:0:
448,192,26177,1,0,0:0:0:0:
192,192,26349,128,0,26692:0:0:0:0:
320,192,26349,1,0,0:0:0:0:
448,192,26435,1,0,0:0:0:0:
320,192,26520,1,0,0:0:0:0:
448,192,26606,1,0,0:0:0:0:
64,192,26692,1,0,0:0:0:0:
320,192,26692,1,0,0:0:0:0:
192,192,26863,1,0,0:0:0:0:
192,192,27035,128,0,27206:0:0:0:0:
448,192,27035,1,0,0:0:0:0:
64,192,27035,1,0,0:0:0:0:
320,192,27206,128,0,27377:0:0:0:0:
192,192,27377,1,0,0:0:0:0:
448,192,27377,1,0,0:0:0:0:
64,192,27377,128,0,27463:0:0:0:0:
320,192,27549,1,0,0:0:0:0:
192,192,27549,128,0,27635:0:0:0:0:
64,192,27720,1,0,0:0:0:0:
320,192,27720,1,0,0:0:0:0:
448,192,27720,128,0,27806:0:0:0:0:
192,192,27892,1,0,0:0:0:0:
320,192,27892,128,0,27977:0:0:0:0:
64,192,28063,128,0,28406:0:0:0:0:
192,192,28063,1,0,0:0:0:0:
448,192,28063,1,0,0:0:0:0:
320,192,28235,1,0,0:0:0:0:
320,192,28406,128,0,28749:0:0:0:0:
448,192,28406,1,0,0:0:0:0:
192,192,28406,1,0,0:0:0:0:
64,192,28577,1,0,0:0:0:0:
448,192,28749,128,0,29092:0:0:0:0:
64,192,28749,1,0,0:0:0:0:
192,192,28749,1,0,0:0:0:0:
320,192,28920,1,0,0:0:0:0:
192,192,29006,1,0,0:0:0:0:
64,192,29092,1,0,0:0:0:0:
320,192,29092,1,0,0:0:0:0:
192,192,29177,1,0,0:0:0:0:
448,192,29177,1,0,0:0:0:0:
320,192,29263,1,0,0:0:0:0:
64,192,29263,1,0,0:0:0:0:
192,192,29349,1,0,0:0:0:0:
448,192,29349,1,0,0:0:0:0:
64,192,29435,128,0,30463:0:0:0:0:
320,192,29435,1,0,0:0:0:0:
192,192,29606,1,0,0:0:0:0:
320,192,29777,1,0,0:0:0:0:
448,192,29777,1,0,0:0:0:0:
448,192,29949,1,0,0:0:0:0:
320,192,30120,1,0,0:0:0:0:
192,192,30120,1,0,0:0:0:0:
320,192,30292,1,0,0:0:0:0:
192,192,30463,1,0,0:0:0:0:
448,192,30463,128,0,30635:0:0:0:0:
64,192,30635,128,0,30806:0:0:0:0:
448,192,30806,1,0,0:0:0:0:
320,192,30806,128,0,30977:0:0:0:0:
192,192,30806,1,0,0:0:0:0:
192,192,30977,128,0,31149:0:0:0:0:
64,192,31149,1,0,0:0:0:0:
320,192,31149,128,0,31492:0:0:0:0:
448,192,31320,1,0,0:0:0:0:
64,192,31492,1,0,0:0:0:0:
192,192,31492,1,0,0:0:0:0:
64,192,31606,1,0,0:0:0:0:
192,192,31606,1,0,0:0:0:0:
64,192,31720,1,0,0:0:0:0:
192,192,31720,1,0,0:0:0:0:
320,192,31835,1,0,0:0:0:0:
448,192,31835,1,0,0:0:0:0:
320,192,31949,1,0,0:0:0:0:
448,192,31949,1,0,0:0:0:0:
320,192,32063,1,0,0:0:0:0:
448,192,32063,1,0,0:0:0:0:
64,192,32177,1,0,0:0:0:0:
320,192,32177,1,0,0:0:0:0:
64,192,32349,1,0,0:0:0:0:
448,192,32349,1,0,0:0:0:0:
192,192,32520,1,0,0:0:0:0:
448,192,32520,1,0,0:0:0:0:
320,192,32692,1,0,0:0:0:0:
192,192,32692,1,0,0:0:0:0:
64,192,32863,1,0,0:0:0:0:
192,192,32863,1,0,0:0:0:0:
320,192,32949,1,0,0:0:0:0:
448,192,32949,1,0,0:0:0:0:
64,192,33035,1,0,0:0:0:0:
192,192,33035,1,0,0:0:0:0:
448,192,33120,1,0,0:0:0:0:
320,192,33120,1,0,0:0:0:0:
64,192,33206,1,0,0:0:0:0:
320,192,33206,1,0,0:0:0:0:
192,192,33292,1,0,0:0:0:0:
448,192,33292,1,0,0:0:0:0:
320,192,33377,1,0,0:0:0:0:
64,192,33377,1,0,0:0:0:0:
192,192,33463,1,0,0:0:0:0:
448,192,33463,1,0,0:0:0:0:
64,192,33549,1,0,0:0:0:0:
320,192,33549,1,0,0:0:0:0:
64,192,33892,1,0,0:0:0:0:
320,192,33892,1,0,0:0:0:0:
64,192,34235,1,0,0:0:0:0:
320,192,34235,1,0,0:0:0:0:
192,192,34406,128,0,34492:0:0:0:0:
320,192,34492,128,0,34577:0:0:0:0:
448,192,34577,128,0,34663:0:0:0:0:
64,192,34920,1,0,0:0:0:0:
448,192,34920,128,0,35092:0:0:0:0:
320,192,34920,128,0,35092:0:0:0:0:
192,192,35092,1,0,0:0:0:0:
64,192,35092,128,0,35263:0:0:0:0:
192,192,35263,128,0,35435:0:0:0:0:
448,192,35263,1,0,0:0:0:0:
320,192,35263,1,0,0:0:0:0:
448,192,35435,128,0,35606:0:0:0:0:
64,192,35435,128,0,35606:0:0:0:0:
320,192,35606,128,0,35777:0:0:0:0:
192,192,35606,1,0,0:0:0:0:
192,192,35777,128,0,35949:0:0:0:0:
64,192,35777,1,0,0:0:0:0:
320,192,35949,128,0,36120:0:0:0:0:
64,192,35949,128,0,36120:0:0:0:0:
448,192,35949,1,0,0:0:0:0:
448,192,36120,128,0,36292:0:0:0:0:
192,192,36120,128,0,36292:0:0:0:0:
64,192,36292,128,0,36463:0:0:0:0:
320,192,36292,1,0,0:0:0:0:
448,192,36463,128,0,36635:0:0:0:0:
192,192,36463,1,0,0:0:0:0:
320,192,36463,1,0,0:0:0:0:
64,192,36635,1,0,0:0:0:0:
192,192,36635,128,0,36806:0:0:0:0:
320,192,36635,1,0,0:0:0:0:
64,192,36806,1,0,0:0:0:0:
320,192,36806,128,0,36977:0:0:0:0:
192,192,36977,1,0,0:0:0:0:
64,192,36977,128,0,37149:0:0:0:0:
448,192,36977,1,0,0:0:0:0:
320,192,37063,1,0,0:0:0:0:
448,192,37149,1,0,0:0:0:0:
192,192,37149,128,0,37320:0:0:0:0:
64,192,37235,1,0,0:0:0:0:
320,192,37320,1,0,0:0:0:0:
448,192,37320,128,0,37492:0:0:0:0:
192,192,37492,128,0,37663:0:0:0:0:
320,192,37492,1,0,0:0:0:0:
64,192,37663,128,0,38349:0:0:0:0:
448,192,37663,1,0,0:0:0:0:
320,192,37749,1,0,0:0:0:0:
192,192,37835,1,0,0:0:0:0:
320,192,37920,1,0,0:0:0:0:
448,192,38006,1,0,0:0:0:0:
192,192,38092,1,0,0:0:0:0:
448,192,38177,1,0,0:0:0:0:
320,192,38263,1,0,0:0:0:0:
192,192,38349,128,0,38520:0:0:0:0:
448,192,38349,1,0,0:0:0:0:
320,192,38520,1,0,0:0:0:0:
64,192,38520,1,0,0:0:0:0:
448,192,38692,128,0,38863:0:0:0:0:
64,192,38692,1,0,0:0:0:0:
192,192,38863,1,0,0:0:0:0:
320,192,38863,1,0,0:0:0:0:
320,192,39035,1,0,0:0:0:0:
448,192,39035,1,0,0:0:0:0:
64,192,39035,1,0,0:0:0:0:
448,192,39206,1,0,0:0:0:0:
64,192,39377,1,0,0:0:0:0:
192,192,39377,1,0,0:0:0:0:
320,192,39420,1,0,0:0:0:0:
448,192,39463,1,0,0:0:0:0:
64,192,39506,1,0,0:0:0:0:
192,192,39549,1,0,0:0:0:0:
320,192,39592,1,0,0:0:0:0:
448,192,39635,1,0,0:0:0:0:
64,192,39677,1,0,0:0:0:0:
192,192,39720,1,0,0:0:0:0:
448,192,39806,1,0,0:0:0:0:
320,192,39892,1,0,0:0:0:0:
192,192,39977,1,0,0:0:0:0:
64,192,40063,128,0,40406:0:0:0:0:
320,192,40063,1,0,0:0:0:0:
448,192,40063,1,0,0:0:0:0:
192,192,40406,1,0,0:0:0:0:
448,192,40406,1,0,0:0:0:0:
320,192,40406,128,0,40577:0:0:0:0:
448,192,40577,128,0,40749:0:0:0:0:
64,192,40577,1,0,0:0:0:0:
64,192,40749,128,0,40920:0:0:0:0:
320,192,40749,1,0,0:0:0:0:
192,192,40749,1,0,0:0:0:0:
320,192,40920,128,0,41263:0:0:0:0:
448,192,40920,1,0,0:0:0:0:
192,192,40920,1,0,0:0:0:0:
192,192,41092,128,0,41263:0:0:0:0:
448,192,41092,1,0,0:0:0:0:
64,192,41092,1,0,0:0:0:0:
64,192,41263,128,0,41435:0:0:0:0:
448,192,41435,128,0,41606:0:0:0:0:
192,192,41435,1,0,0:0:0:0:
320,192,41435,1,0,0:0:0:0:
64,192,41606,128,0,41949:0:0:0:0:
320,192,41606,1,0,0:0:0:0:
320,192,41777,128,0,41949:0:0:0:0:
448,192,41777,1,0,0:0:0:0:
192,192,41777,1,0,0:0:0:0:
192,192,41949,128,0,42120:0:0:0:0:
448,192,41949,1,0,0:0:0:0:
448,192,42120,1,0,0:0:0:0:
320,192,42120,128,0,42463:0:0:0:0:
64,192,42120,1,0,0:0:0:0:
448,192,42292,128,0,42463:0:0:0:0:
64,192,42292,1,0,0:0:0:0:
192,192,42292,1,0,0:0:0:0:
64,192,42463,128,0,42635:0:0:0:0:
192,192,42463,1,0,0:0:0:0:
320,192,42549,1,0,0:0:0:0:
448,192,42635,128,0,42806:0:0:0:0:
192,192,42635,1,0,0:0:0:0:
320,192,42720,1,0,0:0:0:0:
192,192,42806,128,0,42977:0:0:0:0:
64,192,42806,1,0,0:0:0:0:
320,192,42977,128,0,43149:0:0:0:0:
448,192,42977,1,0,0:0:0:0:
64,192,43149,1,0,0:0:0:0:
448,192,43149,128,0,43835:0:0:0:0:
192,192,43263,1,0,0:0:0:0:
320,192,43377,1,0,0:0:0:0:
64,192,43492,1,0,0:0:0:0:
320,192,43606,1,0,0:0:0:0:
192,192,43720,1,0,0:0:0:0:
320,192,43835,128,0,44006:0:0:0:0:
64,192,43835,1,0,0:0:0:0:
64,192,44006,128,0,44177:0:0:0:0:
448,192,44006,128,0,44177:0:0:0:0:
192,192,44177,128,0,44349:0:0:0:0:
320,192,44177,1,0,0:0:0:0:
64,192,44349,128,0,44520:0:0:0:0:
448,192,44349,128,0,44520:0:0:0:0:
320,192,44520,1,0,0:0:0:0:
192,192,44692,1,0,0:0:0:0:
320,192,44777,1,0,0:0:0:0:
320,192,45035,1,0,0:0:0:0:
320,192,45206,1,0,0:0:0:0:
64,192,45549,1,0,0:0:0:0:
448,192,45635,1,0,0:0:0:0:
64,192,45720,1,0,0:0:0:0:
448,192,45806,1,0,0:0:0:0:
192,192,45892,1,0,0:0:0:0:
320,192,45892,1,0,0:0:0:0:
64,192,45892,128,0,46235:0:0:0:0:
448,192,46063,1,0,0:0:0:0:
320,192,46149,1,0,0:0:0:0:
448,192,46235,128,0,46577:0:0:0:0:
192,192,46235,1,0,0:0:0:0:
192,192,46406,1,0,0:0:0:0:
64,192,46406,1,0,0:0:0:0:
320,192,46577,1,0,0:0:0:0:
192,192,46577,128,0,46920:0:0:0:0:
64,192,46577,1,0,0:0:0:0:
448,192,46663,1,0,0:0:0:0:
320,192,46749,1,0,0:0:0:0:
64,192,46835,1,0,0:0:0:0:
320,192,46920,128,0,47263:0:0:0:0:
448,192,46920,1,0,0:0:0:0:
192,192,47092,1,0,0:0:0:0:
192,192,47263,1,0,0:0:0:0:
64,192,47263,128,0,47606:0:0:0:0:
448,192,47263,1,0,0:0:0:0:
320,192,47435,1,0,0:0:0:0:
192,192,47520,1,0,0:0:0:0:
448,192,47606,128,0,47949:0:0:0:0:
320,192,47606,1,0,0:0:0:0:
64,192,47777,1,0,0:0:0:0:
192,192,47777,1,0,0:0:0:0:
192,192,47949,128,0,48120:0:0:0:0:
64,192,47949,1,0,0:0:0:0:
320,192,47949,1,0,0:0:0:0:
448,192,48035,1,0,0:0:0:0:
320,192,48120,128,0,48292:0:0:0:0:
64,192,48120,1,0,0:0:0:0:
192,192,48206,1,0,0:0:0:0:
448,192,48292,1,0,0:0:0:0:
64,192,48292,128,0,48463:0:0:0:0:
320,192,48377,1,0,0:0:0:0:
192,192,48463,128,0,48635:0:0:0:0:
448,192,48463,1,0,0:0:0:0:
320,192,48635,128,0,48977:0:0:0:0:
64,192,48635,1,0,0:0:0:0:
448,192,48635,1,0,0:0:0:0:
64,192,48806,1,0,0:0:0:0:
192,192,48892,1,0,0:0:0:0:
64,192,48977,128,0,49320:0:0:0:0:
448,192,48977,1,0,0:0:0:0:
320,192,49149,1,0,0:0:0:0:
320,192,49320,1,0,0:0:0:0:
192,192,49320,128,0,49663:0:0:0:0:
448,192,49320,1,0,0:0:0:0:
64,192,49406,1,0,0:0:0:0:
448,192,49492,1,0,0:0:0:0:
320,192,49577,1,0,0:0:0:0:
64,192,49663,1,0,0:0:0:0:
448,192,49663,128,0,50006:0:0:0:0:
320,192,49835,1,0,0:0:0:0:
192,192,50006,1,0,0:0:0:0:
64,192,50006,1,0,0:0:0:0:
320,192,50006,128,0,50349:0:0:0:0:
192,192,50177,1,0,0:0:0:0:
448,192,50263,1,0,0:0:0:0:
64,192,50349,1,0,0:0:0:0:
192,192,50349,128,0,50692:0:0:0:0:
320,192,50520,1,0,0:0:0:0:
448,192,50692,128,0,50863:0:0:0:0:
64,192,50692,1,0,0:0:0:0:
320,192,50692,1,0,0:0:0:0:
64,192,50777,1,0,0:0:0:0:
192,192,50863,128,0,51035:0:0:0:0:
320,192,50863,1,0,0:0:0:0:
448,192,50949,1,0,0:0:0:0:
320,192,51035,128,0,51206:0:0:0:0:
64,192,51035,1,0,0:0:0:0:
192,192,51120,1,0,0:0:0:0:
448,192,51206,1,0,0:0:0:0:
64,192,51206,128,0,51377:0:0:0:0:
192,192,51292,1,0,0:0:0:0:
320,192,51377,1,0,0:0:0:0:
448,192,51377,128,0,51549:0:0:0:0:
64,192,51549,128,0,51720:0:0:0:0:
320,192,51549,128,0,51720:0:0:0:0:
192,192,51720,128,0,51892:0:0:0:0:
64,192,51892,128,0,52063:0:0:0:0:
448,192,51892,128,0,52235:0:0:0:0:
320,192,52063,128,0,52406:0:0:0:0:
192,192,52063,128,0,52235:0:0:0:0:
64,192,52235,128,0,52749:0:0:0:0:
192,192,52406,128,0,52577:0:0:0:0:
448,192,52406,128,0,52749:0:0:0:0:
320,192,52749,128,0,53092:0:0:0:0:
64,192,53092,128,0,53177:0:0:0:0:
192,192,53092,128,0,53177:0:0:0:0:
448,192,53092,128,0,53177:0:0:0:0:
64,192,53263,128,0,53349:0:0:0:0:
320,192,53263,128,0,53349:0:0:0:0:
448,192,53263,128,0,53349:0:0:0:0:
448,192,53435,128,0,54120:0:0:0:0:
192,192,53435,1,0,0:0:0:0:
64,192,53606,1,0,0:0:0:0:
320,192,53777,1,0,0:0:0:0:
192,192,53863,1,0,0:0:0:0:
320,192,53949,1,0,0:0:0:0:
192,192,54035,1,0,0:0:0:0:
64,192,54120,1,0,0:0:0:0:
320,192,54120,1,0,0:0:0:0:
192,192,54292,1,0,0:0:0:0:
448,192,54292,1,0,0:0:0:0:
448,192,54463,1,0,0:0:0:0:
320,192,54463,1,0,0:0:0:0:
64,192,54635,1,0,0:0:0:0:
192,192,54635,1,0,0:0:0:0:
320,192,54806,1,0,0:0:0:0:
448,192,54806,1,0,0:0:0:0:
192,192,54892,1,0,0:0:0:0:
64,192,54977,1,0,0:0:0:0:
320,192,54977,1,0,0:0:0:0:
448,192,55063,1,0,0:0:0:0:
192,192,55149,1,0,0:0:0:0:
320,192,55149,1,0,0:0:0:0:
64,192,55235,1,0,0:0:0:0:
192,192,55320,1,0,0:0:0:0:
448,192,55320,1,0,0:0:0:0:
320,192,55406,1,0,0:0:0:0:
192,192,55492,1,0,0:0:0:0:
64,192,55492,1,0,0:0:0:0:
320,192,55577,1,0,0:0:0:0:
448,192,55577,1,0,0:0:0:0:
320,192,55749,1,0,0:0:0:0:
192,192,55749,1,0,0:0:0:0:
448,192,55835,1,0,0:0:0:0:
64,192,55835,1,0,0:0:0:0:
320,192,55920,1,0,0:0:0:0:
192,192,56006,1,0,0:0:0:0:
320,192,56092,1,0,0:0:0:0:
64,192,56092,1,0,0:0:0:0:
192,192,56177,1,0,0:0:0:0:
448,192,56177,1,0,0:0:0:0:
320,192,56263,1,0,0:0:0:0:
192,192,56349,1,0,0:0:0:0:
64,192,56435,1,0,0:0:0:0:
192,192,56520,1,0,0:0:0:0:
320,192,56520,1,0,0:0:0:0:
448,192,56520,1,0,0:0:0:0:
64,192,56606,1,0,0:0:0:0:
192,192,56692,1,0,0:0:0:0:
320,192,56777,1,0,0:0:0:0:
64,192,56863,128,0,57892:0:0:0:0:
448,192,56863,128,0,58235:0:0:0:0:
192,192,57206,1,0,0:0:0:0:
320,192,57377,1,0,0:0:0:0:
192,192,57549,1,0,0:0:0:0:
320,192,57892,1,0,0:0:0:0:
192,192,58235,128,0,58577:0:0:0:0:
320,192,58235,128,0,58406:0:0:0:0:
448,192,58406,128,0,58749:0:0:0:0:
64,192,58577,128,0,58749:0:0:0:0:
192,192,58749,128,0,58920:0:0:0:0:
448,192,58920,128,0,59263:0:0:0:0:
64,192,58920,128,0,59263:0:0:0:0:
320,192,58920,1,0,0:0:0:0:
320,192,59035,1,0,0:0:0:0:
320,192,59149,1,0,0:0:0:0:
192,192,59263,128,0,59606:0:0:0:0:
448,192,59606,128,0,60806:0:0:0:0:
64,192,59606,128,0,59949:0:0:0:0:
192,192,59949,128,0,60120:0:0:0:0:
320,192,60120,128,0,60292:0:0:0:0:
192,192,60292,128,0,60463:0:0:0:0:
64,192,60463,128,0,60635:0:0:0:0:
192,192,60635,128,0,60806:0:0:0:0:
320,192,60806,128,0,60977:0:0:0:0:
448,192,60977,128,0,61320:0:0:0:0:
64,192,60977,1,0,0:0:0:0:
192,192,60977,1,0,0:0:0:0:
192,192,61320,128,0,61663:0:0:0:0:
64,192,61320,1,0,0:0:0:0:
320,192,61320,1,0,0:0:0:0:
64,192,61663,128,0,62006:0:0:0:0:
448,192,61663,1,0,0:0:0:0:
448,192,61777,1,0,0:0:0:0:
448,192,61892,1,0,0:0:0:0:
320,192,62006,128,0,62349:0:0:0:0:
192,192,62006,1,0,0:0:0:0:
64,192,62092,1,0,0:0:0:0:
192,192,62177,1,0,0:0:0:0:
64,192,62263,1,0,0:0:0:0:
192,192,62349,128,0,63206:0:0:0:0:
448,192,62349,1,0,0:0:0:0:
320,192,62520,1,0,0:0:0:0:
64,192,62692,1,0,0:0:0:0:
448,192,62692,1,0,0:0:0:0:
320,192,62863,1,0,0:0:0:0:
64,192,62949,1,0,0:0:0:0:
320,192,63035,1,0,0:0:0:0:
448,192,63035,1,0,0:0:0:0:
64,192,63120,1,0,0:0:0:0:
320,192,63206,1,0,0:0:0:0:
448,192,63206,128,0,63377:0:0:0:0:
64,192,63377,128,0,63549:0:0:0:0:
320,192,63377,1,0,0:0:0:0:
192,192,63377,1,0,0:0:0:0:
320,192,63549,128,0,64235:0:0:0:0:
448,192,63549,1,0,0:0:0:0:
64,192,63720,1,0,0:0:0:0:
192,192,63720,1,0,0:0:0:0:
192,192,63892,1,0,0:0:0:0:
192,192,64063,1,0,0:0:0:0:
448,192,64063,1,0,0:0:0:0:
192,192,64235,128,0,64406:0:0:0:0:
64,192,64235,1,0,0:0:0:0:
320,192,64320,1,0,0:0:0:0:
64,192,64406,128,0,64663:0:0:0:0:
448,192,64406,1,0,0:0:0:0:
320,192,64492,1,0,0:0:0:0:
192,192,64577,1,0,0:0:0:0:
448,192,64663,128,0,64920:0:0:0:0:
320,192,64749,1,0,0:0:0:0:
192,192,64749,1,0,0:0:0:0:
64,192,64920,1,0,0:0:0:0:
192,192,64977,1,0,0:0:0:0:
320,192,65035,1,0,0:0:0:0:
64,192,65092,128,0,66349:0:0:0:0:
448,192,65092,128,0,65206:0:0:0:0:
320,192,65206,128,0,65320:0:0:0:0:
192,192,65320,128,0,65435:0:0:0:0:
448,192,65435,128,0,65549:0:0:0:0:
320,192,65549,128,0,65663:0:0:0:0:
192,192,65663,128,0,65777:0:0:0:0:
448,192,65777,128,0,65892:0:0:0:0:
320,192,65892,128,0,66006:0:0:0:0:
192,192,66006,128,0,66120:0:0:0:0:
448,192,66120,128,0,66235:0:0:0:0:
320,192,66235,128,0,66349:0:0:0:0:
192,192,66349,128,0,66463:0:0:0:0:
64,192,66463,1,0,0:0:0:0:
320,192,66463,1,0,0:0:0:0:
448,192,66463,128,0,66806:0:0:0:0:
320,192,66806,128,0,67149:0:0:0:0:
64,192,66806,1,0,0:0:0:0:
192,192,66806,1,0,0:0:0:0:
192,192,67149,128,0,67492:0:0:0:0:
64,192,67149,1,0,0:0:0:0:
448,192,67149,1,0,0:0:0:0:
320,192,67492,1,0,0:0:0:0:
64,192,67492,128,0,67835:0:0:0:0:
448,192,67492,128,0,67663:0:0:0:0:
192,192,67835,128,0,69035:0:0:0:0:
320,192,67835,1,0,0:0:0:0:
448,192,67835,1,0,0:0:0:0:
320,192,68006,1,0,0:0:0:0:
448,192,68177,1,0,0:0:0:0:
64,192,68177,1,0,0:0:0:0:
320,192,68349,1,0,0:0:0:0:
320,192,68520,1,0,0:0:0:0:
64,192,68520,1,0,0:0:0:0:
448,192,68692,1,0,0:0:0:0:
320,192,68863,1,0,0:0:0:0:
448,192,68863,1,0,0:0:0:0:
448,192,69035,1,0,0:0:0:0:
64,192,69035,1,0,0:0:0:0:
320,192,69035,128,0,69206:0:0:0:0:
64,192,69206,1,0,0:0:0:0:
192,192,69206,1,0,0:0:0:0:
448,192,69206,128,0,69720:0:0:0:0:
64,192,69377,1,0,0:0:0:0:
192,192,69549,1,0,0:0:0:0:
320,192,69549,1,0,0:0:0:0:
64,192,69720,1,0,0:0:0:0:
320,192,69720,1,0,0:0:0:0:
192,192,69720,128,0,69892:0:0:0:0:
320,192,69892,1,0,0:0:0:0:
448,192,69892,1,0,0:0:0:0:
64,192,69892,128,0,70149:0:0:0:0:
448,192,70063,1,0,0:0:0:0:
320,192,70149,1,0,0:0:0:0:
192,192,70149,128,0,70406:0:0:0:0:
64,192,70235,1,0,0:0:0:0:
448,192,70235,1,0,0:0:0:0:
64,192,70406,1,0,0:0:0:0:
320,192,70406,1,0,0:0:0:0:
448,192,70406,1,0,0:0:0:0:
320,192,70577,128,0,71777:0:0:0:0:
192,192,70577,1,0,0:0:0:0:
64,192,70577,1,0,0:0:0:0:
448,192,70663,1,0,0:0:0:0:
192,192,70749,1,0,0:0:0:0:
64,192,70920,1,0,0:0:0:0:
448,192,70920,1,0,0:0:0:0:
192,192,71092,1,0,0:0:0:0:
192,192,71263,1,0,0:0:0:0:
64,192,71263,1,0,0:0:0:0:
64,192,71435,1,0,0:0:0:0:
192,192,71606,1,0,0:0:0:0:
448,192,71606,1,0,0:0:0:0:
64,192,71777,1,0,0:0:0:0:
448,192,71777,1,0,0:0:0:0:
192,192,71777,128,0,71949:0:0:0:0:
448,192,71949,1,0,0:0:0:0:
320,192,71949,1,0,0:0:0:0:
64,192,71949,128,0,72463:0:0:0:0:
192,192,72120,1,0,0:0:0:0:
320,192,72292,1,0,0:0:0:0:
448,192,72292,1,0,0:0:0:0:
448,192,72463,1,0,0:0:0:0:
192,192,72463,1,0,0:0:0:0:
320,192,72463,128,0,72635:0:0:0:0:
192,192,72635,1,0,0:0:0:0:
64,192,72635,1,0,0:0:0:0:
448,192,72635,128,0,72892:0:0:0:0:
64,192,72806,1,0,0:0:0:0:
320,192,72892,1,0,0:0:0:0:
192,192,72892,128,0,73149:0:0:0:0:
64,192,72977,1,0,0:0:0:0:
448,192,72977,1,0,0:0:0:0:
64,192,73149,1,0,0:0:0:0:
320,192,73149,1,0,0:0:0:0:
448,192,73149,1,0,0:0:0:0:
64,192,73320,128,0,73663:0:0:0:0:
448,192,73320,128,0,73492:0:0:0:0:
320,192,73492,128,0,73663:0:0:0:0:
192,192,73663,128,0,74006:0:0:0:0:
448,192,73663,128,0,73835:0:0:0:0:
320,192,73835,128,0,74006:0:0:0:0:
64,192,74006,128,0,74177:0:0:0:0:
448,192,74006,128,0,74349:0:0:0:0:
192,192,74177,128,0,74349:0:0:0:0:
64,192,74349,128,0,74520:0:0:0:0:
320,192,74349,128,0,74692:0:0:0:0:
192,192,74520,128,0,74692:0:0:0:0:
64,192,74692,128,0,75035:0:0:0:0:
448,192,74692,128,0,74863:0:0:0:0:
320,192,74863,128,0,75035:0:0:0:0:
192,192,75035,128,0,75377:0:0:0:0:
448,192,75035,128,0,75206:0:0:0:0:
320,192,75206,128,0,75377:0:0:0:0:
64,192,75377,128,0,75549:0:0:0:0:
448,192,75377,128,0,75720:0:0:0:0:
192,192,75549,128,0,75720:0:0:0:0:
64,192,75720,128,0,75892:0:0:0:0:
320,192,75720,128,0,76063:0:0:0:0:
192,192,75892,128,0,76063:0:0:0:0:
64,192,76063,128,0,76406:0:0:0:0:
448,192,76063,128,0,76235:0:0:0:0:
320,192,76235,128,0,76406:0:0:0:0:
448,192,76406,128,0,76749:0:0:0:0:
192,192,76406,128,0,76577:0:0:0:0:
64,192,76577,128,0,76749:0:0:0:0:
192,192,76749,128,0,76920:0:0:0:0:
320,192,76749,1,0,0:0:0:0:
448,192,76835,1,0,0:0:0:0:
320,192,76920,128,0,77092:0:0:0:0:
64,192,76920,1,0,0:0:0:0:
192,192,77006,1,0,0:0:0:0:
64,192,77092,1,0,0:0:0:0:
448,192,77092,128,0,77263:0:0:0:0:
192,192,77177,1,0,0:0:0:0:
64,192,77263,128,0,78120:0:0:0:0:
320,192,77263,1,0,0:0:0:0:
448,192,77349,1,0,0:0:0:0:
192,192,77435,128,0,78120:0:0:0:0:
320,192,77435,128,0,78120:0:0:0:0:
320,192,78463,1,0,0:0:0:0:
64,192,78463,1,0,0:0:0:0:
448,192,78463,1,0,0:0:0:0:
192,192,78549,1,0,0:0:0:0:
320,192,78635,1,0,0:0:0:0:
448,192,78720,1,0,0:0:0:0:
64,192,78806,1,0,0:0:0:0:
192,192,78806,1,0,0:0:0:0:
320,192,78977,1,0,0:0:0:0:
192,192,79063,1,0,0:0:0:0:
448,192,79149,1,0,0:0:0:0:
64,192,79149,1,0,0:0:0:0:
320,192,79235,1,0,0:0:0:0:
192,192,79320,1,0,0:0:0:0:
320,192,79492,1,0,0:0:0:0:
448,192,79492,1,0,0:0:0:0:
64,192,79663,1,0,0:0:0:0:
192,192,79749,1,0,0:0:0:0:
64,192,79835,1,0,0:0:0:0:
320,192,79835,1,0,0:0:0:0:
448,192,79920,1,0,0:0:0:0:
320,192,80006,1,0,0:0:0:0:
64,192,80177,1,0,0:0:0:0:
448,192,80177,1,0,0:0:0:0:
192,192,80349,1,0,0:0:0:0:
448,192,80435,1,0,0:0:0:0:
320,192,80520,1,0,0:0:0:0:
64,192,80520,1,0,0:0:0:0:
192,192,80606,1,0,0:0:0:0:
64,192,80692,1,0,0:0:0:0:
320,192,80863,1,0,0:0:0:0:
448,192,80863,1,0,0:0:0:0:
64,192,80949,1,0,0:0:0:0:
192,192,80949,1,0,0:0:0:0:
320,192,81035,1,0,0:0:0:0:
448,192,81035,1,0,0:0:0:0:
192,192,81120,1,0,0:0:0:0:
320,192,81206,1,0,0:0:0:0:
64,192,81206,1,0,0:0:0:0:
192,192,81377,1,0,0:0:0:0:
448,192,81377,1,0,0:0:0:0:
64,192,81549,1,0,0:0:0:0:
448,192,81549,1,0,0:0:0:0:
320,192,81549,1,0,0:0:0:0:
192,192,81720,1,0,0:0:0:0:
448,192,81892,128,0,82063:0:0:0:0:
64,192,81892,1,0,0:0:0:0:
192,192,81892,1,0,0:0:0:0:
320,192,82063,1,0,0:0:0:0:
448,192,82235,1,0,0:0:0:0:
192,192,82235,1,0,0:0:0:0:
64,192,82406,1,0,0:0:0:0:
320,192,82492,1,0,0:0:0:0:
192,192,82577,1,0,0:0:0:0:
64,192,82577,128,0,82749:0:0:0:0:
448,192,82577,1,0,0:0:0:0:
320,192,82663,1,0,0:0:0:0:
448,192,82749,1,0,0:0:0:0:
448,192,82920,1,0,0:0:0:0:
64,192,82920,1,0,0:0:0:0:
192,192,83006,1,0,0:0:0:0:
320,192,83006,1,0,0:0:0:0:
64,192,83092,1,0,0:0:0:0:
448,192,83092,1,0,0:0:0:0:
320,192,83177,1,0,0:0:0:0:
192,192,83263,1,0,0:0:0:0:
64,192,83263,1,0,0:0:0:0:
448,192,83263,128,0,83349:0:0:0:0:
320,192,83435,128,0,83863:0:0:0:0:
192,192,83435,128,0,83863:0:0:0:0:
64,192,83949,128,0,84292:0:0:0:0:
320,192,83949,1,0,0:0:0:0:
448,192,83949,1,0,0:0:0:0:
192,192,84035,1,0,0:0:0:0:
320,192,84120,1,0,0:0:0:0:
448,192,84206,1,0,0:0:0:0:
192,192,84292,1,0,0:0:0:0:
320,192,84292,1,0,0:0:0:0:
448,192,84463,1,0,0:0:0:0:
64,192,84463,1,0,0:0:0:0:
320,192,84549,1,0,0:0:0:0:
192,192,84635,1,0,0:0:0:0:
64,192,84635,1,0,0:0:0:0:
320,192,84720,1,0,0:0:0:0:
448,192,84806,1,0,0:0:0:0:
192,192,84977,1,0,0:0:0:0:
320,192,84977,1,0,0:0:0:0:
320,192,85149,1,0,0:0:0:0:
64,192,85149,1,0,0:0:0:0:
192,192,85235,1,0,0:0:0:0:
320,192,85320,1,0,0:0:0:0:
448,192,85320,1,0,0:0:0:0:
64,192,85406,1,0,0:0:0:0:
448,192,85492,1,0,0:0:0:0:
64,192,85663,128,0,85835:0:0:0:0:
320,192,85663,1,0,0:0:0:0:
192,192,85835,1,0,0:0:0:0:
448,192,85835,1,0,0:0:0:0:
64,192,85920,1,0,0:0:0:0:
192,192,86006,1,0,0:0:0:0:
320,192,86006,1,0,0:0:0:0:
448,192,86092,1,0,0:0:0:0:
192,192,86177,1,0,0:0:0:0:
448,192,86349,1,0,0:0:0:0:
320,192,86349,128,0,86520:0:0:0:0:
64,192,86349,1,0,0:0:0:0:
64,192,86520,1,0,0:0:0:0:
192,192,86520,1,0,0:0:0:0:
320,192,86606,1,0,0:0:0:0:
448,192,86692,1,0,0:0:0:0:
64,192,86692,1,0,0:0:0:0:
192,192,86777,1,0,0:0:0:0:
320,192,86863,1,0,0:0:0:0:
64,192,87035,1,0,0:0:0:0:
192,192,87035,1,0,0:0:0:0:
448,192,87035,1,0,0:0:0:0:
320,192,87206,1,0,0:0:0:0:
192,192,87377,128,0,87549:0:0:0:0:
320,192,87377,1,0,0:0:0:0:
448,192,87377,1,0,0:0:0:0:
448,192,87549,1,0,0:0:0:0:
320,192,87720,1,0,0:0:0:0:
64,192,87720,1,0,0:0:0:0:
192,192,87892,1,0,0:0:0:0:
320,192,87977,1,0,0:0:0:0:
448,192,88063,128,0,88235:0:0:0:0:
64,192,88063,1,0,0:0:0:0:
192,192,88063,1,0,0:0:0:0:
320,192,88149,1,0,0:0:0:0:
64,192,88235,1,0,0:0:0:0:
192,192,88406,1,0,0:0:0:0:
320,192,88406,1,0,0:0:0:0:
448,192,88406,1,0,0:0:0:0:
64,192,88577,1,0,0:0:0:0:
320,192,88577,1,0,0:0:0:0:
448,192,88749,1,0,0:0:0:0:
320,192,88749,1,0,0:0:0:0:
64,192,88835,1,0,0:0:0:0:
192,192,88835,1,0,0:0:0:0:
448,192,88920,1,0,0:0:0:0:
192,192,89006,1,0,0:0:0:0:
320,192,89092,1,0,0:0:0:0:
64,192,89177,1,0,0:0:0:0:
192,192,89263,1,0,0:0:0:0:
320,192,89349,1,0,0:0:0:0:
448,192,89435,1,0,0:0:0:0:
64,192,89435,1,0,0:0:0:0:
192,192,89435,1,0,0:0:0:0:
192,192,89520,1,0,0:0:0:0:
64,192,89606,1,0,0:0:0:0:
448,192,89606,1,0,0:0:0:0:
320,192,89606,1,0,0:0:0:0:
320,192,89692,1,0,0:0:0:0:
64,192,89777,1,0,0:0:0:0:
192,192,89777,1,0,0:0:0:0:
448,192,89777,128,0,90635:0:0:0:0:
192,192,89949,1,0,0:0:0:0:
64,192,90120,1,0,0:0:0:0:
320,192,90120,1,0,0:0:0:0:
64,192,90292,1,0,0:0:0:0:
192,192,90463,1,0,0:0:0:0:
320,192,90463,1,0,0:0:0:0:
192,192,90635,1,0,0:0:0:0:
320,192,90635,1,0,0:0:0:0:
64,192,90806,1,0,0:0:0:0:
320,192,90806,1,0,0:0:0:0:
448,192,90806,1,0,0:0:0:0:
192,192,90977,1,0,0:0:0:0:
448,192,90977,1,0,0:0:0:0:
64,192,90977,1,0,0:0:0:0:
64,192,91320,128,0,91577:0:0:0:0:
320,192,91320,128,0,91577:0:0:0:0:
448,192,91320,128,0,91577:0:0:0:0:
64,192,91663,128,0,91749:0:0:0:0:
192,192,91663,128,0,91749:0:0:0:0:
448,192,91663,128,0,91749:0:0:0:0:
320,192,91835,128,0,92006:0:0:0:0:
448,192,91835,128,0,92006:0:0:0:0:
64,192,91835,128,0,92006:0:0:0:0:
64,192,92177,128,0,92435:0:0:0:0:
448,192,92177,128,0,92435:0:0:0:0:
192,192,92177,128,0,92435:0:0:0:0:
320,192,92177,128,0,92435:0:0:0:0:
192,192,92520,1,0,0:0:0:0:
320,192,92520,1,0,0:0:0:0:
448,192,92520,1,0,0:0:0:0:
64,192,92606,1,0,0:0:0:0:
320,192,92692,1,0,0:0:0:0:
448,192,92692,1,0,0:0:0:0:
448,192,92863,128,0,92949:0:0:0:0:
64,192,92863,1,0,0:0:0:0:
320,192,92949,128,0,93035:0:0:0:0:
192,192,93035,128,0,93120:0:0:0:0:
320,192,93120,128,0,93206:0:0:0:0:
448,192,93206,128,0,93292:0:0:0:0:
192,192,93206,1,0,0:0:0:0:
64,192,93292,128,0,93377:0:0:0:0:
192,192,93377,128,0,93463:0:0:0:0:
320,192,93463,128,0,93549:0:0:0:0:
192,192,93549,128,0,93635:0:0:0:0:
448,192,93549,1,0,0:0:0:0:
64,192,93635,128,0,93720:0:0:0:0:
448,192,93720,128,0,93806:0:0:0:0:
320,192,93806,128,0,93892:0:0:0:0:
64,192,93892,1,0,0:0:0:0:
192,192,93892,1,0,0:0:0:0:
64,192,93977,1,0,0:0:0:0:
192,192,93977,1,0,0:0:0:0:
320,192,94063,1,0,0:0:0:0:
448,192,94063,1,0,0:0:0:0:
320,192,94149,1,0,0:0:0:0:
448,192,94149,1,0,0:0:0:0:
64,192,94235,1,0,0:0:0:0:
192,192,94235,1,0,0:0:0:0:
192,192,94406,1,0,0:0:0:0:
320,192,94406,1,0,0:0:0:0:
320,192,94577,1,0,0:0:0:0:
448,192,94577,128,0,94835:0:0:0:0:
64,192,94749,1,0,0:0:0:0:
192,192,94749,1,0,0:0:0:0:
320,192,94835,1,0,0:0:0:0:
448,192,94920,1,0,0:0:0:0:
192,192,94920,128,0,95263:0:0:0:0:
64,192,94920,1,0,0:0:0:0:
320,192,95092,1,0,0:0:0:0:
448,192,95263,1,0,0:0:0:0:
64,192,95263,1,0,0:0:0:0:
320,192,95263,1,0,0:0:0:0:
320,192,95435,1,0,0:0:0:0:
192,192,95435,1,0,0:0:0:0:
192,192,95606,1,0,0:0:0:0:
448,192,95606,1,0,0:0:0:0:
320,192,95777,1,0,0:0:0:0:
64,192,95777,1,0,0:0:0:0:
64,192,95949,1,0,0:0:0:0:
448,192,95949,1,0,0:0:0:0:
192,192,95949,1,0,0:0:0:0:
192,192,96120,1,0,0:0:0:0:
320,192,96120,1,0,0:0:0:0:
320,192,96292,1,0,0:0:0:0:
448,192,96292,1,0,0:0:0:0:
64,192,96463,1,0,0:0:0:0:
448,192,96463,1,0,0:0:0:0:
448,192,96635,1,0,0:0:0:0:
192,192,96635,1,0,0:0:0:0:
320,192,96635,1,0,0:0:0:0:
64,192,96806,1,0,0:0:0:0:
192,192,96806,1,0,0:0:0:0:
320,192,96977,1,0,0:0:0:0:
448,192,96977,1,0,0:0:0:0:
192,192,97149,1,0,0:0:0:0:
448,192,97149,1,0,0:0:0:0:
64,192,97320,1,0,0:0:0:0:
192,192,97320,1,0,0:0:0:0:
320,192,97320,1,0,0:0:0:0:
448,192,97492,1,0,0:0:0:0:
64,192,97492,1,0,0:0:0:0:
320,192,97663,1,0,0:0:0:0:
192,192,97663,1,0,0:0:0:0:
448,192,97835,1,0,0:0:0:0:
192,192,97835,1,0,0:0:0:0:
64,192,98006,1,0,0:0:0:0:
192,192,98006,1,0,0:0:0:0:
320,192,98006,1,0,0:0:0:0:
192,192,98177,1,0,0:0:0:0:
320,192,98177,1,0,0:0:0:0:
64,192,98177,1,0,0:0:0:0:
448,192,98349,1,0,0:0:0:0:
64,192,98349,1,0,0:0:0:0:
320,192,98349,1,0,0:0:0:0:
320,192,98520,1,0,0:0:0:0:
448,192,98520,1,0,0:0:0:0:
64,192,98520,1,0,0:0:0:0:
64,192,98692,1,0,0:0:0:0:
192,192,98692,1,0,0:0:0:0:
448,192,98777,1,0,0:0:0:0:
320,192,98777,1,0,0:0:0:0:
64,192,98863,1,0,0:0:0:0:
192,192,98863,1,0,0:0:0:0:
448,192,98949,1,0,0:0:0:0:
320,192,98949,1,0,0:0:0:0:
64,192,99035,1,0,0:0:0:0:
448,192,99035,1,0,0:0:0:0:
192,192,99120,1,0,0:0:0:0:
320,192,99120,1,0,0:0:0:0:
64,192,99206,1,0,0:0:0:0:
448,192,99206,1,0,0:0:0:0:
192,192,99292,1,0,0:0:0:0:
320,192,99292,1,0,0:0:0:0:
64,192,99377,1,0,0:0:0:0:
448,192,99377,128,0,100406:0:0:0:0:
64,192,99549,1,0,0:0:0:0:
192,192,99892,1,0,0:0:0:0:
192,192,100235,1,0,0:0:0:0:
64,192,100406,128,0,100749:0:0:0:0:
192,192,100406,128,0,100577:0:0:0:0:
320,192,100406,1,0,0:0:0:0:
448,192,100577,1,0,0:0:0:0:
192,192,100749,1,0,0:0:0:0:
320,192,100749,1,0,0:0:0:0:
448,192,100749,1,0,0:0:0:0:
