osu file format v13

[General]
AudioFilename: candy vox.mp3
AudioLeadIn: 0
PreviewTime: 84189
Countdown: 0
SampleSet: Normal
StackLeniency: 0.7
Mode: 3
LetterboxInBreaks: 0
SpecialStyle: 0
WidescreenStoryboard: 1

[Editor]
DistanceSpacing: 1
BeatDivisor: 4
GridSize: 4
TimelineZoom: 1.8

[Metadata]
Title:CANDY VOX
TitleUnicode:CANDY♥VOX
Artist:P*Light
ArtistUnicode:P★Light
Creator:Kuo Kyoka
Version:7K OVERBOARD Lv.33
Source:
Tags:Happy Hardcore HAPPYMAKER arcwinolivirus YunoFanatic ExPew Lunatic Raccoon [Shana_Lesus] puxtu ArcherLove Fullerene- Shinzo- lZenxl
BeatmapID:500557
BeatmapSetID:212823

[Difficulty]
HPDrainRate:8
CircleSize:7
OverallDifficulty:8
ApproachRate:5
SliderMultiplier:1.4
SliderTickRate:1

[Events]
//Background and Video events
0,0,"background.png",0,0
//Break Periods
2,21723,62323
2,71056,82989
2,85723,105323
2,107056,132989
//Storyboard Layer 0 (Background)
//Storyboard Layer 1 (Fail)
//Storyboard Layer 2 (Pass)
//Storyboard Layer 3 (Foreground)
//Storyboard Sound Samples
//Background Colour Transformations
3,100,163,162,255

[TimingPoints]
190,333.333333333333,4,1,0,100,1,0
21523,-100,4,1,0,100,0,1
21856,-100,4,1,0,100,0,0
32523,-100,4,1,0,100,0,1
32856,-100,4,1,0,100,0,0
64189,-100,4,1,0,100,0,1
74523,-100,4,1,0,100,0,0
74856,-100,4,1,0,100,0,1
84189,-100,4,1,0,100,0,0
85523,-100,4,1,0,100,0,1
95856,-100,4,1,0,100,0,0
96189,-100,4,1,0,100,0,1
106856,-100,4,1,0,100,0,0

[HitObjects]
36,192,19523,5,0,0:0:0:0:
256,192,19523,1,0,0:0:0:0:
109,192,19606,1,0,0:0:0:0:
329,192,19606,1,0,0:0:0:0:
182,192,19689,1,0,0:0:0:0:
402,192,19689,1,0,0:0:0:0:
256,192,19773,1,0,0:0:0:0:
475,192,19773,1,0,0:0:0:0:
182,192,19856,1,0,0:0:0:0:
402,192,19856,1,0,0:0:0:0:
109,192,19939,1,0,0:0:0:0:
329,192,19939,1,0,0:0:0:0:
36,192,20023,1,0,0:0:0:0:
256,192,20023,1,0,0:0:0:0:
182,192,20106,1,0,0:0:0:0:
475,192,20106,1,0,0:0:0:0:
109,192,20189,1,0,0:0:0:0:
402,192,20189,1,0,0:0:0:0:
329,192,20189,1,0,0:0:0:0:
109,192,20523,1,0,0:0:0:0:
182,192,20523,1,0,0:0:0:0:
402,192,20523,1,0,0:0:0:0:
109,192,20856,1,0,0:0:0:0:
256,192,20856,1,0,0:0:0:0:
402,192,20856,1,0,0:0:0:0:
182,192,21023,1,0,0:0:0:0:
329,192,21023,1,0,0:0:0:0:
109,192,21106,1,0,0:0:0:0:
402,192,21106,1,0,0:0:0:0:
36,192,21189,1,0,0:0:0:0:
475,192,21189,1,0,0:0:0:0:
256,192,21189,128,0,21523:0:0:0:0:
256,192,63523,5,0,0:0:0:0:
256,192,63606,1,0,0:0:0:0:
256,192,63689,1,0,0:0:0:0:
256,192,63773,1,0,0:0:0:0:
256,192,63856,1,0,0:0:0:0:
402,192,63856,128,0,64189:0:0:0:0:
109,192,63939,128,0,64189:0:0:0:0:
329,192,64023,128,0,64189:0:0:0:0:
182,192,64106,128,0,64189:0:0:0:0:
256,192,64189,1,0,0:0:0:0:
475,192,64189,1,0,0:0:0:0:
36,192,64189,128,0,64439:0:0:0:0:
402,192,64356,1,0,0:0:0:0:
182,192,64439,128,0,64689:0:0:0:0:
329,192,64439,1,0,0:0:0:0:
256,192,64523,1,0,0:0:0:0:
402,192,64523,1,0,0:0:0:0:
36,192,64523,1,0,0:0:0:0:
109,192,64689,128,0,64939:0:0:0:0:
329,192,64689,1,0,0:0:0:0:
36,192,64856,1,0,0:0:0:0:
256,192,64856,1,0,0:0:0:0:
475,192,64939,128,0,65189:0:0:0:0:
402,192,64939,1,0,0:0:0:0:
329,192,65023,1,0,0:0:0:0:
256,192,65106,1,0,0:0:0:0:
329,192,65189,128,0,65523:0:0:0:0:
182,192,65189,1,0,0:0:0:0:
109,192,65189,1,0,0:0:0:0:
475,192,65356,128,0,65523:0:0:0:0:
256,192,65356,1,0,0:0:0:0:
402,192,65439,128,0,65523:0:0:0:0:
182,192,65439,1,0,0:0:0:0:
36,192,65523,128,0,65773:0:0:0:0:
109,192,65523,1,0,0:0:0:0:
256,192,65523,1,0,0:0:0:0:
182,192,65773,128,0,66023:0:0:0:0:
109,192,66023,128,0,66273:0:0:0:0:
256,192,66273,128,0,66523:0:0:0:0:
402,192,66523,128,0,66856:0:0:0:0:
329,192,66689,128,0,66856:0:0:0:0:
475,192,66773,128,0,66856:0:0:0:0:
182,192,66856,128,0,67106:0:0:0:0:
36,192,67106,128,0,67356:0:0:0:0:
256,192,67356,128,0,67606:0:0:0:0:
402,192,67606,128,0,67856:0:0:0:0:
109,192,67856,128,0,68189:0:0:0:0:
256,192,68023,128,0,68189:0:0:0:0:
182,192,68106,128,0,68189:0:0:0:0:
475,192,68189,128,0,68439:0:0:0:0:
329,192,68439,128,0,68689:0:0:0:0:
36,192,68689,128,0,68939:0:0:0:0:
182,192,68939,128,0,69189:0:0:0:0:
402,192,69189,128,0,69523:0:0:0:0:
475,192,69189,128,0,69523:0:0:0:0:
109,192,69356,128,0,69523:0:0:0:0:
256,192,69439,128,0,69523:0:0:0:0:
182,192,69523,128,0,69773:0:0:0:0:
36,192,69773,128,0,70023:0:0:0:0:
329,192,70023,128,0,70273:0:0:0:0:
182,192,70273,128,0,70523:0:0:0:0:
475,192,70523,128,0,70856:0:0:0:0:
329,192,70689,128,0,70856:0:0:0:0:
402,192,70773,128,0,70856:0:0:0:0:
36,192,84189,5,0,0:0:0:0:
475,192,84189,1,0,0:0:0:0:
109,192,84273,1,0,0:0:0:0:
402,192,84273,1,0,0:0:0:0:
182,192,84356,1,0,0:0:0:0:
329,192,84356,1,0,0:0:0:0:
109,192,84439,1,0,0:0:0:0:
402,192,84439,1,0,0:0:0:0:
182,192,84523,1,0,0:0:0:0:
329,192,84523,1,0,0:0:0:0:
329,192,84606,1,0,0:0:0:0:
182,192,84606,1,0,0:0:0:0:
36,192,84689,1,0,0:0:0:0:
475,192,84689,1,0,0:0:0:0:
109,192,84773,1,0,0:0:0:0:
402,192,84773,1,0,0:0:0:0:
182,192,84856,1,0,0:0:0:0:
329,192,84856,1,0,0:0:0:0:
36,192,84939,1,0,0:0:0:0:
475,192,84939,1,0,0:0:0:0:
109,192,85023,1,0,0:0:0:0:
402,192,85023,1,0,0:0:0:0:
109,192,85106,1,0,0:0:0:0:
402,192,85106,1,0,0:0:0:0:
182,192,85189,128,0,85523:0:0:0:0:
329,192,85189,128,0,85523:0:0:0:0:
36,192,85273,128,0,85439:0:0:0:0:
475,192,85273,128,0,85439:0:0:0:0:
36,192,85523,1,0,0:0:0:0:
256,192,85523,1,0,0:0:0:0:
109,192,85523,1,0,0:0:0:0:
402,192,85523,1,0,0:0:0:0:
475,192,85523,1,0,0:0:0:0:
109,192,106523,132,0,106856:0:0:0:0:
402,192,106523,128,0,106856:0:0:0:0:
182,192,106523,1,0,0:0:0:0:
36,192,106523,1,0,0:0:0:0:
329,192,106523,1,0,0:0:0:0:
475,192,106523,1,0,0:0:0:0:
256,192,106856,1,0,0:0:0:0:
182,192,106856,1,0,0:0:0:0:
329,192,106856,1,0,0:0:0:0:
475,192,106856,1,0,0:0:0:0:
36,192,106856,1,0,0:0:0:0:
256,192,134189,132,0,139523:0:0:0:0:
36,192,136189,128,0,136523:0:0:0:0:
475,192,136523,128,0,137023:0:0:0:0:
36,192,136689,128,0,137523:0:0:0:0:
182,192,137023,128,0,137523:0:0:0:0:
329,192,137189,128,0,137523:0:0:0:0:
475,192,137356,128,0,137523:0:0:0:0:
109,192,137523,128,0,139523:0:0:0:0:
402,192,137523,128,0,139523:0:0:0:0:
329,192,138162,1,0,2:0:0:0:
182,192,138162,1,0,2:0:0:0:
36,192,138189,128,0,139523:2:0:0:0:
475,192,138189,128,0,139523:2:0:0:0:
