osu file format v13

[General]
AudioFilename: candy vox.mp3
AudioLeadIn: 0
PreviewTime: 84189
Countdown: 0
SampleSet: Normal
StackLeniency: 0.7
Mode: 3
LetterboxInBreaks: 0
SpecialStyle: 0
WidescreenStoryboard: 1

[Editor]
DistanceSpacing: 1
BeatDivisor: 1
GridSize: 4
TimelineZoom: 1.6

[Metadata]
Title:CANDY VOX
TitleUnicode:CANDY♥VOX
Artist:P*Light
ArtistUnicode:P★Light
Creator:Kuo Kyoka
Version:7K BASIC Lv.6
Source:
Tags:Happy Hardcore HAPPYMAKER arcwinolivirus YunoFanatic ExPew Lunatic Raccoon [Shana_Lesus] puxtu ArcherLove Fullerene- Shinzo- lZenxl
BeatmapID:500556
BeatmapSetID:212823

[Difficulty]
HPDrainRate:6
CircleSize:7
OverallDifficulty:6
ApproachRate:5
SliderMultiplier:1.4
SliderTickRate:1

[Events]
//Background and Video events
0,0,"background.png",0,0
//Break Periods
//Storyboard Layer 0 (Background)
//Storyboard Layer 1 (Fail)
//Storyboard Layer 2 (Pass)
//Storyboard Layer 3 (Foreground)
//Storyboard Sound Samples
//Background Colour Transformations
3,100,163,162,255

[TimingPoints]
190,333.333333333333,4,1,0,100,1,0
21523,-100,4,1,0,100,0,1
21689,-100,4,1,0,100,0,0
32523,-100,4,1,0,100,0,1
32689,-100,4,1,0,100,0,0
64189,-100,4,1,0,100,0,1
74523,-100,4,1,0,100,0,0
74856,-100,4,1,0,100,0,1
84189,-100,4,1,0,100,0,0
85523,-100,4,1,0,100,0,1
95856,-100,4,1,0,100,0,0
96189,-100,4,1,0,100,0,1
106856,-100,4,1,0,100,0,0

[HitObjects]
36,192,190,5,0,0:0:0:0:
475,192,190,1,0,0:0:0:0:
329,192,523,1,0,0:0:0:0:
329,192,1189,1,0,0:0:0:0:
256,192,1523,1,0,0:0:0:0:
182,192,1856,1,0,0:0:0:0:
182,192,2523,1,0,0:0:0:0:
475,192,2856,1,0,0:0:0:0:
402,192,3189,1,0,0:0:0:0:
402,192,3856,1,0,0:0:0:0:
475,192,4189,1,0,0:0:0:0:
109,192,4523,1,0,0:0:0:0:
109,192,5189,1,0,0:0:0:0:
36,192,5523,1,0,0:0:0:0:
475,192,5856,1,0,0:0:0:0:
475,192,6523,1,0,0:0:0:0:
256,192,6856,1,0,0:0:0:0:
36,192,7189,1,0,0:0:0:0:
36,192,7856,1,0,0:0:0:0:
475,192,8189,1,0,0:0:0:0:
256,192,8523,1,0,0:0:0:0:
256,192,9189,1,0,0:0:0:0:
109,192,9523,128,0,10523:0:0:0:0:
402,192,9523,128,0,10523:0:0:0:0:
182,192,10523,1,0,0:0:0:0:
329,192,10523,1,0,0:0:0:0:
36,192,10856,1,0,0:0:0:0:
475,192,10856,1,0,0:0:0:0:
182,192,11189,1,0,0:0:0:0:
109,192,11523,1,0,0:0:0:0:
329,192,11856,1,0,0:0:0:0:
256,192,12189,1,0,0:0:0:0:
182,192,12523,1,0,0:0:0:0:
329,192,12856,1,0,0:0:0:0:
256,192,13189,1,0,0:0:0:0:
402,192,13523,1,0,0:0:0:0:
36,192,13856,1,0,0:0:0:0:
182,192,14189,1,0,0:0:0:0:
109,192,14523,1,0,0:0:0:0:
475,192,14856,1,0,0:0:0:0:
402,192,15189,1,0,0:0:0:0:
36,192,15523,1,0,0:0:0:0:
256,192,15856,1,0,0:0:0:0:
109,192,16189,1,0,0:0:0:0:
329,192,16523,128,0,16856:0:0:0:0:
182,192,16856,1,0,0:0:0:0:
256,192,17189,128,0,17523:0:0:0:0:
402,192,17523,1,0,0:0:0:0:
36,192,17856,128,0,18189:0:0:0:0:
182,192,18189,128,0,18523:0:0:0:0:
36,192,18523,128,0,18856:0:0:0:0:
329,192,18856,128,0,20189:0:0:0:0:
475,192,18856,128,0,20189:0:0:0:0:
109,192,20189,1,0,0:0:0:0:
182,192,20523,1,0,0:0:0:0:
36,192,20856,128,0,21189:0:0:0:0:
475,192,21189,1,0,0:0:0:0:
402,192,21189,1,0,0:0:0:0:
109,192,21523,1,0,0:0:0:0:
36,192,21523,1,0,0:0:0:0:
256,192,21856,1,0,0:0:0:0:
182,192,22189,1,0,0:0:0:0:
329,192,22523,1,0,0:0:0:0:
256,192,22856,1,0,0:0:0:0:
329,192,23189,1,0,0:0:0:0:
475,192,23523,1,0,0:0:0:0:
36,192,23856,1,0,0:0:0:0:
182,192,24189,1,0,0:0:0:0:
329,192,24523,1,0,0:0:0:0:
109,192,24856,1,0,0:0:0:0:
256,192,25189,1,0,0:0:0:0:
182,192,25523,1,0,0:0:0:0:
402,192,25856,1,0,0:0:0:0:
329,192,26189,1,0,0:0:0:0:
36,192,26523,1,0,0:0:0:0:
109,192,26856,1,0,0:0:0:0:
256,192,27189,1,0,0:0:0:0:
182,192,27523,1,0,0:0:0:0:
475,192,27856,1,0,0:0:0:0:
402,192,28189,1,0,0:0:0:0:
36,192,28523,1,0,0:0:0:0:
182,192,28856,1,0,0:0:0:0:
109,192,29189,1,0,0:0:0:0:
256,192,29523,1,0,0:0:0:0:
182,192,29856,1,0,0:0:0:0:
475,192,30189,1,0,0:0:0:0:
36,192,30523,1,0,0:0:0:0:
329,192,30856,1,0,0:0:0:0:
109,192,31189,1,0,0:0:0:0:
402,192,31523,1,0,0:0:0:0:
402,192,31689,1,0,0:0:0:0:
182,192,31856,128,0,32523:0:0:0:0:
36,192,32523,1,0,0:0:0:0:
256,192,32523,1,0,0:0:0:0:
329,192,32856,1,0,0:0:0:0:
475,192,33189,1,0,0:0:0:0:
402,192,33523,1,0,0:0:0:0:
109,192,33856,1,0,0:0:0:0:
182,192,34189,1,0,0:0:0:0:
36,192,34523,1,0,0:0:0:0:
256,192,34856,1,0,0:0:0:0:
109,192,35189,1,0,0:0:0:0:
182,192,35523,1,0,0:0:0:0:
402,192,35856,1,0,0:0:0:0:
329,192,36189,1,0,0:0:0:0:
256,192,36523,1,0,0:0:0:0:
475,192,36856,1,0,0:0:0:0:
402,192,37189,1,0,0:0:0:0:
36,192,37523,1,0,0:0:0:0:
182,192,37856,1,0,0:0:0:0:
109,192,38189,1,0,0:0:0:0:
256,192,38523,1,0,0:0:0:0:
329,192,38856,1,0,0:0:0:0:
402,192,39189,1,0,0:0:0:0:
475,192,39523,1,0,0:0:0:0:
256,192,39856,1,0,0:0:0:0:
182,192,40189,128,0,41523:0:0:0:0:
109,192,40523,1,0,0:0:0:0:
36,192,40856,1,0,0:0:0:0:
475,192,41189,1,0,0:0:0:0:
402,192,41523,128,0,42856:0:0:0:0:
109,192,42523,128,0,42856:0:0:0:0:
36,192,42856,1,0,0:0:0:0:
182,192,42856,1,0,0:0:0:0:
256,192,43356,1,0,0:0:0:0:
329,192,43856,1,0,0:0:0:0:
36,192,44189,1,0,0:0:0:0:
256,192,44689,1,0,0:0:0:0:
475,192,45189,1,0,0:0:0:0:
109,192,45523,1,0,0:0:0:0:
256,192,46023,1,0,0:0:0:0:
402,192,46523,1,0,0:0:0:0:
182,192,46856,1,0,0:0:0:0:
329,192,47356,128,0,48189:0:0:0:0:
36,192,48189,1,0,0:0:0:0:
109,192,48689,1,0,0:0:0:0:
256,192,49189,1,0,0:0:0:0:
475,192,49523,1,0,0:0:0:0:
402,192,50023,1,0,0:0:0:0:
256,192,50523,1,0,0:0:0:0:
36,192,50856,1,0,0:0:0:0:
182,192,51356,1,0,0:0:0:0:
329,192,51856,1,0,0:0:0:0:
475,192,52189,1,0,0:0:0:0:
256,192,52689,128,0,53523:0:0:0:0:
109,192,53523,1,0,0:0:0:0:
36,192,53523,1,0,0:0:0:0:
256,192,53856,1,0,0:0:0:0:
182,192,54189,1,0,0:0:0:0:
329,192,54523,1,0,0:0:0:0:
256,192,54856,1,0,0:0:0:0:
402,192,55189,1,0,0:0:0:0:
329,192,55523,1,0,0:0:0:0:
475,192,55856,1,0,0:0:0:0:
402,192,56189,1,0,0:0:0:0:
109,192,56189,1,0,0:0:0:0:
182,192,56523,1,0,0:0:0:0:
256,192,56856,1,0,0:0:0:0:
329,192,57189,1,0,0:0:0:0:
36,192,57523,1,0,0:0:0:0:
109,192,57856,1,0,0:0:0:0:
182,192,58189,1,0,0:0:0:0:
256,192,58523,1,0,0:0:0:0:
475,192,58856,1,0,0:0:0:0:
109,192,59189,1,0,0:0:0:0:
329,192,59523,1,0,0:0:0:0:
182,192,59856,1,0,0:0:0:0:
36,192,60189,1,0,0:0:0:0:
256,192,60523,1,0,0:0:0:0:
402,192,60856,1,0,0:0:0:0:
475,192,61189,1,0,0:0:0:0:
109,192,61523,128,0,62856:0:0:0:0:
402,192,62189,128,0,62856:0:0:0:0:
329,192,62856,1,0,0:0:0:0:
182,192,62856,1,0,0:0:0:0:
36,192,63856,1,0,0:0:0:0:
475,192,63856,1,0,0:0:0:0:
109,192,64189,1,0,0:0:0:0:
402,192,64189,1,0,0:0:0:0:
256,192,64523,1,0,0:0:0:0:
182,192,64856,1,0,0:0:0:0:
36,192,65189,1,0,0:0:0:0:
109,192,65523,1,0,0:0:0:0:
329,192,65856,1,0,0:0:0:0:
256,192,66189,1,0,0:0:0:0:
475,192,66523,1,0,0:0:0:0:
182,192,66856,1,0,0:0:0:0:
402,192,67189,1,0,0:0:0:0:
329,192,67523,1,0,0:0:0:0:
36,192,67856,1,0,0:0:0:0:
109,192,68189,1,0,0:0:0:0:
182,192,68523,1,0,0:0:0:0:
475,192,68856,1,0,0:0:0:0:
36,192,69189,128,0,69523:0:0:0:0:
182,192,69523,1,0,0:0:0:0:
329,192,69856,1,0,0:0:0:0:
109,192,70189,1,0,0:0:0:0:
256,192,70523,1,0,0:0:0:0:
402,192,70856,1,0,0:0:0:0:
475,192,71189,1,0,0:0:0:0:
329,192,71523,1,0,0:0:0:0:
182,192,71856,1,0,0:0:0:0:
36,192,72189,1,0,0:0:0:0:
109,192,72523,1,0,0:0:0:0:
256,192,72856,1,0,0:0:0:0:
402,192,73189,1,0,0:0:0:0:
475,192,73523,1,0,0:0:0:0:
182,192,73523,1,0,0:0:0:0:
329,192,73856,1,0,0:0:0:0:
36,192,74189,1,0,0:0:0:0:
36,192,74356,1,0,0:0:0:0:
256,192,74523,128,0,74856:0:0:0:0:
109,192,74856,1,0,0:0:0:0:
402,192,74856,1,0,0:0:0:0:
182,192,75189,1,0,0:0:0:0:
329,192,75523,1,0,0:0:0:0:
256,192,75856,1,0,0:0:0:0:
36,192,76189,1,0,0:0:0:0:
182,192,76523,1,0,0:0:0:0:
329,192,76856,1,0,0:0:0:0:
475,192,77189,1,0,0:0:0:0:
256,192,77523,1,0,0:0:0:0:
109,192,77856,1,0,0:0:0:0:
182,192,78189,1,0,0:0:0:0:
36,192,78523,1,0,0:0:0:0:
402,192,78856,1,0,0:0:0:0:
256,192,79189,1,0,0:0:0:0:
109,192,79523,1,0,0:0:0:0:
329,192,79856,128,0,80189:0:0:0:0:
475,192,80189,1,0,0:0:0:0:
182,192,80523,1,0,0:0:0:0:
36,192,80856,1,0,0:0:0:0:
256,192,81189,1,0,0:0:0:0:
402,192,81523,1,0,0:0:0:0:
109,192,81856,1,0,0:0:0:0:
256,192,82189,1,0,0:0:0:0:
329,192,82523,1,0,0:0:0:0:
475,192,82856,128,0,84189:0:0:0:0:
182,192,83189,1,0,0:0:0:0:
36,192,83523,1,0,0:0:0:0:
256,192,83856,1,0,0:0:0:0:
109,192,84189,128,0,85189:0:0:0:0:
402,192,85189,128,0,85523:0:0:0:0:
182,192,85523,1,0,0:0:0:0:
36,192,85523,1,0,0:0:0:0:
256,192,85856,1,0,0:0:0:0:
329,192,86189,1,0,0:0:0:0:
475,192,86523,1,0,0:0:0:0:
402,192,86856,1,0,0:0:0:0:
109,192,87189,1,0,0:0:0:0:
182,192,87523,1,0,0:0:0:0:
36,192,87856,1,0,0:0:0:0:
109,192,88189,1,0,0:0:0:0:
329,192,88523,1,0,0:0:0:0:
182,192,88856,1,0,0:0:0:0:
402,192,89189,1,0,0:0:0:0:
475,192,89523,1,0,0:0:0:0:
256,192,89856,1,0,0:0:0:0:
36,192,90189,1,0,0:0:0:0:
109,192,90523,1,0,0:0:0:0:
402,192,90856,1,0,0:0:0:0:
329,192,91189,1,0,0:0:0:0:
182,192,91523,1,0,0:0:0:0:
475,192,91856,1,0,0:0:0:0:
329,192,92189,1,0,0:0:0:0:
256,192,92523,1,0,0:0:0:0:
36,192,92856,1,0,0:0:0:0:
109,192,93189,1,0,0:0:0:0:
402,192,93523,1,0,0:0:0:0:
329,192,93856,1,0,0:0:0:0:
182,192,94189,1,0,0:0:0:0:
475,192,94523,1,0,0:0:0:0:
329,192,94856,1,0,0:0:0:0:
36,192,95189,1,0,0:0:0:0:
182,192,95523,1,0,0:0:0:0:
109,192,95689,1,0,0:0:0:0:
256,192,95856,1,0,0:0:0:0:
329,192,96023,1,0,0:0:0:0:
36,192,96189,1,0,0:0:0:0:
475,192,96189,1,0,0:0:0:0:
182,192,96523,1,0,0:0:0:0:
109,192,96856,1,0,0:0:0:0:
329,192,97189,1,0,0:0:0:0:
402,192,97523,1,0,0:0:0:0:
256,192,97856,1,0,0:0:0:0:
36,192,98189,1,0,0:0:0:0:
182,192,98523,1,0,0:0:0:0:
329,192,98856,1,0,0:0:0:0:
475,192,99189,1,0,0:0:0:0:
109,192,99523,1,0,0:0:0:0:
256,192,99856,1,0,0:0:0:0:
182,192,100189,1,0,0:0:0:0:
36,192,100523,1,0,0:0:0:0:
329,192,100856,1,0,0:0:0:0:
475,192,101189,1,0,0:0:0:0:
109,192,101523,128,0,102856:0:0:0:0:
402,192,101856,1,0,0:0:0:0:
329,192,102189,1,0,0:0:0:0:
475,192,102523,1,0,0:0:0:0:
256,192,102856,128,0,104189:0:0:0:0:
36,192,103189,1,0,0:0:0:0:
182,192,103523,1,0,0:0:0:0:
109,192,103856,1,0,0:0:0:0:
402,192,104189,128,0,105523:0:0:0:0:
256,192,104523,1,0,0:0:0:0:
182,192,104856,1,0,0:0:0:0:
329,192,105189,1,0,0:0:0:0:
475,192,105523,1,0,0:0:0:0:
36,192,105523,128,0,106856:0:0:0:0:
256,192,106523,128,0,106856:0:0:0:0:
475,192,106523,1,0,0:0:0:0:
182,192,106856,1,0,0:0:0:0:
329,192,106856,1,0,0:0:0:0:
109,192,107189,1,0,0:0:0:0:
36,192,107523,1,0,0:0:0:0:
182,192,107856,1,0,0:0:0:0:
329,192,108189,1,0,0:0:0:0:
475,192,108523,1,0,0:0:0:0:
402,192,108856,1,0,0:0:0:0:
109,192,109189,1,0,0:0:0:0:
182,192,109523,1,0,0:0:0:0:
36,192,109856,1,0,0:0:0:0:
256,192,110189,1,0,0:0:0:0:
475,192,110523,1,0,0:0:0:0:
402,192,110856,1,0,0:0:0:0:
109,192,111189,1,0,0:0:0:0:
256,192,111523,1,0,0:0:0:0:
182,192,111856,128,0,112189:0:0:0:0:
36,192,112189,1,0,0:0:0:0:
329,192,112523,1,0,0:0:0:0:
475,192,112856,1,0,0:0:0:0:
402,192,113189,1,0,0:0:0:0:
182,192,113523,1,0,0:0:0:0:
256,192,113856,1,0,0:0:0:0:
109,192,114189,1,0,0:0:0:0:
329,192,114523,1,0,0:0:0:0:
182,192,114856,1,0,0:0:0:0:
256,192,115189,1,0,0:0:0:0:
475,192,115523,1,0,0:0:0:0:
402,192,115856,1,0,0:0:0:0:
36,192,116189,1,0,0:0:0:0:
182,192,116523,1,0,0:0:0:0:
109,192,116856,1,0,0:0:0:0:
329,192,117189,1,0,0:0:0:0:
329,192,117356,1,0,0:0:0:0:
475,192,117523,1,0,0:0:0:0:
36,192,117523,1,0,0:0:0:0:
182,192,117856,1,0,0:0:0:0:
36,192,118189,1,0,0:0:0:0:
256,192,118523,1,0,0:0:0:0:
109,192,118856,1,0,0:0:0:0:
329,192,119189,1,0,0:0:0:0:
402,192,119523,1,0,0:0:0:0:
182,192,119856,1,0,0:0:0:0:
256,192,120189,1,0,0:0:0:0:
475,192,120523,1,0,0:0:0:0:
109,192,120856,1,0,0:0:0:0:
329,192,121189,1,0,0:0:0:0:
182,192,121523,1,0,0:0:0:0:
36,192,121856,1,0,0:0:0:0:
256,192,122189,1,0,0:0:0:0:
109,192,122523,1,0,0:0:0:0:
402,192,122856,128,0,124189:0:0:0:0:
182,192,123189,1,0,0:0:0:0:
36,192,123523,1,0,0:0:0:0:
109,192,123856,1,0,0:0:0:0:
256,192,124189,128,0,125523:0:0:0:0:
475,192,124523,1,0,0:0:0:0:
329,192,124856,1,0,0:0:0:0:
402,192,125189,1,0,0:0:0:0:
109,192,125523,128,0,126856:0:0:0:0:
329,192,125856,1,0,0:0:0:0:
475,192,126189,1,0,0:0:0:0:
402,192,126523,1,0,0:0:0:0:
36,192,126856,1,0,0:0:0:0:
329,192,126856,1,0,0:0:0:0:
109,192,127856,128,0,128189:0:0:0:0:
402,192,127856,128,0,128189:0:0:0:0:
36,192,128189,1,0,0:0:0:0:
475,192,128189,1,0,0:0:0:0:
256,192,128523,1,0,0:0:0:0:
182,192,128856,1,0,0:0:0:0:
329,192,129189,1,0,0:0:0:0:
475,192,129523,1,0,0:0:0:0:
256,192,129856,1,0,0:0:0:0:
36,192,130189,1,0,0:0:0:0:
182,192,130523,1,0,0:0:0:0:
109,192,130856,1,0,0:0:0:0:
329,192,131189,1,0,0:0:0:0:
475,192,131523,1,0,0:0:0:0:
402,192,131856,1,0,0:0:0:0:
182,192,132189,1,0,0:0:0:0:
256,192,132523,1,0,0:0:0:0:
36,192,132856,1,0,0:0:0:0:
109,192,133189,1,0,0:0:0:0:
329,192,133523,1,0,0:0:0:0:
475,192,133856,1,0,0:0:0:0:
182,192,134189,1,0,0:0:0:0:
329,192,134523,1,0,0:0:0:0:
256,192,134856,1,0,0:0:0:0:
36,192,135189,1,0,0:0:0:0:
182,192,135523,1,0,0:0:0:0:
329,192,135856,1,0,0:0:0:0:
475,192,136189,128,0,137523:0:0:0:0:
36,192,136523,1,0,0:0:0:0:
182,192,136856,1,0,0:0:0:0:
402,192,137189,1,0,0:0:0:0:
256,192,137523,1,0,0:0:0:0:
256,192,138189,128,0,139523:0:0:0:0:
