osu file format v14

[General]
AudioFilename: BUBBLE RAVER.mp3
AudioLeadIn: 0
PreviewTime: -1
Countdown: 1
SampleSet: Normal
StackLeniency: 0.7
Mode: 0
LetterboxInBreaks: 1
WidescreenStoryboard: 0

[Editor]
Bookmarks: 33206,33896,39068,42172,44930,61482,66999,75965,76482,80793,82172,91827,104241
DistanceSpacing: 1.2
BeatDivisor: 4
GridSize: 4
TimelineZoom: 1

[Metadata]
Title:Bubble Raver
TitleUnicode:Bubble Raver
Artist:P*Light
ArtistUnicode:P*Light
Creator:Teras
Version::^ )
Source:
Tags:
BeatmapID:653935
BeatmapSetID:290240

[Difficulty]
HPDrainRate:7
CircleSize:4
OverallDifficulty:8
ApproachRate:9
SliderMultiplier:2
SliderTickRate:1

[Events]
//Background and Video events
0,0,"wallpaper1-2205390.jpg",0,0
//Break Periods
//Storyboard Layer 0 (Background)
//Storyboard Layer 1 (Fail)
//Storyboard Layer 2 (Pass)
//Storyboard Layer 3 (Foreground)
//Storyboard Sound Samples

[TimingPoints]
793,344.827586206897,4,3,0,50,1,0
6310,-100,4,2,1,80,0,0
11827,-100,4,3,0,80,0,1
14499,-100,4,2,0,80,0,1
14672,-100,4,3,0,80,0,1
16913,-50,4,3,0,80,0,1
17258,-100,4,1,0,80,0,1
17430,-100,4,3,0,80,0,1
22861,-100,4,1,0,80,0,0
22948,-100,4,3,0,80,0,0
25620,-100,4,1,0,80,0,0
25706,-100,4,3,0,80,0,0
27991,-50,4,2,0,80,0,0
28249,-100,4,1,0,80,0,0
28465,-100,4,1,0,80,0,0
28594,-100,4,3,0,80,0,0
28853,-100,4,1,0,80,0,0
28939,-100,4,3,0,80,0,0
29155,-100,4,1,0,80,0,0
29327,-100,4,3,0,80,0,0
29499,-100,4,1,0,80,0,0
29672,-100,4,3,0,80,0,0
33810,-100,4,1,0,80,0,0
33982,-100,4,2,0,50,0,0
33982,-100,4,3,0,50,0,0
39068,-100,4,1,0,80,0,0
45017,-100,4,3,5,80,0,0
50060,-50,4,2,0,80,0,0
50361,-100,4,3,5,80,0,0
58637,-100,4,2,5,80,0,0
58810,-100,4,3,5,80,0,0
62775,-100,4,1,5,80,0,0
62905,-100,4,3,5,80,0,0
63810,-50,4,3,0,80,0,0
64155,-50,4,1,0,80,0,0
64327,-100,4,3,0,80,0,0
76224,-200,4,3,0,80,0,0
76741,-100,4,3,0,80,0,0
83551,-100,4,2,0,80,0,1
83637,-100,4,3,0,80,0,1
88680,-50,4,3,0,80,0,1
88982,-100,4,2,0,80,0,1
89155,-100,4,3,0,80,0,1
91741,-100,4,2,0,80,0,1
91913,-100,4,3,0,80,0,1
93163,-100,4,2,0,80,0,1
93249,-100,4,3,0,80,0,1
93422,-100,4,2,0,80,0,1
93508,-100,4,3,0,80,0,1
94586,-100,4,2,0,80,0,0
94629,-100,4,3,0,80,0,0
100060,-100,4,2,0,80,0,0
100146,-100,4,3,0,80,0,0
102948,-100,4,2,5,80,0,0
104844,-100,4,3,0,80,0,0
106935,-100,4,3,0,20,0,0
107086,-100,4,2,0,80,0,0

[HitObjects]
152,263,793,6,0,L|281:277,1,100,4|0,0:0|0:0,0:0:0:0:
386,337,1137,1,2,0:0:0:0:
405,332,1224,1,0,0:0:0:0:
424,328,1310,1,0,0:0:0:0:
319,70,1482,1,0,0:0:0:0:
338,73,1568,1,0,0:0:0:0:
357,76,1655,1,2,0:0:0:0:
275,189,1827,1,0,0:0:0:0:
137,164,1999,1,0,0:0:0:0:
226,80,2172,2,0,L|343:64,1,100,2|0,0:0|0:0,0:0:0:0:
468,243,2517,2,0,L|347:282,1,100,2|0,0:0|0:0,0:0:0:0:
372,273,2775,1,0,0:0:0:0:
372,273,2861,1,0,0:0:0:0:
254,349,3034,1,8,0:0:0:0:
98,303,3206,5,2,0:0:0:0:
91,283,3293,1,2,0:0:0:0:
84,264,3379,1,2,0:0:0:0:
77,245,3465,1,2,0:0:0:0:
71,225,3551,1,4,0:0:0:0:
212,46,3724,2,0,L|102:56,1,100
258,166,4068,1,0,0:0:0:0:
258,166,4155,1,0,0:0:0:0:
258,166,4241,1,0,0:0:0:0:
368,80,4413,1,0,0:0:0:0:
426,163,4586,1,0,0:0:0:0:
422,182,4672,1,0,0:0:0:0:
417,201,4758,1,0,0:0:0:0:
412,220,4844,1,0,0:0:0:0:
407,239,4930,2,0,L|297:260,1,100,2|0,0:0|0:0,0:0:0:0:
96,124,5275,6,0,L|209:106,1,100,8|0,0:0|0:0,0:0:0:0:
96,124,5620,1,2,0:0:0:0:
89,142,5706,1,0,0:0:0:0:
81,156,5793,1,0,0:0:0:0:
120,289,5965,1,2,0:0:0:0:
154,308,6051,1,2,0:0:0:0:
192,298,6137,1,2,0:0:0:0:
229,282,6224,1,2,0:0:0:0:
264,300,6310,2,0,P|311:326|365:356,1,100,4|0,0:0|0:0,0:0:0:0:
467,90,6655,1,2,0:0:0:0:
374,271,6827,1,0,0:0:0:0:
245,118,6999,2,0,L|206:87,3,50
245,118,7344,2,0,P|205:153|138:167,1,100,2|0,0:0|0:0,0:0:0:0:
67,61,7689,1,4,0:0:0:0:
244,119,7861,5,0,0:0:0:0:
244,119,7948,1,0,0:0:0:0:
244,119,8034,1,2,0:0:0:0:
92,291,8206,1,0,0:0:0:0:
227,328,8379,1,2,0:0:0:0:
236,310,8465,1,2,0:0:0:0:
245,292,8551,1,2,0:0:0:0:
254,274,8637,1,2,0:0:0:0:
264,256,8724,2,0,L|387:262,1,100,2|0,0:0|0:0,0:0:0:0:
362,260,9068,1,4,0:0:0:0:
300,112,9241,5,0,0:0:0:0:
172,207,9413,1,0,0:0:0:0:
383,272,9586,1,0,0:0:0:0:
309,89,9758,1,2,0:0:0:0:
245,74,9844,1,2,0:0:0:0:
183,55,9930,1,2,0:0:0:0:
118,40,10017,1,2,0:0:0:0:
53,39,10103,2,0,B|24:100|52:147|52:147|23:240,1,200,4|0,0:0|0:0,0:0:0:0:
264,215,10620,1,2,0:0:0:0:
77,290,10793,1,8,0:0:0:0:
166,320,10965,1,0,0:0:0:0:
369,300,11137,1,2,0:0:0:0:
387,292,11224,1,0,0:0:0:0:
405,284,11310,1,2,0:0:0:0:
397,265,11396,1,0,0:0:0:0:
388,247,11482,2,0,P|369:156|439:65,1,200,0|4,0:0|0:0,0:0:0:0:
461,165,11999,5,0,0:0:0:0:
296,58,12172,1,2,0:0:0:0:
249,95,12258,1,0,0:0:0:0:
191,110,12344,1,0,0:0:0:0:
138,81,12430,1,0,0:0:0:0:
109,27,12517,2,0,P|45:48|17:148,1,150,8|0,0:0|0:0,0:0:0:0:
42,170,12861,2,0,P|85:217|79:285,1,100,2|0,0:0|0:0,0:0:0:0:
346,328,13206,1,4,0:0:0:0:
121,345,13379,1,0,0:0:0:0:
220,187,13551,1,2,0:0:0:0:
259,182,13637,1,0,0:0:0:0:
292,204,13724,1,0,0:0:0:0:
326,223,13810,1,0,0:0:0:0:
364,212,13896,2,0,P|410:189|453:123,1,100,2|0,0:0|0:0,0:0:0:0:
164,100,14241,2,0,P|98:138|78:164,1,100,2|0,0:0|0:0,0:0:0:0:
255,280,14586,5,4,0:0:0:0:
415,161,14758,1,0,0:0:0:0:
257,38,14930,1,0,0:0:0:0:
96,158,15103,1,0,0:0:0:0:
387,275,15275,2,0,L|283:307,1,100
292,248,15534,2,0,L|144:292,1,150,2|0,0:0|0:0,0:0:0:0:
148,290,15879,1,0,0:0:0:0:
148,290,15965,1,0,0:0:0:0:
74,95,16137,1,0,0:0:0:0:
154,93,16310,1,0,0:0:0:0:
232,79,16482,1,0,0:0:0:0:
311,89,16655,2,0,L|407:49,1,100
253,188,16999,2,0,L|49:224,1,200
56,222,17344,1,4,0:0:0:0:
302,313,17517,5,2,0:0:0:0:
447,298,17689,1,0,0:0:0:0:
478,234,17775,1,0,0:0:0:0:
449,173,17861,1,2,0:0:0:0:
428,109,17948,1,0,0:0:0:0:
365,87,18034,2,0,L|214:128,1,150,8|0,0:0|0:0,0:0:0:0:
263,70,18379,2,0,L|136:104,1,100,0|2,0:0|0:0,0:0:0:0:
34,47,18724,1,0,0:0:0:0:
99,324,18896,1,2,0:0:0:0:
237,337,19068,2,0,L|213:290,1,50
307,306,19241,2,0,L|266:253,1,50,2|0,0:0|0:0,0:0:0:0:
276,266,19413,2,0,P|324:226|416:256,1,150
437,305,19758,2,0,P|402:263|419:181,1,100,0|2,0:0|0:0,0:0:0:0:
457,91,20103,5,4,0:0:0:0:
457,91,20189,1,0,0:0:0:0:
457,91,20275,1,2,0:0:0:0:
317,71,20448,1,0,0:0:0:0:
273,125,20534,1,0,0:0:0:0:
239,189,20620,1,2,0:0:0:0:
168,185,20706,1,0,0:0:0:0:
103,155,20793,1,0,0:0:0:0:
139,20,20965,1,2,0:0:0:0:
103,155,21137,2,0,P|86:214|68:261,1,100,0|2,0:0|0:0,0:0:0:0:
63,290,21396,1,0,0:0:0:0:
124,296,21482,2,0,L|184:295,1,50
450,334,21741,2,0,L|373:343,1,50,8|0,0:0|0:0,0:0:0:0:
214,23,21999,6,0,L|191:70,1,50,2|0,0:0|0:0,0:0:0:0:
112,57,22172,2,0,L|134:11,1,50,2|0,0:0|0:0,0:0:0:0:
61,115,22344,2,0,L|75:162,1,50,2|0,0:0|0:0,0:0:0:0:
156,172,22517,2,0,L|139:104,1,50,2|0,0:0|0:0,0:0:0:0:
195,56,22689,1,0,0:0:0:0:
261,36,22775,1,0,0:0:0:0:
329,49,22861,2,0,P|382:81|436:101,1,100,4|0,0:0|0:0,0:0:0:0:
335,329,23206,5,0,0:0:0:0:
294,333,23293,1,0,0:0:0:0:
258,314,23379,1,2,0:0:0:0:
227,339,23465,1,0,0:0:0:0:
188,348,23551,2,0,P|125:344|86:303,1,100,0|2,0:0|0:0,0:0:0:0:
122,290,23810,2,0,P|77:255|93:169,1,150,0|2,0:0|0:0,0:0:0:0:
39,38,24241,5,0,0:0:0:0:
86,52,24327,1,0,0:0:0:0:
134,61,24413,1,2,0:0:0:0:
183,54,24499,1,0,0:0:0:0:
232,42,24586,1,0,0:0:0:0:
281,40,24672,1,0,0:0:0:0:
329,49,24758,1,2,0:0:0:0:
375,68,24844,1,0,0:0:0:0:
424,66,24930,2,0,L|471:23,2,50,0|0|2,0:0|0:0|0:0,0:0:0:0:
434,115,25189,1,0,0:0:0:0:
419,162,25275,2,0,P|391:218|409:298,1,100,0|2,0:0|0:0,0:0:0:0:
419,162,25620,6,0,P|362:161|307:149,1,100,4|2,0:0|0:0,0:0:0:0:
107,190,25965,1,0,0:0:0:0:
244,331,26137,1,2,0:0:0:0:
429,279,26310,1,0,0:0:0:0:
317,252,26482,1,2,0:0:0:0:
321,202,26568,2,0,L|216:228,1,100
230,276,26827,2,0,L|121:309,1,100,2|0,0:0|0:0,0:0:0:0:
51,96,27172,1,2,0:0:0:0:
137,46,27344,1,0,0:0:0:0:
137,146,27517,1,2,0:0:0:0:
219,91,27689,2,0,L|366:38,1,150
395,75,28034,2,0,B|421:132|386:190|386:190|440:242|478:177,1,200,4|0,0:0|0:0,0:0:0:0:
451,303,28379,1,4,0:0:0:0:
354,326,28551,5,0,0:0:0:0:
326,314,28637,1,0,0:0:0:0:
295,312,28724,1,0,0:0:0:0:
266,320,28810,1,0,0:0:0:0:
236,321,28896,2,0,L|103:317,1,100
43,131,29241,2,0,L|177:146,1,100
233,35,29586,1,0,0:0:0:0:
350,110,29758,2,0,L|309:142,1,50
285,223,29930,2,0,L|331:179,1,50,2|0,0:0|0:0,0:0:0:0:
407,173,30103,2,0,L|341:210,1,50
351,285,30275,2,0,L|381:236,1,50,2|0,0:0|0:0,0:0:0:0:
467,237,30448,2,0,L|407:248,1,50
413,331,30620,2,0,L|420:279,1,50,2|0,0:0|0:0,0:0:0:0:
349,288,30793,2,0,P|296:316|138:318,1,200,0|4,0:0|0:0,0:0:0:0:
106,193,31310,5,2,0:0:0:0:
146,326,31482,1,0,0:0:0:0:
82,126,31655,1,2,0:0:0:0:
82,126,31741,1,0,0:0:0:0:
82,126,31827,1,0,0:0:0:0:
238,53,31999,2,0,P|182:60|118:39,1,100,2|0,0:0|0:0,0:0:0:0:
342,53,32344,1,2,0:0:0:0:
381,45,32430,1,0,0:0:0:0:
419,58,32517,2,0,L|494:40,1,50
350,329,32775,2,0,L|291:345,1,50
53,77,33034,1,0,0:0:0:0:
199,140,33206,2,0,L|244:179,1,50
310,131,33379,2,0,L|265:173,1,50
248,196,33551,2,0,B|232:267|197:291|197:291|139:286|142:228,1,200,2|4,0:0|0:0,0:0:0:0:
133,137,34068,6,0,P|194:83|294:88,2,150,0|2|0,0:0|0:0|0:0,0:0:0:0:
350,344,34844,1,2,0:0:0:0:
454,62,35103,1,2,0:0:0:0:
199,268,35275,2,0,P|141:299|44:303,1,150
291,115,35793,2,0,P|351:147|470:136,1,150,2|0,0:0|0:0,0:0:0:0:
145,58,36310,2,0,P|82:73|42:73,1,100,2|0,0:0|0:0,0:0:0:0:
245,42,36655,1,0,0:0:0:0:
323,55,36827,2,0,P|371:70|471:98,1,150,2|0,0:0|0:0,0:0:0:0:
212,324,37344,2,0,L|58:342,1,150,2|0,0:0|0:0,0:0:0:0:
256,182,37861,1,0,0:0:0:0:
171,186,38034,6,0,B|171:275|236:291|314:282|366:233|369:178|351:120|304:84|304:84|223:25|223:25|142:150,1,600,2|0,0:0|0:0,0:0:0:0:
123,138,39155,5,0,0:0:0:0:
97,169,39241,1,0,0:0:0:0:
62,188,39327,1,0,0:0:0:0:
28,166,39413,2,0,P|3:115|26:67,1,100,4|0,0:0|0:0,0:0:0:0:
255,40,39758,1,0,0:0:0:0:
255,40,39844,1,0,0:0:0:0:
255,40,39930,2,0,P|313:59|385:64,1,100
304,260,40275,1,0,0:0:0:0:
304,260,40361,1,0,0:0:0:0:
304,260,40448,2,0,P|386:263|434:248,1,100
256,337,40793,1,0,0:0:0:0:
106,244,40965,5,0,0:0:0:0:
106,244,41051,1,0,0:0:0:0:
106,244,41137,2,0,P|81:298|42:347,1,100
102,48,41482,1,0,0:0:0:0:
121,52,41568,1,0,0:0:0:0:
140,57,41655,1,0,0:0:0:0:
159,62,41741,1,0,0:0:0:0:
178,67,41827,1,0,0:0:0:0:
297,71,41999,2,0,P|354:67|417:61,1,100,0|4,0:0|0:0,0:0:0:0:
420,71,42258,5,0,0:0:0:0:
435,90,42344,1,0,0:0:0:0:
445,112,42430,1,0,0:0:0:0:
452,136,42517,1,0,0:0:0:0:
457,160,42603,1,0,0:0:0:0:
461,184,42689,1,0,0:0:0:0:
464,208,42775,1,0,0:0:0:0:
443,222,42861,1,0,0:0:0:0:
422,236,42948,1,0,0:0:0:0:
402,251,43034,1,0,0:0:0:0:
381,265,43120,1,0,0:0:0:0:
348,288,43206,1,0,0:0:0:0:
313,308,43293,1,0,0:0:0:0:
275,322,43379,1,0,0:0:0:0:
235,326,43465,1,0,0:0:0:0:
195,320,43551,2,0,B|131:307|73:247|73:247|12:283,1,200,0|2,0:0|0:0,0:0:0:0:
61,346,44068,1,0,0:0:0:0:
75,170,44241,6,0,L|134:187,1,50
121,90,44413,2,0,L|205:116,1,50
208,113,44586,1,0,0:0:0:0:
245,99,44672,1,0,0:0:0:0:
273,71,44758,2,0,P|327:35|382:30,1,100,0|4,0:0|0:0,0:0:0:0:
470,197,45103,5,0,0:0:0:0:
226,339,45275,1,8,0:0:0:0:
194,55,45448,1,0,0:0:0:0:
61,323,45620,1,0,0:0:0:0:
66,300,45706,1,0,0:0:0:0:
71,278,45793,1,0,0:0:0:0:
75,258,45879,1,0,0:0:0:0:
72,238,45965,2,0,L|56:129,1,100,8|0,0:0|0:0,0:0:0:0:
438,72,46310,1,0,0:0:0:0:
435,96,46396,1,0,0:0:0:0:
432,119,46482,1,0,0:0:0:0:
429,140,46568,1,0,0:0:0:0:
425,163,46655,1,8,0:0:0:0:
306,323,46827,2,0,P|372:331|449:310,1,100
397,276,47086,5,0,0:0:0:0:
359,243,47172,1,0,0:0:0:0:
314,220,47258,1,0,0:0:0:0:
264,217,47344,1,0,0:0:0:0:
214,211,47430,1,0,0:0:0:0:
167,191,47517,1,0,0:0:0:0:
143,141,47603,1,0,0:0:0:0:
110,103,47689,2,0,P|60:89|8:102,1,100,2|0,0:0|0:0,0:0:0:0:
26,168,47948,1,0,0:0:0:0:
39,236,48034,2,0,P|100:242|148:227,1,100,8|0,0:0|0:0,0:0:0:0:
310,73,48379,2,0,L|330:27,2,50
463,202,48724,2,0,P|478:140|473:71,1,100,8|0,0:0|0:0,0:0:0:0:
288,209,49068,5,0,0:0:0:0:
293,228,49155,1,0,0:0:0:0:
299,249,49241,1,0,0:0:0:0:
305,268,49327,1,0,0:0:0:0:
313,291,49413,1,0,0:0:0:0:
312,312,49499,1,0,0:0:0:0:
288,330,49586,1,0,0:0:0:0:
259,337,49672,1,0,0:0:0:0:
229,337,49758,1,0,0:0:0:0:
200,329,49844,1,0,0:0:0:0:
172,316,49930,1,0,0:0:0:0:
64,196,50103,2,0,B|117:103|117:103|68:92|16:126,1,200,4|0,0:0|0:0,0:0:0:0:
64,196,50448,2,0,P|122:200|195:173,1,100
362,56,50793,5,8,0:0:0:0:
364,315,50965,1,0,0:0:0:0:
300,125,51137,1,0,0:0:0:0:
250,133,51224,1,0,0:0:0:0:
201,122,51310,1,0,0:0:0:0:
162,90,51396,1,0,0:0:0:0:
156,40,51482,1,8,0:0:0:0:
300,125,51655,2,0,P|361:135|393:172,1,100
407,205,51913,1,0,0:0:0:0:
418,253,51999,1,0,0:0:0:0:
409,302,52086,1,0,0:0:0:0:
370,333,52172,1,8,0:0:0:0:
171,313,52344,2,0,P|125:308|71:277,1,100,2|2,0:0|0:0,0:0:0:0:
54,250,52603,5,0,0:0:0:0:
43,211,52689,1,0,0:0:0:0:
49,171,52775,1,0,0:0:0:0:
68,136,52861,1,8,0:0:0:0:
97,108,52948,1,0,0:0:0:0:
134,95,53034,1,0,0:0:0:0:
173,95,53120,1,0,0:0:0:0:
210,108,53206,1,0,0:0:0:0:
406,67,53379,1,0,0:0:0:0:
406,67,53465,1,0,0:0:0:0:
406,67,53551,1,8,0:0:0:0:
371,306,53724,1,0,0:0:0:0:
172,328,53896,2,0,L|111:338,4,50
172,328,54413,1,2,0:0:0:0:
130,243,54586,2,0,P|90:206|60:149,1,100,2|0,0:0|0:0,0:0:0:0:
256,192,54930,12,4,55965,0:0:0:0:
347,294,56137,5,0,0:0:0:0:
437,115,56310,1,0,0:0:0:0:
244,64,56482,1,0,0:0:0:0:
129,243,56655,1,0,0:0:0:0:
115,216,56741,1,0,0:0:0:0:
115,186,56827,1,2,0:0:0:0:
116,156,56913,1,0,0:0:0:0:
98,131,56999,2,0,B|34:128|34:128|11:86,1,100,0|2,0:0|0:0,0:0:0:0:
352,51,57344,1,0,0:0:0:0:
390,60,57430,1,0,0:0:0:0:
428,48,57517,1,2,0:0:0:0:
452,79,57603,1,0,0:0:0:0:
463,117,57689,1,0,0:0:0:0:
275,186,57861,1,2,0:0:0:0:
354,298,58034,5,0,0:0:0:0:
304,302,58120,1,0,0:0:0:0:
254,305,58206,1,2,0:0:0:0:
224,346,58293,1,0,0:0:0:0:
174,351,58379,1,0,0:0:0:0:
124,353,58465,1,0,0:0:0:0:
74,357,58551,2,0,P|46:307|44:233,1,100,2|4,0:0|0:0,0:0:0:0:
82,65,58896,1,0,0:0:0:0:
92,103,58982,1,0,0:0:0:0:
102,141,59068,1,8,0:0:0:0:
243,49,59241,5,2,0:0:0:0:
284,60,59327,1,0,0:0:0:0:
324,71,59413,1,2,0:0:0:0:
361,48,59499,1,0,0:0:0:0:
397,58,59586,1,2,0:0:0:0:
436,71,59672,1,0,0:0:0:0:
473,86,59758,2,0,P|478:149|459:224,1,100,8|0,0:0|0:0,0:0:0:0:
218,157,60103,1,0,0:0:0:0:
197,201,60189,1,0,0:0:0:0:
233,236,60275,1,0,0:0:0:0:
378,274,60448,2,0,L|455:318,2,50,8|0|0,0:0|0:0|0:0,0:0:0:0:
172,343,60793,5,0,0:0:0:0:
142,302,60879,1,0,0:0:0:0:
117,258,60965,1,2,0:0:0:0:
136,212,61051,1,0,0:0:0:0:
103,174,61137,1,8,0:0:0:0:
74,132,61224,1,0,0:0:0:0:
95,87,61310,1,2,0:0:0:0:
122,45,61396,1,0,0:0:0:0:
171,53,61482,2,0,L|280:87,1,100,0|2,0:0|0:0,0:0:0:0:
411,56,61827,1,8,0:0:0:0:
342,177,61999,2,0,L|322:238,2,50
446,271,62344,2,0,P|456:335|448:384,1,100,0|8,0:0|0:0,0:0:0:0:
117,304,62861,5,4,0:0:0:0:
117,304,62948,1,0,0:0:0:0:
117,304,63034,1,0,0:0:0:0:
52,180,63206,2,0,L|82:117,2,50
191,166,63551,2,0,P|207:111|201:46,1,100
379,47,63896,2,0,B|378:100|378:100|360:106|360:106|378:111|378:111|361:118|361:118|378:125|378:125|361:129|361:129|380:138|380:138|362:143|362:143|380:150|380:150|363:155|363:155|380:162|380:162|363:166|363:166|380:176|380:176|365:179|365:179|470:249,1,400,2|4,0:0|0:0,0:0:0:0:
311,333,64413,5,0,0:0:0:0:
291,333,64499,1,0,0:0:0:0:
270,333,64586,1,0,0:0:0:0:
250,333,64672,1,0,0:0:0:0:
230,332,64758,1,0,0:0:0:0:
210,331,64844,1,0,0:0:0:0:
190,330,64930,1,0,0:0:0:0:
169,329,65017,1,0,0:0:0:0:
149,328,65103,1,0,0:0:0:0:
129,327,65189,1,0,0:0:0:0:
109,326,65275,1,0,0:0:0:0:
96,310,65361,1,0,0:0:0:0:
83,293,65448,1,0,0:0:0:0:
71,276,65534,1,0,0:0:0:0:
58,260,65620,2,0,L|174:260,1,100
258,47,65965,5,0,0:0:0:0:
432,297,66137,1,0,0:0:0:0:
97,303,66310,1,0,0:0:0:0:
258,47,66482,1,0,0:0:0:0:
254,187,66655,1,2,0:0:0:0:
278,188,66741,1,2,0:0:0:0:
302,189,66827,1,2,0:0:0:0:
326,190,66913,1,2,0:0:0:0:
350,192,66999,2,0,B|425:188|425:188|464:157,1,100,4|0,0:0|0:0,0:0:0:0:
200,334,67344,5,0,0:0:0:0:
0,312,67517,1,0,0:0:0:0:
98,242,67689,2,0,L|56:143,1,100
84,52,67948,2,0,L|137:169,1,100
167,157,68206,1,0,0:0:0:0:
212,155,68293,1,0,0:0:0:0:
247,127,68379,1,0,0:0:0:0:
445,123,68551,1,0,0:0:0:0:
247,127,68724,1,0,0:0:0:0:
445,123,68896,1,0,0:0:0:0:
445,123,68982,1,0,0:0:0:0:
445,123,69068,2,0,P|438:196|444:244,1,100
485,229,69327,2,0,P|487:310|410:362,1,150
273,295,69758,5,0,0:0:0:0:
230,309,69844,1,0,0:0:0:0:
186,320,69930,1,0,0:0:0:0:
147,295,70017,1,0,0:0:0:0:
104,308,70103,1,0,0:0:0:0:
61,322,70189,1,0,0:0:0:0:
18,336,70275,2,0,P|5:284|16:208,1,100
211,56,70620,2,0,P|226:121|202:181,1,100
101,123,70965,1,0,0:0:0:0:
101,123,71051,1,0,0:0:0:0:
101,123,71137,2,0,P|111:71|121:22,1,100
415,247,71482,2,0,L|385:352,1,100
350,121,71827,1,0,0:0:0:0:
428,77,71999,5,0,0:0:0:0:
428,77,72086,1,0,0:0:0:0:
428,77,72172,1,0,0:0:0:0:
428,77,72258,1,0,0:0:0:0:
428,77,72344,1,0,0:0:0:0:
428,77,72430,1,0,0:0:0:0:
428,77,72517,2,0,P|356:38|236:75,1,200
215,324,73034,1,0,0:0:0:0:
77,120,73206,1,0,0:0:0:0:
67,152,73293,1,0,0:0:0:0:
56,179,73379,1,0,0:0:0:0:
352,142,73551,1,0,0:0:0:0:
375,164,73637,1,0,0:0:0:0:
393,183,73724,1,0,0:0:0:0:
222,53,73896,2,0,L|181:12,4,50
245,79,74327,5,0,0:0:0:0:
258,111,74413,1,0,0:0:0:0:
267,144,74499,1,0,0:0:0:0:
271,178,74586,1,0,0:0:0:0:
270,212,74672,1,0,0:0:0:0:
256,243,74758,1,0,0:0:0:0:
233,269,74844,1,0,0:0:0:0:
210,295,74930,2,0,L|166:264,1,50
156,298,75103,2,0,L|106:260,1,50
87,248,75275,1,4,0:0:0:0:
99,178,75448,1,0,0:0:0:0:
107,136,75620,1,0,0:0:0:0:
111,113,75793,1,0,0:0:0:0:
115,96,75965,1,0,0:0:0:0:
371,91,76310,2,0,L|472:66,1,100,0|4,0:0|0:0,0:0:0:0:
317,321,76827,5,0,0:0:0:0:
370,89,76999,1,0,0:0:0:0:
95,131,77172,1,0,0:0:0:0:
85,164,77258,1,0,0:0:0:0:
76,197,77344,1,0,0:0:0:0:
68,231,77430,1,0,0:0:0:0:
95,252,77517,1,0,0:0:0:0:
126,267,77603,1,0,0:0:0:0:
157,281,77689,2,0,B|195:246|211:275|211:275|276:248,1,100
265,62,78034,5,0,0:0:0:0:
460,101,78206,2,0,P|469:171|464:321,1,200
46,294,78724,1,0,0:0:0:0:
50,48,78896,2,0,P|161:43|273:51,1,200
298,332,79413,1,0,0:0:0:0:
261,39,79586,1,0,0:0:0:0:
304,355,79758,1,0,0:0:0:0:
257,17,79930,1,0,0:0:0:0:
364,186,80103,5,0,0:0:0:0:
294,186,80275,1,0,0:0:0:0:
223,185,80448,1,0,0:0:0:0:
153,182,80620,1,0,0:0:0:0:
82,186,80793,1,0,0:0:0:0:
138,320,80965,1,0,0:0:0:0:
335,290,81137,5,0,0:0:0:0:
367,304,81224,1,0,0:0:0:0:
399,317,81310,1,0,0:0:0:0:
426,295,81396,1,0,0:0:0:0:
449,269,81482,2,0,P|473:218|479:147,1,100
420,105,81741,2,0,P|401:166|391:223,1,100
393,201,81999,1,0,0:0:0:0:
254,56,82172,1,0,0:0:0:0:
34,165,82344,1,0,0:0:0:0:
175,307,82517,6,0,L|186:258,1,50
219,307,82689,2,0,L|208:252,1,50
261,290,82861,2,0,L|230:248,1,50
186,208,83034,1,0,0:0:0:0:
137,172,83120,1,0,0:0:0:0:
103,122,83206,2,0,B|111:66|131:21|131:21|252:43,1,200,0|4,0:0|0:0,0:0:0:0:
474,72,83724,1,0,0:0:0:0:
290,149,83896,5,0,0:0:0:0:
326,153,83982,1,0,0:0:0:0:
357,157,84068,1,0,0:0:0:0:
388,164,84155,1,0,0:0:0:0:
419,170,84241,2,0,P|427:229|400:322,1,150
327,326,84586,2,0,L|214:322,1,100
106,73,84930,1,0,0:0:0:0:
190,314,85103,1,0,0:0:0:0:
54,212,85275,2,0,L|4:220,1,50
43,163,85448,2,0,L|-13:173,1,50
43,163,85620,2,0,P|107:146|171:118,1,100
455,52,85965,2,0,P|376:68|329:86,1,100
255,329,86310,5,0,0:0:0:0:
287,267,86482,1,0,0:0:0:0:
331,321,86655,1,0,0:0:0:0:
151,342,86827,1,0,0:0:0:0:
276,178,86999,2,0,L|390:194,1,100
449,193,87258,2,0,L|443:78,1,100
396,75,87517,1,0,0:0:0:0:
347,65,87603,1,0,0:0:0:0:
297,56,87689,1,0,0:0:0:0:
98,74,87861,1,0,0:0:0:0:
297,56,88034,1,0,0:0:0:0:
34,87,88206,1,0,0:0:0:0:
361,45,88379,1,0,0:0:0:0:
214,180,88551,1,0,0:0:0:0:
214,180,88637,1,0,0:0:0:0:
214,180,88724,2,0,B|199:246|166:270|166:270|110:267|88:207,1,200
459,121,89068,5,4,0:0:0:0:
414,316,89241,1,0,0:0:0:0:
217,281,89413,1,0,0:0:0:0:
173,291,89499,1,0,0:0:0:0:
128,300,89586,1,0,0:0:0:0:
95,268,89672,1,0,0:0:0:0:
52,283,89758,1,0,0:0:0:0:
8,88,89930,1,0,0:0:0:0:
8,88,90017,1,0,0:0:0:0:
8,88,90103,1,0,0:0:0:0:
207,74,90275,2,0,P|168:112|121:124,1,100
254,277,90620,1,0,0:0:0:0:
451,311,90793,5,0,0:0:0:0:
455,251,90879,1,0,0:0:0:0:
460,191,90965,1,0,0:0:0:0:
467,131,91051,1,0,0:0:0:0:
474,71,91137,2,0,P|411:57|364:50,1,100
362,110,91396,2,0,L|252:65,1,100
248,129,91655,2,0,L|138:103,1,100,0|4,0:0|0:0,0:0:0:0:
41,156,91999,5,0,0:0:0:0:
38,206,92086,1,0,0:0:0:0:
44,255,92172,1,0,0:0:0:0:
65,299,92258,1,0,0:0:0:0:
110,319,92344,1,0,0:0:0:0:
158,329,92430,1,0,0:0:0:0:
208,323,92517,1,0,0:0:0:0:
251,299,92603,1,0,0:0:0:0:
295,276,92689,1,0,0:0:0:0:
344,279,92775,1,0,0:0:0:0:
386,305,92861,1,0,0:0:0:0:
425,336,92948,1,0,0:0:0:0:
450,292,93034,2,0,L|511:313,1,50
487,259,93206,2,0,L|545:242,1,50,4|0,0:0|0:0,0:0:0:0:
112,43,93465,2,0,L|32:34,1,50,4|0,0:0|0:0,0:0:0:0:
383,338,93724,6,0,L|465:344,1,50
412,285,93896,1,0,0:0:0:0:
394,227,93982,1,0,0:0:0:0:
375,170,94068,1,0,0:0:0:0:
357,112,94155,1,0,0:0:0:0:
336,55,94241,2,0,B|243:106|243:106|182:94|147:56,1,200,0|4,0:0|0:0,0:0:0:0:
30,283,94758,1,0,0:0:0:0:
160,232,94930,5,0,0:0:0:0:
229,242,95017,1,0,0:0:0:0:
298,250,95103,1,0,0:0:0:0:
367,259,95189,1,0,0:0:0:0:
423,300,95275,2,0,P|372:326|257:343,1,150
284,273,95620,2,0,L|361:152,1,100
445,98,95965,1,0,0:0:0:0:
402,84,96051,1,0,0:0:0:0:
359,69,96137,1,0,0:0:0:0:
316,52,96224,1,0,0:0:0:0:
278,27,96310,1,0,0:0:0:0:
240,52,96396,1,0,0:0:0:0:
200,72,96482,1,0,0:0:0:0:
157,87,96568,1,0,0:0:0:0:
115,104,96655,1,0,0:0:0:0:
98,145,96741,2,0,L|86:212,3,50
35,345,97172,1,0,0:0:0:0:
199,231,97344,6,0,L|77:267,1,100
299,303,97689,2,0,L|415:326,1,100
455,63,98034,2,0,P|448:136|406:220,1,150
354,163,98379,2,0,L|235:131,1,100
184,125,98637,1,0,0:0:0:0:
112,144,98724,1,0,0:0:0:0:
257,348,98896,1,0,0:0:0:0:
91,109,99068,1,0,0:0:0:0:
424,111,99241,1,0,0:0:0:0:
257,348,99413,2,0,L|104:329,1,150
37,344,99758,2,0,L|16:213,1,100
21,245,100017,1,0,0:0:0:0:
21,245,100103,1,4,0:0:0:0:
56,61,100275,5,0,0:0:0:0:
224,79,100448,2,0,L|210:133,1,50
288,98,100620,2,0,L|272:159,1,50
351,113,100793,2,0,P|410:114|472:72,1,100
351,113,101137,2,0,P|348:183|364:238,1,100
407,297,101482,5,0,0:0:0:0:
359,312,101568,1,0,0:0:0:0:
310,327,101655,1,0,0:0:0:0:
262,341,101741,1,0,0:0:0:0:
218,315,101827,1,0,0:0:0:0:
171,334,101913,1,0,0:0:0:0:
127,309,101999,1,0,0:0:0:0:
83,333,102086,1,0,0:0:0:0:
37,352,102172,1,0,0:0:0:0:
20,304,102258,2,0,L|-30:321,1,50
21,236,102430,2,0,L|-43:257,1,50
196,199,102689,5,0,0:0:0:0:
418,74,102861,1,0,0:0:0:0:
343,331,103034,1,2,0:0:0:0:
141,120,103206,1,2,0:0:0:0:
458,46,103379,1,2,0:0:0:0:
358,369,103551,1,2,0:0:0:0:
99,97,103724,1,2,0:0:0:0:
296,192,103896,1,0,0:0:0:0:
296,192,103982,1,0,0:0:0:0:
296,192,104068,1,0,0:0:0:0:
296,192,104155,1,0,0:0:0:0:
296,192,104241,2,0,P|244:217|128:233,1,150,4|0,0:0|0:0,0:0:0:0:
78,165,104586,6,0,P|150:142|214:128,1,100,4|0,0:0|0:0,0:0:0:0:
321,39,104930,1,0,0:0:0:0:
349,80,105017,1,0,0:0:0:0:
377,120,105103,1,0,0:0:0:0:
465,288,105275,2,0,L|489:294,12,16.6666666666667
88,318,105793,1,0,0:0:0:0:
247,54,105965,1,0,0:0:0:0:
191,75,106051,1,0,0:0:0:0:
135,97,106137,1,0,0:0:0:0:
79,122,106224,1,0,0:0:0:0:
26,150,106310,2,0,P|26:207|64:273,1,100
119,261,106568,2,0,L|233:292,1,100
274,229,106827,2,0,L|395:254,1,100
255,151,107344,1,4,0:0:0:0:
256,192,107517,12,0,109586,0:0:0:0:
