osu file format v14

[General]
AudioFilename: 2 MINUTES FIGHTERS.mp3
AudioLeadIn: 0
PreviewTime: 79699
Countdown: 0
SampleSet: None
StackLeniency: 0.7
Mode: 3
LetterboxInBreaks: 0
SpecialStyle: 0
WidescreenStoryboard: 1

[Editor]
DistanceSpacing: 0.8
BeatDivisor: 4
GridSize: 32
TimelineZoom: 2

[Metadata]
Title:2 MINUTES FIGHTERS
TitleUnicode:2 MINUTES FIGHTERS
Artist:P*Light
ArtistUnicode:P*Light
Creator:-[BURGERKILL]-
Version:ADV
Source:SOUND VOLTEX III GRAVITY WARS
Tags:sdvx 4th KAC Konami Arcade Championship MEGAtive frim4503
BeatmapID:666657
BeatmapSetID:292406

[Difficulty]
HPDrainRate:7
CircleSize:4
OverallDifficulty:8
ApproachRate:5
SliderMultiplier:1.4
SliderTickRate:1

[Events]
//Background and Video events
0,0,"BG.jpg",0,0
//Break Periods
//Storyboard Layer 0 (Background)
//Storyboard Layer 1 (Fail)
//Storyboard Layer 2 (Pass)
//Storyboard Layer 3 (Foreground)
//Storyboard Sound Samples

[TimingPoints]
783,295.566502463054,4,2,0,53,1,0
79994,-100,4,2,0,53,0,1
108393,-100,4,2,0,53,0,0

[HitObjects]
64,192,783,5,0,0:0:0:0:
448,192,783,1,0,0:0:0:0:
192,192,1078,1,0,0:0:0:0:
64,192,1226,1,0,0:0:0:0:
448,192,1226,1,0,0:0:0:0:
64,192,1521,1,0,0:0:0:0:
448,192,1521,1,0,0:0:0:0:
192,192,1817,1,0,0:0:0:0:
320,192,1817,1,0,0:0:0:0:
64,192,1965,1,0,0:0:0:0:
448,192,1965,1,0,0:0:0:0:
320,192,2260,1,0,0:0:0:0:
192,192,2408,1,0,0:0:0:0:
64,192,2408,1,0,0:0:0:0:
192,192,2704,1,0,0:0:0:0:
64,192,2704,1,0,0:0:0:0:
320,192,2999,1,0,0:0:0:0:
448,192,2999,1,0,0:0:0:0:
64,192,3147,128,0,4329:0:0:0:0:
448,192,3590,128,0,4329:0:0:0:0:
320,192,4329,128,0,5512:0:0:0:0:
64,192,5512,1,0,0:0:0:0:
192,192,5512,1,0,0:0:0:0:
320,192,5807,1,0,0:0:0:0:
448,192,5955,1,0,0:0:0:0:
192,192,5955,1,0,0:0:0:0:
192,192,6250,1,0,0:0:0:0:
448,192,6250,1,0,0:0:0:0:
320,192,6546,1,0,0:0:0:0:
448,192,6694,1,0,0:0:0:0:
64,192,6694,1,0,0:0:0:0:
192,192,6989,1,0,0:0:0:0:
320,192,7137,1,0,0:0:0:0:
448,192,7137,1,0,0:0:0:0:
320,192,7433,1,0,0:0:0:0:
448,192,7433,1,0,0:0:0:0:
64,192,7728,1,0,0:0:0:0:
192,192,7728,1,0,0:0:0:0:
448,192,7876,1,0,0:0:0:0:
320,192,7876,1,0,0:0:0:0:
64,192,8172,1,0,0:0:0:0:
192,192,8172,1,0,0:0:0:0:
320,192,8467,1,0,0:0:0:0:
448,192,8467,1,0,0:0:0:0:
64,192,8763,1,0,0:0:0:0:
192,192,8763,1,0,0:0:0:0:
448,192,9058,1,0,0:0:0:0:
320,192,9058,1,0,0:0:0:0:
192,192,9206,1,0,0:0:0:0:
64,192,9354,1,0,0:0:0:0:
320,192,9502,1,0,0:0:0:0:
192,192,9649,1,0,0:0:0:0:
448,192,9797,1,0,0:0:0:0:
320,192,9945,1,0,0:0:0:0:
192,192,10093,1,0,0:0:0:0:
64,192,10241,1,0,0:0:0:0:
448,192,10241,1,0,0:0:0:0:
320,192,10536,128,0,11423:0:0:0:0:
64,192,11423,1,0,0:0:0:0:
448,192,11423,1,0,0:0:0:0:
192,192,11571,1,0,0:0:0:0:
320,192,11718,1,0,0:0:0:0:
448,192,11718,1,0,0:0:0:0:
192,192,11866,1,0,0:0:0:0:
64,192,12014,1,0,0:0:0:0:
448,192,12014,1,0,0:0:0:0:
320,192,12162,1,0,0:0:0:0:
192,192,12310,1,0,0:0:0:0:
64,192,12310,1,0,0:0:0:0:
448,192,12457,1,0,0:0:0:0:
320,192,12605,1,0,0:0:0:0:
192,192,12605,1,0,0:0:0:0:
64,192,12753,1,0,0:0:0:0:
320,192,12901,1,0,0:0:0:0:
448,192,12901,1,0,0:0:0:0:
192,192,13049,1,0,0:0:0:0:
320,192,13196,1,0,0:0:0:0:
64,192,13196,1,0,0:0:0:0:
320,192,13344,1,0,0:0:0:0:
192,192,13492,1,0,0:0:0:0:
64,192,13492,1,0,0:0:0:0:
448,192,13640,1,0,0:0:0:0:
320,192,13787,1,0,0:0:0:0:
192,192,13787,1,0,0:0:0:0:
64,192,13935,1,0,0:0:0:0:
320,192,14083,1,0,0:0:0:0:
448,192,14083,1,0,0:0:0:0:
64,192,14231,1,0,0:0:0:0:
448,192,14379,1,0,0:0:0:0:
192,192,14379,1,0,0:0:0:0:
320,192,14526,1,0,0:0:0:0:
192,192,14674,1,0,0:0:0:0:
64,192,14674,1,0,0:0:0:0:
448,192,14822,1,0,0:0:0:0:
320,192,14970,1,0,0:0:0:0:
64,192,14970,1,0,0:0:0:0:
192,192,15117,1,0,0:0:0:0:
320,192,15265,1,0,0:0:0:0:
448,192,15265,1,0,0:0:0:0:
320,192,15413,1,0,0:0:0:0:
192,192,15561,1,0,0:0:0:0:
64,192,15561,1,0,0:0:0:0:
448,192,15782,1,0,0:0:0:0:
320,192,15782,1,0,0:0:0:0:
192,192,16004,1,0,0:0:0:0:
64,192,16004,1,0,0:0:0:0:
448,192,16152,1,0,0:0:0:0:
320,192,16300,1,0,0:0:0:0:
192,192,16374,1,0,0:0:0:0:
64,192,16448,1,0,0:0:0:0:
448,192,16595,1,0,0:0:0:0:
320,192,16669,1,0,0:0:0:0:
192,192,16743,1,0,0:0:0:0:
64,192,16891,1,0,0:0:0:0:
192,192,16965,1,0,0:0:0:0:
320,192,17039,1,0,0:0:0:0:
448,192,17186,1,0,0:0:0:0:
320,192,17260,1,0,0:0:0:0:
192,192,17334,1,0,0:0:0:0:
64,192,17482,1,0,0:0:0:0:
192,192,17556,1,0,0:0:0:0:
320,192,17630,1,0,0:0:0:0:
192,192,17778,1,0,0:0:0:0:
320,192,17851,1,0,0:0:0:0:
448,192,17925,1,0,0:0:0:0:
320,192,18073,1,0,0:0:0:0:
192,192,18147,1,0,0:0:0:0:
64,192,18221,1,0,0:0:0:0:
448,192,18369,1,0,0:0:0:0:
320,192,18443,1,0,0:0:0:0:
192,192,18516,1,0,0:0:0:0:
64,192,18516,1,0,0:0:0:0:
320,192,18812,1,0,0:0:0:0:
448,192,18812,1,0,0:0:0:0:
448,192,19108,1,0,0:0:0:0:
64,192,19108,1,0,0:0:0:0:
320,192,19255,1,0,0:0:0:0:
192,192,19255,1,0,0:0:0:0:
64,192,19551,1,0,0:0:0:0:
448,192,19551,1,0,0:0:0:0:
320,192,19847,1,0,0:0:0:0:
64,192,19847,1,0,0:0:0:0:
192,192,19994,1,0,0:0:0:0:
448,192,19994,1,0,0:0:0:0:
64,192,20142,1,0,0:0:0:0:
192,192,20216,1,0,0:0:0:0:
320,192,20290,1,0,0:0:0:0:
448,192,20364,1,0,0:0:0:0:
64,192,20438,1,0,0:0:0:0:
192,192,20512,1,0,0:0:0:0:
320,192,20585,1,0,0:0:0:0:
448,192,20659,1,0,0:0:0:0:
64,192,20733,1,0,0:0:0:0:
192,192,20807,1,0,0:0:0:0:
320,192,20881,1,0,0:0:0:0:
448,192,21177,1,0,0:0:0:0:
64,192,21177,1,0,0:0:0:0:
320,192,21324,1,0,0:0:0:0:
192,192,21472,1,0,0:0:0:0:
64,192,21620,1,0,0:0:0:0:
192,192,21768,1,0,0:0:0:0:
320,192,21768,1,0,0:0:0:0:
448,192,21916,1,0,0:0:0:0:
448,192,22063,1,0,0:0:0:0:
320,192,22359,1,0,0:0:0:0:
64,192,22359,1,0,0:0:0:0:
192,192,22507,1,0,0:0:0:0:
320,192,22654,1,0,0:0:0:0:
448,192,22950,1,0,0:0:0:0:
320,192,22950,1,0,0:0:0:0:
192,192,23098,1,0,0:0:0:0:
64,192,23246,1,0,0:0:0:0:
64,192,23541,1,0,0:0:0:0:
448,192,23541,1,0,0:0:0:0:
320,192,23689,1,0,0:0:0:0:
192,192,23837,1,0,0:0:0:0:
64,192,23984,1,0,0:0:0:0:
320,192,24132,1,0,0:0:0:0:
448,192,24132,1,0,0:0:0:0:
192,192,24280,1,0,0:0:0:0:
64,192,24428,1,0,0:0:0:0:
192,192,24576,1,0,0:0:0:0:
320,192,24649,1,0,0:0:0:0:
448,192,24723,1,0,0:0:0:0:
64,192,24723,1,0,0:0:0:0:
320,192,24871,1,0,0:0:0:0:
64,192,25019,1,0,0:0:0:0:
448,192,25093,1,0,0:0:0:0:
64,192,25167,1,0,0:0:0:0:
448,192,25241,1,0,0:0:0:0:
320,192,25315,1,0,0:0:0:0:
192,192,25315,1,0,0:0:0:0:
64,192,25462,1,0,0:0:0:0:
320,192,25610,1,0,0:0:0:0:
64,192,25906,1,0,0:0:0:0:
448,192,26053,1,0,0:0:0:0:
192,192,26201,1,0,0:0:0:0:
320,192,26349,1,0,0:0:0:0:
64,192,26645,1,0,0:0:0:0:
448,192,26792,1,0,0:0:0:0:
320,192,26940,1,0,0:0:0:0:
192,192,27014,1,0,0:0:0:0:
64,192,27088,1,0,0:0:0:0:
448,192,27236,1,0,0:0:0:0:
192,192,27383,1,0,0:0:0:0:
320,192,27457,1,0,0:0:0:0:
192,192,27531,1,0,0:0:0:0:
320,192,27605,1,0,0:0:0:0:
192,192,27679,1,0,0:0:0:0:
448,192,27975,1,0,0:0:0:0:
64,192,27975,1,0,0:0:0:0:
64,192,28270,1,0,0:0:0:0:
448,192,28270,1,0,0:0:0:0:
192,192,28418,1,0,0:0:0:0:
320,192,28418,1,0,0:0:0:0:
192,192,28714,1,0,0:0:0:0:
320,192,28714,1,0,0:0:0:0:
64,192,28861,1,0,0:0:0:0:
448,192,28861,1,0,0:0:0:0:
192,192,29009,1,0,0:0:0:0:
320,192,29009,1,0,0:0:0:0:
64,192,29157,1,0,0:0:0:0:
448,192,29157,1,0,0:0:0:0:
320,192,29305,1,0,0:0:0:0:
192,192,29452,1,0,0:0:0:0:
64,192,29600,1,0,0:0:0:0:
448,192,29748,1,0,0:0:0:0:
320,192,29822,1,0,0:0:0:0:
192,192,29896,1,0,0:0:0:0:
64,192,29970,1,0,0:0:0:0:
448,192,30044,1,0,0:0:0:0:
320,192,30117,1,0,0:0:0:0:
192,192,30191,1,0,0:0:0:0:
64,192,30265,1,0,0:0:0:0:
320,192,30339,1,0,0:0:0:0:
448,192,30339,1,0,0:0:0:0:
192,192,30635,1,0,0:0:0:0:
64,192,30782,1,0,0:0:0:0:
64,192,31078,1,0,0:0:0:0:
64,192,31374,1,0,0:0:0:0:
448,192,31521,1,0,0:0:0:0:
192,192,31521,1,0,0:0:0:0:
320,192,31817,1,0,0:0:0:0:
448,192,31965,1,0,0:0:0:0:
64,192,31965,1,0,0:0:0:0:
448,192,32260,1,0,0:0:0:0:
64,192,32260,1,0,0:0:0:0:
64,192,32556,1,0,0:0:0:0:
448,192,32556,1,0,0:0:0:0:
320,192,32704,1,0,0:0:0:0:
192,192,32704,1,0,0:0:0:0:
192,192,32999,1,0,0:0:0:0:
320,192,33147,1,0,0:0:0:0:
320,192,33443,1,0,0:0:0:0:
320,192,33738,1,0,0:0:0:0:
192,192,33886,1,0,0:0:0:0:
64,192,33886,1,0,0:0:0:0:
320,192,34182,1,0,0:0:0:0:
448,192,34182,1,0,0:0:0:0:
192,192,34329,1,0,0:0:0:0:
64,192,34329,1,0,0:0:0:0:
320,192,34625,1,0,0:0:0:0:
448,192,34625,1,0,0:0:0:0:
320,192,34920,1,0,0:0:0:0:
64,192,34920,1,0,0:0:0:0:
192,192,35068,1,0,0:0:0:0:
448,192,35068,1,0,0:0:0:0:
192,192,35364,1,0,0:0:0:0:
64,192,35364,1,0,0:0:0:0:
448,192,35512,1,0,0:0:0:0:
320,192,35659,1,0,0:0:0:0:
192,192,35659,1,0,0:0:0:0:
64,192,35955,1,0,0:0:0:0:
448,192,35955,1,0,0:0:0:0:
320,192,36103,1,0,0:0:0:0:
192,192,36250,1,0,0:0:0:0:
64,192,36250,1,0,0:0:0:0:
448,192,36546,1,0,0:0:0:0:
64,192,36546,1,0,0:0:0:0:
192,192,36694,1,0,0:0:0:0:
320,192,36842,1,0,0:0:0:0:
448,192,36842,1,0,0:0:0:0:
192,192,37137,1,0,0:0:0:0:
320,192,37137,1,0,0:0:0:0:
64,192,37285,1,0,0:0:0:0:
192,192,37433,1,0,0:0:0:0:
320,192,37433,1,0,0:0:0:0:
448,192,37581,1,0,0:0:0:0:
192,192,37728,1,0,0:0:0:0:
320,192,37728,1,0,0:0:0:0:
64,192,37876,1,0,0:0:0:0:
320,192,38024,1,0,0:0:0:0:
192,192,38024,1,0,0:0:0:0:
448,192,38172,1,0,0:0:0:0:
192,192,38319,1,0,0:0:0:0:
320,192,38319,1,0,0:0:0:0:
64,192,38467,1,0,0:0:0:0:
192,192,38615,1,0,0:0:0:0:
320,192,38615,1,0,0:0:0:0:
448,192,38763,1,0,0:0:0:0:
320,192,38911,1,0,0:0:0:0:
64,192,39058,1,0,0:0:0:0:
192,192,39132,1,0,0:0:0:0:
320,192,39206,1,0,0:0:0:0:
448,192,39280,1,0,0:0:0:0:
320,192,39354,1,0,0:0:0:0:
192,192,39502,1,0,0:0:0:0:
64,192,39502,128,0,39797:0:0:0:0:
448,192,39797,1,0,0:0:0:0:
192,192,39797,1,0,0:0:0:0:
320,192,39945,1,0,0:0:0:0:
192,192,40093,1,0,0:0:0:0:
64,192,40093,1,0,0:0:0:0:
192,192,40241,1,0,0:0:0:0:
448,192,40388,1,0,0:0:0:0:
64,192,40388,1,0,0:0:0:0:
320,192,40536,1,0,0:0:0:0:
192,192,40684,1,0,0:0:0:0:
448,192,40684,1,0,0:0:0:0:
64,192,40832,1,0,0:0:0:0:
192,192,40980,1,0,0:0:0:0:
320,192,40980,1,0,0:0:0:0:
448,192,41127,1,0,0:0:0:0:
64,192,41275,1,0,0:0:0:0:
192,192,41275,1,0,0:0:0:0:
320,192,41423,1,0,0:0:0:0:
448,192,41571,1,0,0:0:0:0:
64,192,41571,1,0,0:0:0:0:
192,192,41718,1,0,0:0:0:0:
320,192,41866,1,0,0:0:0:0:
448,192,41866,128,0,42162:0:0:0:0:
192,192,42014,1,0,0:0:0:0:
320,192,42162,1,0,0:0:0:0:
64,192,42162,1,0,0:0:0:0:
192,192,42310,1,0,0:0:0:0:
64,192,42457,1,0,0:0:0:0:
448,192,42457,1,0,0:0:0:0:
192,192,42605,1,0,0:0:0:0:
448,192,42753,1,0,0:0:0:0:
64,192,42753,1,0,0:0:0:0:
320,192,42901,1,0,0:0:0:0:
192,192,43049,1,0,0:0:0:0:
448,192,43049,1,0,0:0:0:0:
64,192,43196,1,0,0:0:0:0:
192,192,43344,1,0,0:0:0:0:
448,192,43344,1,0,0:0:0:0:
320,192,43492,1,0,0:0:0:0:
320,192,43640,1,0,0:0:0:0:
64,192,43640,1,0,0:0:0:0:
192,192,43787,1,0,0:0:0:0:
448,192,43935,1,0,0:0:0:0:
64,192,43935,1,0,0:0:0:0:
64,192,44083,1,0,0:0:0:0:
448,192,44083,1,0,0:0:0:0:
64,192,44231,1,0,0:0:0:0:
448,192,44231,1,0,0:0:0:0:
64,192,44526,1,0,0:0:0:0:
320,192,44526,1,0,0:0:0:0:
448,192,44674,1,0,0:0:0:0:
320,192,44822,1,0,0:0:0:0:
192,192,44822,1,0,0:0:0:0:
64,192,44970,1,0,0:0:0:0:
192,192,45117,1,0,0:0:0:0:
448,192,45117,1,0,0:0:0:0:
448,192,45265,1,0,0:0:0:0:
192,192,45413,1,0,0:0:0:0:
64,192,45413,1,0,0:0:0:0:
320,192,45561,1,0,0:0:0:0:
192,192,45709,1,0,0:0:0:0:
64,192,45709,1,0,0:0:0:0:
448,192,45856,1,0,0:0:0:0:
320,192,46004,1,0,0:0:0:0:
192,192,46004,1,0,0:0:0:0:
64,192,46152,1,0,0:0:0:0:
192,192,46300,1,0,0:0:0:0:
320,192,46300,1,0,0:0:0:0:
64,192,46448,1,0,0:0:0:0:
448,192,46595,1,0,0:0:0:0:
192,192,46595,128,0,46891:0:0:0:0:
320,192,46743,1,0,0:0:0:0:
64,192,46891,1,0,0:0:0:0:
448,192,46891,1,0,0:0:0:0:
64,192,47186,1,0,0:0:0:0:
320,192,47186,1,0,0:0:0:0:
192,192,47334,1,0,0:0:0:0:
448,192,47334,1,0,0:0:0:0:
320,192,47482,1,0,0:0:0:0:
64,192,47482,1,0,0:0:0:0:
192,192,47630,1,0,0:0:0:0:
448,192,47630,1,0,0:0:0:0:
320,192,47925,1,0,0:0:0:0:
192,192,47925,1,0,0:0:0:0:
64,192,48073,1,0,0:0:0:0:
448,192,48073,1,0,0:0:0:0:
320,192,48221,1,0,0:0:0:0:
192,192,48295,1,0,0:0:0:0:
64,192,48369,1,0,0:0:0:0:
448,192,48369,1,0,0:0:0:0:
320,192,48516,1,0,0:0:0:0:
64,192,48664,1,0,0:0:0:0:
192,192,48738,1,0,0:0:0:0:
64,192,48812,1,0,0:0:0:0:
192,192,48886,1,0,0:0:0:0:
320,192,48960,1,0,0:0:0:0:
448,192,49034,1,0,0:0:0:0:
320,192,49108,1,0,0:0:0:0:
192,192,49182,1,0,0:0:0:0:
64,192,49255,1,0,0:0:0:0:
448,192,49255,1,0,0:0:0:0:
320,192,49403,1,0,0:0:0:0:
448,192,49551,1,0,0:0:0:0:
64,192,49551,1,0,0:0:0:0:
192,192,49699,1,0,0:0:0:0:
64,192,49847,1,0,0:0:0:0:
448,192,49847,1,0,0:0:0:0:
320,192,49994,1,0,0:0:0:0:
64,192,50142,1,0,0:0:0:0:
192,192,50142,1,0,0:0:0:0:
448,192,50290,1,0,0:0:0:0:
320,192,50438,1,0,0:0:0:0:
64,192,50438,1,0,0:0:0:0:
64,192,50585,1,0,0:0:0:0:
192,192,50733,1,0,0:0:0:0:
448,192,50733,1,0,0:0:0:0:
320,192,50881,1,0,0:0:0:0:
448,192,51029,1,0,0:0:0:0:
64,192,51029,1,0,0:0:0:0:
192,192,51177,1,0,0:0:0:0:
64,192,51324,128,0,51620:0:0:0:0:
448,192,51324,1,0,0:0:0:0:
320,192,51472,1,0,0:0:0:0:
448,192,51620,1,0,0:0:0:0:
192,192,51620,1,0,0:0:0:0:
64,192,51768,1,0,0:0:0:0:
192,192,51916,1,0,0:0:0:0:
320,192,51916,1,0,0:0:0:0:
320,192,52063,1,0,0:0:0:0:
448,192,52211,1,0,0:0:0:0:
64,192,52211,1,0,0:0:0:0:
192,192,52359,1,0,0:0:0:0:
64,192,52507,1,0,0:0:0:0:
320,192,52507,1,0,0:0:0:0:
320,192,52654,1,0,0:0:0:0:
448,192,52802,1,0,0:0:0:0:
192,192,52802,1,0,0:0:0:0:
64,192,52950,1,0,0:0:0:0:
320,192,53098,1,0,0:0:0:0:
448,192,53098,1,0,0:0:0:0:
64,192,53246,1,0,0:0:0:0:
192,192,53393,1,0,0:0:0:0:
320,192,53393,1,0,0:0:0:0:
192,192,53541,1,0,0:0:0:0:
320,192,53541,1,0,0:0:0:0:
192,192,53689,1,0,0:0:0:0:
320,192,53689,1,0,0:0:0:0:
64,192,53984,1,0,0:0:0:0:
448,192,53984,1,0,0:0:0:0:
192,192,54132,1,0,0:0:0:0:
448,192,54280,1,0,0:0:0:0:
320,192,54280,1,0,0:0:0:0:
64,192,54428,1,0,0:0:0:0:
192,192,54576,1,0,0:0:0:0:
448,192,54576,1,0,0:0:0:0:
320,192,54723,1,0,0:0:0:0:
64,192,54723,1,0,0:0:0:0:
192,192,54871,1,0,0:0:0:0:
448,192,54871,1,0,0:0:0:0:
320,192,55019,1,0,0:0:0:0:
64,192,55019,1,0,0:0:0:0:
448,192,55167,1,0,0:0:0:0:
192,192,55167,1,0,0:0:0:0:
320,192,55315,1,0,0:0:0:0:
192,192,55462,1,0,0:0:0:0:
64,192,55462,1,0,0:0:0:0:
448,192,55610,1,0,0:0:0:0:
320,192,55758,1,0,0:0:0:0:
192,192,55758,1,0,0:0:0:0:
64,192,55906,1,0,0:0:0:0:
448,192,55906,1,0,0:0:0:0:
192,192,56053,1,0,0:0:0:0:
320,192,56053,1,0,0:0:0:0:
64,192,56201,1,0,0:0:0:0:
448,192,56201,1,0,0:0:0:0:
320,192,56349,1,0,0:0:0:0:
192,192,56423,1,0,0:0:0:0:
64,192,56497,1,0,0:0:0:0:
448,192,56571,1,0,0:0:0:0:
320,192,56645,1,0,0:0:0:0:
192,192,56718,1,0,0:0:0:0:
64,192,56792,1,0,0:0:0:0:
192,192,56866,1,0,0:0:0:0:
320,192,56940,1,0,0:0:0:0:
448,192,57014,1,0,0:0:0:0:
64,192,57088,128,0,57236:0:0:0:0:
320,192,57236,1,0,0:0:0:0:
448,192,57310,1,0,0:0:0:0:
64,192,57383,128,0,57531:0:0:0:0:
448,192,57531,1,0,0:0:0:0:
320,192,57531,1,0,0:0:0:0:
64,192,57753,1,0,0:0:0:0:
192,192,57753,1,0,0:0:0:0:
448,192,57975,1,0,0:0:0:0:
192,192,57975,1,0,0:0:0:0:
320,192,58196,1,0,0:0:0:0:
64,192,58196,1,0,0:0:0:0:
192,192,58418,1,0,0:0:0:0:
320,192,58418,1,0,0:0:0:0:
64,192,58566,1,0,0:0:0:0:
448,192,58566,1,0,0:0:0:0:
448,192,58714,1,0,0:0:0:0:
320,192,58714,1,0,0:0:0:0:
64,192,58714,1,0,0:0:0:0:
192,192,60782,128,0,60930:0:0:0:0:
320,192,60930,128,0,61078:0:0:0:0:
448,192,61078,128,0,61669:0:0:0:0:
64,192,61669,128,0,62260:0:0:0:0:
320,192,62260,128,0,62556:0:0:0:0:
64,192,62556,128,0,62704:0:0:0:0:
192,192,62704,128,0,62999:0:0:0:0:
448,192,62999,128,0,63295:0:0:0:0:
320,192,63295,128,0,63590:0:0:0:0:
64,192,63590,128,0,63738:0:0:0:0:
192,192,63738,128,0,63886:0:0:0:0:
320,192,63886,128,0,64034:0:0:0:0:
448,192,64034,128,0,64182:0:0:0:0:
320,192,64182,128,0,64329:0:0:0:0:
192,192,64329,128,0,64477:0:0:0:0:
448,192,64477,128,0,65216:0:0:0:0:
192,192,65512,128,0,65659:0:0:0:0:
320,192,65659,128,0,65807:0:0:0:0:
448,192,65807,128,0,66398:0:0:0:0:
64,192,66398,128,0,66989:0:0:0:0:
320,192,66989,128,0,67285:0:0:0:0:
64,192,67285,128,0,67433:0:0:0:0:
192,192,67433,128,0,67728:0:0:0:0:
320,192,67728,128,0,68024:0:0:0:0:
448,192,68024,128,0,68319:0:0:0:0:
320,192,68319,128,0,68467:0:0:0:0:
192,192,68467,128,0,68615:0:0:0:0:
64,192,68615,128,0,68763:0:0:0:0:
192,192,68763,128,0,68911:0:0:0:0:
448,192,68911,128,0,69058:0:0:0:0:
320,192,69058,128,0,69206:0:0:0:0:
64,192,69206,128,0,69945:0:0:0:0:
448,192,70241,128,0,70388:0:0:0:0:
320,192,70388,128,0,70536:0:0:0:0:
192,192,70536,128,0,71127:0:0:0:0:
64,192,70536,1,0,0:0:0:0:
64,192,70832,1,0,0:0:0:0:
448,192,71127,128,0,71718:0:0:0:0:
320,192,71127,1,0,0:0:0:0:
192,192,71423,1,0,0:0:0:0:
320,192,71718,128,0,72014:0:0:0:0:
64,192,71718,1,0,0:0:0:0:
64,192,72014,128,0,72162:0:0:0:0:
448,192,72014,1,0,0:0:0:0:
192,192,72162,128,0,72457:0:0:0:0:
64,192,72457,1,0,0:0:0:0:
448,192,72457,1,0,0:0:0:0:
64,192,72753,128,0,73049:0:0:0:0:
448,192,72753,1,0,0:0:0:0:
192,192,73049,128,0,73196:0:0:0:0:
320,192,73196,128,0,73344:0:0:0:0:
448,192,73344,128,0,73492:0:0:0:0:
320,192,73492,128,0,73640:0:0:0:0:
192,192,73640,128,0,73787:0:0:0:0:
64,192,73787,128,0,73935:0:0:0:0:
320,192,73935,128,0,74674:0:0:0:0:
448,192,74083,1,0,0:0:0:0:
64,192,74083,1,0,0:0:0:0:
64,192,74674,1,0,0:0:0:0:
448,192,74674,1,0,0:0:0:0:
64,192,74896,1,0,0:0:0:0:
448,192,74896,1,0,0:0:0:0:
192,192,75117,1,0,0:0:0:0:
320,192,75117,1,0,0:0:0:0:
64,192,75265,1,0,0:0:0:0:
448,192,75265,1,0,0:0:0:0:
192,192,75413,1,0,0:0:0:0:
320,192,75487,1,0,0:0:0:0:
448,192,75561,1,0,0:0:0:0:
64,192,75709,1,0,0:0:0:0:
192,192,75782,1,0,0:0:0:0:
320,192,75856,1,0,0:0:0:0:
448,192,76004,1,0,0:0:0:0:
320,192,76152,1,0,0:0:0:0:
64,192,76300,1,0,0:0:0:0:
192,192,76374,1,0,0:0:0:0:
320,192,76448,1,0,0:0:0:0:
448,192,76595,1,0,0:0:0:0:
192,192,76743,1,0,0:0:0:0:
320,192,76891,1,0,0:0:0:0:
192,192,76965,1,0,0:0:0:0:
64,192,77039,1,0,0:0:0:0:
448,192,77186,1,0,0:0:0:0:
320,192,77260,1,0,0:0:0:0:
192,192,77334,1,0,0:0:0:0:
64,192,77482,1,0,0:0:0:0:
192,192,77556,1,0,0:0:0:0:
320,192,77630,1,0,0:0:0:0:
448,192,77704,1,0,0:0:0:0:
320,192,77778,1,0,0:0:0:0:
192,192,77851,1,0,0:0:0:0:
64,192,77925,1,0,0:0:0:0:
448,192,77999,1,0,0:0:0:0:
320,192,78073,1,0,0:0:0:0:
192,192,78147,1,0,0:0:0:0:
64,192,78221,1,0,0:0:0:0:
192,192,78295,1,0,0:0:0:0:
320,192,78369,1,0,0:0:0:0:
448,192,78443,1,0,0:0:0:0:
320,192,78516,1,0,0:0:0:0:
192,192,78590,1,0,0:0:0:0:
64,192,78664,1,0,0:0:0:0:
192,192,78738,1,0,0:0:0:0:
320,192,78812,1,0,0:0:0:0:
448,192,78812,1,0,0:0:0:0:
192,192,78960,1,0,0:0:0:0:
64,192,79108,1,0,0:0:0:0:
448,192,79255,1,0,0:0:0:0:
192,192,79329,1,0,0:0:0:0:
320,192,79403,1,0,0:0:0:0:
64,192,79477,1,0,0:0:0:0:
192,192,79551,1,0,0:0:0:0:
320,192,79625,1,0,0:0:0:0:
448,192,79699,1,0,0:0:0:0:
64,192,79699,1,0,0:0:0:0:
192,192,79699,1,0,0:0:0:0:
320,192,79847,1,0,0:0:0:0:
448,192,79994,128,0,80142:0:0:0:0:
64,192,79994,1,0,0:0:0:0:
192,192,80142,1,0,0:0:0:0:
64,192,80290,128,0,80438:0:0:0:0:
320,192,80290,1,0,0:0:0:0:
448,192,80438,1,0,0:0:0:0:
64,192,80585,1,0,0:0:0:0:
192,192,80733,1,0,0:0:0:0:
320,192,80881,1,0,0:0:0:0:
448,192,80881,1,0,0:0:0:0:
192,192,81029,1,0,0:0:0:0:
448,192,81177,1,0,0:0:0:0:
64,192,81177,128,0,81324:0:0:0:0:
320,192,81324,1,0,0:0:0:0:
448,192,81472,128,0,81620:0:0:0:0:
64,192,81472,1,0,0:0:0:0:
192,192,81620,1,0,0:0:0:0:
320,192,81768,1,0,0:0:0:0:
192,192,81916,1,0,0:0:0:0:
64,192,82063,1,0,0:0:0:0:
320,192,82063,1,0,0:0:0:0:
448,192,82211,128,0,82507:0:0:0:0:
64,192,82359,1,0,0:0:0:0:
192,192,82507,1,0,0:0:0:0:
448,192,82654,1,0,0:0:0:0:
64,192,82654,1,0,0:0:0:0:
192,192,82728,1,0,0:0:0:0:
320,192,82802,1,0,0:0:0:0:
448,192,82876,1,0,0:0:0:0:
320,192,82950,1,0,0:0:0:0:
192,192,83098,1,0,0:0:0:0:
64,192,83246,1,0,0:0:0:0:
448,192,83246,1,0,0:0:0:0:
320,192,83393,1,0,0:0:0:0:
192,192,83541,1,0,0:0:0:0:
64,192,83689,1,0,0:0:0:0:
320,192,83837,1,0,0:0:0:0:
192,192,83837,1,0,0:0:0:0:
448,192,83984,128,0,84280:0:0:0:0:
192,192,84132,1,0,0:0:0:0:
64,192,84280,128,0,84723:0:0:0:0:
448,192,84428,1,0,0:0:0:0:
320,192,84576,1,0,0:0:0:0:
448,192,84723,128,0,84871:0:0:0:0:
192,192,84871,1,0,0:0:0:0:
64,192,85019,128,0,85167:0:0:0:0:
448,192,85019,1,0,0:0:0:0:
320,192,85019,1,0,0:0:0:0:
192,192,85167,1,0,0:0:0:0:
320,192,85315,1,0,0:0:0:0:
448,192,85462,1,0,0:0:0:0:
64,192,85610,1,0,0:0:0:0:
320,192,85610,1,0,0:0:0:0:
192,192,85758,1,0,0:0:0:0:
64,192,85906,128,0,86053:0:0:0:0:
448,192,85906,1,0,0:0:0:0:
320,192,86053,1,0,0:0:0:0:
448,192,86201,128,0,86349:0:0:0:0:
64,192,86201,1,0,0:0:0:0:
192,192,86349,1,0,0:0:0:0:
448,192,86497,1,0,0:0:0:0:
320,192,86645,1,0,0:0:0:0:
192,192,86792,1,0,0:0:0:0:
64,192,86792,1,0,0:0:0:0:
448,192,86940,128,0,87383:0:0:0:0:
64,192,87088,1,0,0:0:0:0:
192,192,87236,1,0,0:0:0:0:
320,192,87383,1,0,0:0:0:0:
64,192,87383,1,0,0:0:0:0:
192,192,87457,1,0,0:0:0:0:
64,192,87531,1,0,0:0:0:0:
448,192,87605,1,0,0:0:0:0:
320,192,87679,1,0,0:0:0:0:
192,192,87827,1,0,0:0:0:0:
64,192,87975,1,0,0:0:0:0:
448,192,87975,1,0,0:0:0:0:
192,192,88122,1,0,0:0:0:0:
320,192,88270,1,0,0:0:0:0:
448,192,88270,1,0,0:0:0:0:
192,192,88566,1,0,0:0:0:0:
64,192,88566,1,0,0:0:0:0:
320,192,88714,1,0,0:0:0:0:
448,192,88714,1,0,0:0:0:0:
64,192,89009,1,0,0:0:0:0:
320,192,89009,1,0,0:0:0:0:
192,192,89157,1,0,0:0:0:0:
448,192,89157,1,0,0:0:0:0:
320,192,89305,1,0,0:0:0:0:
64,192,89305,1,0,0:0:0:0:
448,192,89452,1,0,0:0:0:0:
192,192,89452,128,0,89600:0:0:0:0:
64,192,89600,1,0,0:0:0:0:
320,192,89748,128,0,89896:0:0:0:0:
192,192,89748,1,0,0:0:0:0:
448,192,89896,1,0,0:0:0:0:
64,192,90044,1,0,0:0:0:0:
192,192,90191,1,0,0:0:0:0:
448,192,90339,1,0,0:0:0:0:
320,192,90339,1,0,0:0:0:0:
64,192,90487,1,0,0:0:0:0:
320,192,90635,128,0,90782:0:0:0:0:
64,192,90782,1,0,0:0:0:0:
192,192,90930,128,0,91078:0:0:0:0:
448,192,90930,1,0,0:0:0:0:
320,192,91078,1,0,0:0:0:0:
192,192,91226,1,0,0:0:0:0:
64,192,91374,1,0,0:0:0:0:
448,192,91521,1,0,0:0:0:0:
320,192,91521,1,0,0:0:0:0:
64,192,91669,128,0,92113:0:0:0:0:
448,192,91817,1,0,0:0:0:0:
320,192,91965,1,0,0:0:0:0:
192,192,92113,1,0,0:0:0:0:
448,192,92113,1,0,0:0:0:0:
320,192,92186,1,0,0:0:0:0:
448,192,92260,1,0,0:0:0:0:
64,192,92334,1,0,0:0:0:0:
192,192,92408,1,0,0:0:0:0:
320,192,92556,1,0,0:0:0:0:
448,192,92704,1,0,0:0:0:0:
64,192,92704,1,0,0:0:0:0:
192,192,92851,1,0,0:0:0:0:
64,192,92999,1,0,0:0:0:0:
320,192,93147,1,0,0:0:0:0:
192,192,93295,1,0,0:0:0:0:
64,192,93295,1,0,0:0:0:0:
448,192,93443,128,0,93738:0:0:0:0:
192,192,93590,1,0,0:0:0:0:
64,192,93738,128,0,94182:0:0:0:0:
448,192,93886,1,0,0:0:0:0:
320,192,94034,1,0,0:0:0:0:
192,192,94182,1,0,0:0:0:0:
448,192,94255,1,0,0:0:0:0:
320,192,94329,1,0,0:0:0:0:
192,192,94403,1,0,0:0:0:0:
64,192,94477,1,0,0:0:0:0:
192,192,94551,1,0,0:0:0:0:
320,192,94625,1,0,0:0:0:0:
448,192,94699,1,0,0:0:0:0:
320,192,94773,1,0,0:0:0:0:
192,192,94847,1,0,0:0:0:0:
64,192,94920,1,0,0:0:0:0:
192,192,94994,1,0,0:0:0:0:
320,192,95068,1,0,0:0:0:0:
448,192,95142,1,0,0:0:0:0:
320,192,95216,1,0,0:0:0:0:
192,192,95290,1,0,0:0:0:0:
64,192,95364,1,0,0:0:0:0:
192,192,95438,1,0,0:0:0:0:
320,192,95512,1,0,0:0:0:0:
448,192,95585,1,0,0:0:0:0:
64,192,95659,1,0,0:0:0:0:
192,192,95733,1,0,0:0:0:0:
320,192,95807,1,0,0:0:0:0:
448,192,95881,1,0,0:0:0:0:
320,192,95955,1,0,0:0:0:0:
192,192,96029,1,0,0:0:0:0:
320,192,96103,1,0,0:0:0:0:
448,192,96177,1,0,0:0:0:0:
64,192,96250,1,0,0:0:0:0:
192,192,96324,1,0,0:0:0:0:
320,192,96398,1,0,0:0:0:0:
448,192,96472,1,0,0:0:0:0:
64,192,96546,128,0,96989:0:0:0:0:
448,192,96842,1,0,0:0:0:0:
320,192,96989,128,0,97433:0:0:0:0:
192,192,96989,1,0,0:0:0:0:
192,192,97285,1,0,0:0:0:0:
448,192,97433,128,0,97581:0:0:0:0:
64,192,97433,1,0,0:0:0:0:
192,192,97581,128,0,98319:0:0:0:0:
64,192,97581,1,0,0:0:0:0:
320,192,97876,1,0,0:0:0:0:
64,192,98024,1,0,0:0:0:0:
448,192,98172,1,0,0:0:0:0:
64,192,98319,128,0,98911:0:0:0:0:
320,192,98319,1,0,0:0:0:0:
448,192,98615,1,0,0:0:0:0:
192,192,98615,1,0,0:0:0:0:
320,192,98763,1,0,0:0:0:0:
448,192,98911,128,0,99058:0:0:0:0:
192,192,99058,1,0,0:0:0:0:
64,192,99206,128,0,99354:0:0:0:0:
448,192,99206,1,0,0:0:0:0:
320,192,99354,1,0,0:0:0:0:
448,192,99502,128,0,99649:0:0:0:0:
64,192,99502,1,0,0:0:0:0:
192,192,99649,1,0,0:0:0:0:
448,192,99797,1,0,0:0:0:0:
320,192,99945,1,0,0:0:0:0:
64,192,100093,1,0,0:0:0:0:
448,192,100093,1,0,0:0:0:0:
192,192,100241,1,0,0:0:0:0:
320,192,100388,1,0,0:0:0:0:
448,192,100388,1,0,0:0:0:0:
192,192,100536,1,0,0:0:0:0:
64,192,100684,1,0,0:0:0:0:
320,192,100684,1,0,0:0:0:0:
448,192,100832,1,0,0:0:0:0:
320,192,100980,1,0,0:0:0:0:
192,192,100980,1,0,0:0:0:0:
64,192,101127,1,0,0:0:0:0:
320,192,101275,1,0,0:0:0:0:
448,192,101275,1,0,0:0:0:0:
64,192,101497,1,0,0:0:0:0:
192,192,101497,1,0,0:0:0:0:
192,192,101718,1,0,0:0:0:0:
320,192,101718,1,0,0:0:0:0:
320,192,101866,1,0,0:0:0:0:
448,192,101866,1,0,0:0:0:0:
320,192,102088,1,0,0:0:0:0:
64,192,102088,1,0,0:0:0:0:
192,192,102310,1,0,0:0:0:0:
448,192,102310,1,0,0:0:0:0:
320,192,102457,1,0,0:0:0:0:
64,192,102457,1,0,0:0:0:0:
64,192,102679,1,0,0:0:0:0:
448,192,102679,1,0,0:0:0:0:
64,192,102901,1,0,0:0:0:0:
320,192,102901,1,0,0:0:0:0:
64,192,103049,1,0,0:0:0:0:
192,192,103049,1,0,0:0:0:0:
320,192,103270,1,0,0:0:0:0:
448,192,103270,1,0,0:0:0:0:
448,192,103492,1,0,0:0:0:0:
192,192,103492,1,0,0:0:0:0:
320,192,103640,1,0,0:0:0:0:
64,192,103640,128,0,104231:0:0:0:0:
448,192,103935,1,0,0:0:0:0:
192,192,104231,128,0,104822:0:0:0:0:
448,192,104231,1,0,0:0:0:0:
320,192,104526,1,0,0:0:0:0:
64,192,104674,1,0,0:0:0:0:
448,192,104822,128,0,105117:0:0:0:0:
320,192,104822,1,0,0:0:0:0:
192,192,105117,128,0,105265:0:0:0:0:
64,192,105117,1,0,0:0:0:0:
320,192,105265,128,0,105561:0:0:0:0:
448,192,105413,1,0,0:0:0:0:
64,192,105561,128,0,106004:0:0:0:0:
448,192,105709,1,0,0:0:0:0:
320,192,105856,1,0,0:0:0:0:
448,192,106004,128,0,107186:0:0:0:0:
192,192,106004,1,0,0:0:0:0:
320,192,106152,1,0,0:0:0:0:
192,192,106300,1,0,0:0:0:0:
64,192,106448,1,0,0:0:0:0:
192,192,106595,1,0,0:0:0:0:
320,192,106743,1,0,0:0:0:0:
64,192,106891,1,0,0:0:0:0:
192,192,107039,1,0,0:0:0:0:
64,192,107186,1,0,0:0:0:0:
192,192,107334,1,0,0:0:0:0:
448,192,107334,1,0,0:0:0:0:
448,192,107630,1,0,0:0:0:0:
192,192,107630,1,0,0:0:0:0:
64,192,107778,1,0,0:0:0:0:
320,192,107778,1,0,0:0:0:0:
192,192,107925,1,0,0:0:0:0:
448,192,107925,1,0,0:0:0:0:
64,192,108073,1,0,0:0:0:0:
320,192,108073,1,0,0:0:0:0:
448,192,108369,1,0,0:0:0:0:
320,192,108516,1,0,0:0:0:0:
192,192,108664,1,0,0:0:0:0:
64,192,108812,1,0,0:0:0:0:
320,192,109108,1,0,0:0:0:0:
192,192,109403,1,0,0:0:0:0:
448,192,109699,1,0,0:0:0:0:
320,192,109994,1,0,0:0:0:0:
192,192,110142,1,0,0:0:0:0:
64,192,110290,1,0,0:0:0:0:
320,192,110438,1,0,0:0:0:0:
192,192,110585,1,0,0:0:0:0:
448,192,110733,1,0,0:0:0:0:
320,192,110881,1,0,0:0:0:0:
192,192,111029,1,0,0:0:0:0:
320,192,111177,1,0,0:0:0:0:
192,192,111472,1,0,0:0:0:0:
64,192,111768,1,0,0:0:0:0:
448,192,112063,1,0,0:0:0:0:
320,192,112359,1,0,0:0:0:0:
64,192,112507,1,0,0:0:0:0:
192,192,112654,1,0,0:0:0:0:
448,192,112802,1,0,0:0:0:0:
320,192,112950,1,0,0:0:0:0:
192,192,113098,1,0,0:0:0:0:
64,192,113246,1,0,0:0:0:0:
320,192,113393,1,0,0:0:0:0:
192,192,113541,1,0,0:0:0:0:
320,192,113689,1,0,0:0:0:0:
192,192,113837,1,0,0:0:0:0:
64,192,113984,1,0,0:0:0:0:
448,192,114132,1,0,0:0:0:0:
320,192,114280,1,0,0:0:0:0:
448,192,114428,1,0,0:0:0:0:
192,192,114576,1,0,0:0:0:0:
320,192,114723,1,0,0:0:0:0:
192,192,114871,1,0,0:0:0:0:
64,192,115019,1,0,0:0:0:0:
320,192,115167,1,0,0:0:0:0:
64,192,115315,1,0,0:0:0:0:
448,192,115462,128,0,115906:0:0:0:0:
192,192,115462,1,0,0:0:0:0:
320,192,115610,1,0,0:0:0:0:
64,192,115758,1,0,0:0:0:0:
192,192,115906,128,0,116349:0:0:0:0:
320,192,115906,1,0,0:0:0:0:
64,192,116053,1,0,0:0:0:0:
448,192,116201,1,0,0:0:0:0:
64,192,116349,128,0,116497:0:0:0:0:
320,192,116349,1,0,0:0:0:0:
448,192,116497,128,0,119009:0:0:0:0:
192,192,116497,1,0,0:0:0:0:
