osu file format v9

[General]
AudioFilename: LI HUN.mp3
AudioLeadIn: 2000
PreviewTime: 26313
Countdown: 0
SampleSet: Soft
StackLeniency: 0.7
Mode: 0
LetterboxInBreaks: 0

[Editor]
DistanceSpacing: 0.9
BeatDivisor: 4
GridSize: 4

[Metadata]
Title:Li Hun - Wu Se Yao Ji
Artist:PILI Music Team
Creator:yanguoke
Version:Normal
Source:PILI TV Series
Tags:chinese classical wuseyaoji lihun OST

[Difficulty]
HPDrainRate:4
CircleSize:4
OverallDifficulty:4
ApproachRate:4
SliderMultiplier:1.2
SliderTickRate:1

[Events]
//Background and Video events
0,0,"bg2.jpg"
//Break Periods
2,61426,64270
2,104517,107906
2,159607,162452
//Storyboard Layer 0 (Background)
//Storyboard Layer 1 (Fail)
//Storyboard Layer 2 (Pass)
//Storyboard Layer 3 (Foreground)
//Storyboard Sound Samples
//Background Colour Transformations
3,100,255,255,255

[TimingPoints]
136,545.454545454546,4,2,1,50,1,0
4499,-100,4,2,1,35,0,0
5045,-100,4,2,1,50,0,0
6681,-100,4,2,1,35,0,0
7226,-100,4,2,1,50,0,0
8863,-100,4,2,1,35,0,0
9408,-100,4,2,1,50,0,0
11045,-100,4,2,1,35,0,0
11590,-100,4,2,1,50,0,0
15408,-100,4,2,1,45,0,0
15954,-100,4,2,1,50,0,0
17590,-100,4,2,1,45,0,0
18136,-100,4,2,1,50,0,0
19772,-100,4,2,1,45,0,0
20317,-100,4,2,1,50,0,0
26317,-100,4,2,1,55,0,1
26863,-100,4,2,1,75,0,1
35045,-100,4,2,1,55,0,1
35590,-100,4,2,1,75,0,1
43226,-100,4,2,1,60,0,0
43772,-100,4,2,1,75,0,0
44317,-100,4,2,2,75,0,0
44863,-100,4,2,1,75,0,0
60681,-100,4,2,2,75,0,0
61226,-100,4,2,1,60,0,0
65590,-100,4,2,1,70,0,0
69954,-100,4,2,1,50,0,0
70499,-100,4,2,1,70,0,0
77590,-100,4,2,1,73,0,0
78136,-100,4,2,1,75,0,0
78681,-100,4,2,1,55,0,0
78954,-100,4,2,1,75,0,0
79908,-100,4,2,1,30,0,0
80317,-100,4,2,1,75,0,0
81136,-100,4,2,1,30,0,0
81408,-100,4,2,1,75,0,0
87408,-100,4,2,1,65,0,0
91772,-100,4,2,1,55,0,0
92317,-100,4,2,1,65,0,0
96136,-100,4,2,1,55,0,0
96681,-100,4,2,1,65,0,0
100499,-100,4,2,1,55,0,0
101045,-100,4,2,1,65,0,0
104317,-100,4,2,1,60,0,0
109226,-100,4,2,1,65,0,0
124499,-100,4,2,1,60,0,1
124772,-100,4,2,1,75,0,1
126136,-100,4,2,2,75,0,1
126681,-100,4,2,1,75,0,1
131590,-100,4,2,2,75,0,1
132136,-100,4,2,1,10,0,1
132681,-100,4,2,1,75,0,1
133226,-100,4,2,1,55,0,1
133772,-100,4,2,1,75,0,1
140863,-100,4,2,1,75,0,0
141954,-100,4,2,1,60,0,0
142499,-100,4,2,2,75,0,0
143045,-100,4,2,1,75,0,0
151226,-100,4,2,2,75,0,0
151772,-100,4,2,1,75,0,0
158863,-100,4,2,2,75,0,0
159408,-100,4,2,2,60,0,0
163772,-100,4,2,1,75,0,0
168136,-100,4,2,1,60,0,0
168681,-100,4,2,1,75,0,0
176863,-100,4,2,1,60,0,0
177136,-100,4,2,1,75,0,0
178090,-100,4,2,1,30,0,0
178499,-100,4,2,1,75,0,0
179317,-100,4,2,1,35,0,0
179590,-100,4,2,1,75,0,0
185045,-100,4,2,1,60,0,0
185590,-100,4,2,1,75,0,0
187226,-100,4,2,2,75,0,0
187772,-100,4,2,1,75,0,0
192681,-100,4,2,2,75,0,0
193772,-100,4,2,1,75,0,0
194317,-100,4,2,1,55,0,0
194863,-100,4,2,1,60,0,0

[Colours]
Combo1 : 175,95,95
Combo2 : 255,160,98
Combo3 : 254,61,27

[HitObjects]
60,184,136,5,0
124,112,682,1,0
220,96,1227,2,0,B|284:80|340:112,1,120,2|0
412,192,2317,5,0
348,272,2863,1,0
252,288,3408,2,0,B|188:304|132:272,1,120,2|0
220,168,4499,6,0,B|276:132|336:168|336:168,1,120,4|0
292,256,5590,2,0,B|356:292|420:248,1,120,2|2
444,168,6681,1,4
404,80,7226,2,0,B|344:44|276:84,1,120,0|2
212,144,8317,1,2
140,64,8863,6,0,B|92:128|92:176|92:176|140:216|140:216,1,180,4|0
196,252,9954,2,0,B|260:268|292:332,1,120,0|2
376,276,11045,6,0,B|424:212|424:164|424:164|376:124|376:124,1,180,4|0
316,96,12135,2,0,B|252:80|220:16,1,120,8|8
176,128,13226,6,0,B|128:80|56:104,2,120,4|2|0
104,192,14863,1,2
152,272,15408,2,0,B|208:272|256:328|256:328|300:272|364:272,1,240,4|0
404,192,17045,1,2
332,128,17590,6,0,B|380:80|452:104,2,120,4|2|0
256,192,19226,1,2
176,248,19772,2,0,B|128:304|48:280,2,120,4|2|8
256,192,21408,1,8
256,192,21954,12,0,25226
96,132,26317,6,0,B|136:100|160:96|216:108,1,120,4|8
168,192,27408,1,0
96,252,27954,2,0,B|136:284|160:288|216:276,1,120,8|2
272,192,29045,2,0,B|304:176|336:196|360:220|412:192|412:192,2,120,8|2|8
252,84,30681,6,0,B|220:116|172:108,1,60,2|0
132,140,31226,2,0,B|92:156|76:196,1,60,8|0
84,252,31772,2,0,B|204:252,1,120,2|8
280,252,32590,1,0
356,252,32863,2,0,B|348:320|276:328,2,120,2|8|0
356,152,34499,1,8
356,52,35045,5,4
268,88,35590,1,8
196,152,36136,1,0
196,248,36681,2,0,B|252:272|316:248,1,120,8|2
312,152,37772,2,0,B|256:128|192:152,1,120,8|2
196,248,38863,1,8
131,154,39408,6,0,B|107:106|67:98|67:98|51:50,2,120,2|8|2
131,254,41045,1,8
131,254,41317,1,0
131,254,41590,2,0,B|63:254,2,60,2|0|8
207,254,42408,2,0,B|247:246|267:206,1,60,0|2
256,124,43226,1,4
349,92,43772,6,0,B|328:40|292:24|268:20|244:20|220:24|184:40|164:92,1,240,2|0
68,124,45408,2,0,B|48:144|44:168|44:168|44:244,1,120,8|2
140,192,46499,2,0,B|140:261|140:261|136:285|116:305,2,120,8|2|8
140,96,48136,6,0,B|204:96,1,60,2|0
232,164,48681,2,0,B|304:164,1,60,8|0
368,164,49226,2,0,B|404:224|360:292,1,120,2|8
292,280,50045,1,0
216,280,50317,2,0,B|88:280,2,120,2|8|0
216,280,51954,1,8
264,188,52499,5,2
264,188,52772,1,0
264,188,53045,2,0,B|336:188,2,60,8|0|2
164,188,54136,2,0,B|116:188|88:160|88:108,1,120,8|2
192,92,55226,2,0,B|240:52|240:52|320:52,2,120,8|2|8
140,188,56863,6,0,B|164:208|212:188,1,60,2|0
268,216,57408,2,0,B|300:204|348:240,1,60,8|0
400,240,57954,2,0,B|400:100,1,120,2|8
400,44,58772,1,0
400,44,59045,1,2
300,44,59454,6,0,B|268:44,1,30,0|8
196,44,59863,1,0
196,120,60136,2,0,B|196:176|132:216|132:216|196:256|196:312,1,240,2|4
148,156,65590,6,0,B|112:124|60:140,2,90,2|0|0
148,156,66681,1,2
148,156,66954,1,0
92,212,67226,2,0,B|148:256|208:208,1,120,0|0
220,140,68045,2,0,B|220:72,1,60,0|2
272,28,68590,1,0
300,96,68863,2,0,B|300:220,1,120,0|2
388,252,69954,6,0,B|348:308|348:308|272:308,1,120,4|2
300,216,71045,2,0,B|232:216|232:216|200:256,1,120,0|2
100,256,72136,1,0
60,192,72408,1,0
100,128,72681,1,2
164,56,73226,6,0,B|196:44|240:76,1,60,2|0
280,108,73772,2,0,B|308:128|348:116,1,60,2|0
400,80,74317,2,0,B|440:104|456:136|444:208,3,120,0|2|0|2
352,184,76499,6,0,B|352:264,1,60,0|0
280,228,77045,2,0,B|280:300,1,60,2|0
208,312,77590,2,0,B|164:268|164:268|164:200,1,120,8|8
128,116,78681,6,0,B|160:92|200:108,1,60,4|0
244,148,79226,2,0,B|280:152|300:124,1,60,8|0
360,168,79772,2,0,B|392:160|420:188,1,60,2|0
372,244,80317,6,0,B|442:280,2,60,8|0|2
356,316,81136,1,0
284,316,81408,2,0,B|220:316,2,60,8|0|0
304,212,82499,1,8
400,244,83045,5,2
412,172,83317,1,0
384,104,83590,1,8
324,64,83863,2,0,B|292:32|252:68,1,60,0|2
244,156,84681,5,8
196,212,84954,2,0,B|156:228|124:180,1,60,0|2
140,200,85499,1,0
140,128,85772,2,0,B|180:128|204:80|204:80|260:80,1,120,8|2
348,80,86863,1,8
240,80,87408,5,4
140,128,87954,1,0
192,224,88499,2,0,B|224:200|272:248|296:240|320:208,1,120,8|10
396,160,89590,5,0
472,84,90136,1,2
396,160,90681,1,8
320,84,91226,1,8
212,84,91772,5,4
132,160,92317,1,0
132,268,92863,2,0,B|164:244|212:292|236:284|268:252,1,120,8|10
312,184,93954,5,0
400,248,94499,1,2
432,144,95045,1,8
344,80,95590,1,8
240,96,96135,6,0,B|248:160|328:192,1,120,4|8
356,284,97226,2,8,B|424:260|424:172,1,120,0|8
336,128,98317,1,0
244,72,98863,1,8
152,128,99408,1,0
152,236,99954,1,8
152,128,100499,6,0,B|120:56|32:64,1,120,4|8
64,172,101590,2,0,B|84:244|172:236,1,120,0|10
260,236,102681,1,0
368,236,103226,1,8
368,128,103772,1,0
476,128,104317,1,12
256,192,109226,12,0,111408
256,300,111954,5,2
256,192,112499,1,0
256,84,113045,1,2
256,84,113590,6,0,B|188:60|136:124,1,120,0|2
228,184,114681,2,0,B|304:204|348:132,1,120,0|2
256,84,115772,1,0
256,84,116045,1,0
256,84,116317,1,2
256,192,116863,2,0,B|256:264,2,60,0|0|2
256,192,117954,12,0,119590
96,76,120135,5,2
176,148,120681,1,0
256,220,121226,1,2
176,148,121772,1,0
256,72,122317,5,2
336,148,122863,1,0
256,220,123408,1,2
256,328,123954,1,2
188,244,124499,5,4
140,188,124772,1,0
92,132,125045,1,8
36,44,125590,2,0,B|116:-4|172:68|172:68|260:28,1,240,2|0
308,124,127226,2,0,B|340:124|372:164|380:188|436:188|436:188,2,120,8|2|8
200,124,128863,6,0,B|168:156|120:148,1,60,2|0
104,208,129408,2,0,B|64:220|52:264,1,60,8|0
124,280,129954,2,0,B|244:280,1,120,2|8
216,212,130772,1,0
188,144,131045,2,0,B|248:144|248:144|272:144|304:128|304:128|380:144,2,180,2|0|8
80,144,133226,5,4
172,88,133772,1,8
264,144,134317,1,2
368,176,134863,2,0,B|304:280,1,120,8|2
212,224,135954,2,0,B|148:328,1,120,8|2
64,260,137045,1,8
128,172,137590,6,0,B|92:152|100:108|100:108|44:68,2,120,2|8|2
196,100,139226,1,8
220,32,139499,1,0
268,88,139772,2,0,B|300:96|348:112|348:112,2,60,2|0|8
244,156,140590,2,0,B|305:174,1,60,0|2
344,272,141408,1,8
448,296,141954,6,0,B|461:233|404:192|404:192|460:148|444:80,1,240,4|0
344,44,143590,2,0,B|344:108|344:108|312:100|272:124,1,120,8|2
188,156,144681,2,0,B|164:172|108:132|92:148|68:156,2,120,8|2|8
188,48,146317,6,0,B|260:48,1,60,2|0
276,116,146863,2,0,B|348:116,1,60,8|0
412,116,147408,2,0,B|412:188|332:192,1,120,2|8
337,191,148226,1,0
260,192,148499,2,0,B|132:192,2,120,2|8|0
140,192,150136,1,8
96,284,150681,6,0,B|48:264|32:228|28:204|28:180|32:156|48:120|100:100,1,240,2|0
208,100,152317,2,0,B|328:100,1,120,8|2
408,172,153408,2,0,B|360:212|360:212|280:212,2,120,8|2|8
336,92,155045,6,0,B|304:72|264:92,1,60,2|0
228,140,155590,2,0,B|192:148|156:108,1,60,8|0
104,152,156136,2,0,B|32:264,1,120,2|8
39,252,156954,1,0
39,252,157226,1,2
128,288,157636,6,0,B|160:288,1,30,0|8
232,288,158045,1,0
308,288,158317,2,0,B|360:236|372:192|372:192|360:140|308:84,1,240,2|4
148,140,163772,6,0,B|112:108|60:124,2,90,2|0|0
96,192,164863,2,0,B|140:252|140:252,1,60,2|0
204,244,165408,2,0,B|267:244|331:244,1,120,8|2
364,184,166227,2,0,B|432:184,1,60,0|8
420,184,166772,1,0
424,108,167045,2,0,B|376:68|376:68|304:68,1,120,8|8
212,68,168136,6,0,B|156:76|116:100|88:132,1,120,4|8
240,140,169226,2,0,B|184:148|144:172|116:208,1,120,2|8
224,248,170317,1,2
224,248,170590,1,0
224,248,170863,1,8
328,216,171408,6,0,B|392:196,1,60,2|0
384,124,171954,2,0,B|448:104,1,60,8|0
428,32,172499,5,2
384,124,173045,1,8
276,124,173590,1,2
192,192,174136,1,8
84,192,174681,6,0,B|84:132,1,60,2|0
156,132,175227,2,0,B|156:72,1,60,8|0
220,36,175772,2,0,B|264:80|264:80|264:148,1,120,2|8
320,232,176863,6,0,B|288:256|248:240,1,60,4|0
208,200,177408,1,8
144,168,177681,1,0
124,100,177954,2,0,B|92:96|64:120,1,60,2|0
68,188,178499,6,0,B|68:264,2,60,8|0|2
68,116,179318,1,0
140,116,179590,2,0,B|216:116,2,60,8|0|0
140,116,180408,1,0
140,116,180681,1,8
224,48,181227,5,2
248,116,181499,1,0
232,188,181772,1,8
256,256,182045,2,0,B|224:288|248:332,1,60,0|2
132,292,182863,5,8
132,292,183136,2,0,B|132:256|132:220,1,60,0|2
132,160,183681,1,0
132,88,183954,2,0,B|172:88|196:40|196:40|252:40,1,120,8|0
352,40,185045,1,4
400,136,185590,5,2
344,180,185863,1,0
288,224,186136,1,8
196,272,186681,2,0,B|148:192|220:140|220:140|304:80,1,240,2|0
344,180,188317,2,0,B|440:104,2,120,8|2|8
244,140,189954,6,0,B|212:172|164:164,1,60,2|0
196,236,190499,2,0,B|156:248|144:292,1,60,8|0
216,308,191045,2,0,B|336:308,1,120,2|8
308,240,191863,1,0
280,172,192136,2,0,B|336:144|336:144|384:176|416:172|416:172|468:172,2,180,2|0|8
232,80,194317,5,4
140,140,194863,1,8
132,248,195408,1,2
228,188,195954,1,8
328,144,196499,2,0,B|321:104|276:72|236:80,1,120,0|8
364,92,198681,6,0,B|466:154,1,120,0|8
368,200,199772,2,0,B|256:156,1,120,8|8
276,264,200863,2,0,B|212:256,3,60,0|0|8|0
