osu file format v9

[General]
AudioFilename: LI HUN.mp3
AudioLeadIn: 2000
PreviewTime: 26313
Countdown: 0
SampleSet: Soft
StackLeniency: 1
Mode: 0
LetterboxInBreaks: 0

[Editor]
DistanceSpacing: 0.8
BeatDivisor: 4
GridSize: 4

[Metadata]
Title:Li Hun - Wu Se Yao Ji
Artist:PILI Music Team
Creator:yanguoke
Version:Hard
Source:PILI TV Series
Tags:chinese classical wuseyaoji lihun OST

[Difficulty]
HPDrainRate:6
CircleSize:4
OverallDifficulty:6
ApproachRate:7
SliderMultiplier:1.4
SliderTickRate:1

[Events]
//Background and Video events
0,0,"bg2.jpg"
//Break Periods
2,22154,25417
2,60881,64690
2,78881,82145
2,141608,145417
//Storyboard Layer 0 (Background)
//Storyboard Layer 1 (Fail)
//Storyboard Layer 2 (Pass)
//Storyboard Layer 3 (Foreground)
//Storyboard Sound Samples
//Background Colour Transformations
3,100,255,255,255

[TimingPoints]
136,545.454545454546,4,2,1,65,1,0
4499,-100,4,2,1,45,0,0
4908,-100,4,2,1,65,0,0
6681,-100,4,2,1,45,0,0
7090,-100,4,2,1,65,0,0
8863,-100,4,2,1,45,0,0
8999,-100,4,2,1,65,0,0
11045,-100,4,2,1,45,0,0
11454,-100,4,2,1,65,0,0
13226,-100,4,2,1,50,0,0
13499,-100,4,2,1,65,0,0
21954,-100,4,2,1,50,0,0
26317,-100,4,2,1,75,0,1
27545,-100,4,2,1,25,0,1
27954,-100,4,2,1,75,0,1
29045,-100,4,2,2,75,0,1
29590,-100,4,2,1,75,0,1
34226,-100,4,2,1,30,0,1
34499,-100,4,2,1,75,0,1
36408,-100,4,2,1,30,0,1
36681,-100,4,2,1,75,0,1
36954,-100,4,2,1,30,0,1
37226,-100,4,2,1,75,0,1
37499,-100,4,2,1,30,0,1
37772,-100,4,2,1,75,0,1
38045,-100,4,2,1,30,0,1
38317,-100,4,2,1,75,0,1
38590,-100,4,2,1,30,0,1
38863,-100,4,2,1,75,0,1
42954,-100,4,2,1,40,0,1
43226,-100,4,2,1,50,0,0
43772,-100,4,2,1,75,0,0
45136,-100,4,2,1,30,0,0
45408,-100,4,2,1,75,0,0
46226,-100,4,2,1,30,0,0
46499,-100,4,2,1,75,0,0
48681,-100,4,2,2,75,0,0
49226,-100,4,2,1,75,0,0
53863,-100,4,2,1,30,0,0
54136,-100,4,2,1,75,0,0
55226,-100,4,2,2,75,0,0
55772,-100,4,2,1,75,0,0
58226,-100,4,2,1,25,0,0
58499,-100,4,2,1,75,0,0
59590,-100,4,2,2,75,0,0
60681,-100,4,2,1,50,0,0
65590,-100,4,2,1,65,0,0
69954,-100,4,2,1,45,0,0
70226,-100,4,2,1,65,0,0
74454,-100,4,2,1,20,0,0
74863,-100,4,2,1,65,0,0
74999,-100,4,2,1,20,0,0
75408,-100,4,2,1,65,0,0
75545,-100,4,2,1,20,0,0
75954,-100,4,2,1,65,0,0
76090,-100,4,2,1,20,0,0
78681,-100,4,2,1,45,0,0
83317,-100,4,2,1,65,0,0
87408,-100,4,2,1,20,0,0
104863,-100,4,2,1,45,0,0
105136,-100,4,2,1,55,0,0
124499,-100,4,2,1,70,0,1
124772,-100,4,2,1,75,0,1
130226,-100,4,2,1,30,0,1
130499,-100,4,2,1,75,0,1
134454,-100,4,2,1,25,0,1
134863,-100,4,2,1,75,0,1
135681,-100,4,2,1,25,0,1
135954,-100,4,2,1,75,0,1
138954,-100,4,2,1,30,0,1
139226,-100,4,2,1,75,0,1
140863,-100,4,2,1,75,0,0
152045,-100,4,2,1,30,0,0
152317,-100,4,2,1,75,0,0
156408,-100,4,2,1,30,0,0
156681,-100,4,2,1,75,0,0
158863,-100,4,2,1,55,0,0
159408,-100,4,2,1,75,0,0
167317,-100,4,2,1,10,0,0
167590,-100,4,2,1,75,0,0
172636,-100,4,2,1,25,0,0
173045,-100,4,2,1,75,0,0
173317,-100,4,2,1,30,0,0
173590,-100,4,2,1,75,0,0
173863,-100,4,2,1,30,0,0
174136,-100,4,2,1,75,0,0
174408,-100,4,2,1,30,0,0
174681,-100,4,2,1,75,0,0
178226,-100,4,2,1,30,0,0
178499,-100,4,2,1,75,0,0
179317,-100,4,2,1,30,0,0
179590,-100,4,2,1,75,0,0
184772,-100,4,2,1,30,0,0
185045,-100,4,2,1,65,0,0
185590,-100,4,2,1,75,0,0
186954,-100,4,2,1,30,0,0
187226,-100,4,2,1,75,0,0
188317,-100,4,2,2,75,0,0
188863,-100,4,2,1,75,0,0
191317,-100,4,2,1,25,0,0
191590,-100,4,2,1,75,0,0
194317,-100,4,2,1,60,0,0

[Colours]
Combo1 : 175,95,95
Combo2 : 255,160,98
Combo3 : 254,61,27

[HitObjects]
88,136,136,2,0,B|168:136,1,70,0|2
160,208,681,2,0,B|160:280,1,70
232,296,1226,1,0
296,336,1499,1,2
360,296,1772,1,0
360,184,2317,6,0,B|360:104,1,70,0|2
288,88,2863,2,0,B|208:88,1,70
168,144,3408,1,0
112,96,3681,1,2
56,144,3954,1,0
96,40,4499,6,0,B|144:80|208:64,1,105,4|0
248,88,5045,1,2
304,40,5317,1,0
360,88,5590,1,0
416,40,5863,1,0
472,88,6136,1,2
432,200,6681,6,0,B|416:256|360:280,1,105,4|0
320,312,7226,1,2
248,320,7499,1,0
176,304,7772,1,0
120,256,8045,1,0
88,192,8317,1,2
152,104,8863,5,4
224,120,9136,1,0
224,120,9272,1,0
224,120,9408,1,2
256,56,9681,1,0
328,48,9954,2,0,B|376:128,2,70,0|0|2
364,108,10772,1,0
376,184,11045,5,4
336,288,11454,1,0
336,288,11590,1,2
264,248,11863,1,0
176,248,12135,1,8
104,288,12408,1,0
101,203,12681,1,8
172,160,12954,1,0
101,203,13226,5,4
101,203,13499,1,2
172,160,13772,1,0
164,144,13908,1,0
156,128,14045,1,2
212,72,14317,1,0
279,32,14590,1,0
343,72,14863,1,0
407,32,15135,1,2
344,72,15408,6,0,B|384:128|424:144|424:144|384:160|344:216,1,210,0|0
348,210,16499,1,0
316,284,16772,2,0,B|396:284,1,70,0|2
184,280,17590,5,0
152,192,17863,1,0
160,176,17999,1,0
168,160,18135,1,2
248,136,18408,2,0,B|224:168|248:208,1,70
320,176,18954,1,0
384,224,19226,2,0,B|416:184|384:136,1,70,0|2
352,88,19772,5,0
284,64,20045,1,0
284,64,20181,1,0
284,64,20317,1,0
236,120,20590,1,2
164,128,20863,2,0,B|164:168|204:184,2,70,8|0|8
124,64,21681,1,8
68,112,21954,1,4
108,120,26317,5,2
124,192,26590,1,0
124,192,26726,1,0
124,192,26863,2,0,B|80:184|52:228,1,70,8|0
144,264,27408,2,0,B|188:264|216:220,1,70,2|0
256,300,27954,5,8
256,300,28226,1,0
336,280,28499,2,0,B|344:208|432:192|432:192|344:176|336:104,1,280,2|0
280,40,29863,1,0
196,32,30135,1,8
196,156,30681,6,0,B|156:172|100:156,1,70,2|0
127,162,31090,1,0
127,162,31226,1,8
64,128,31499,2,0,B|40:168|72:216,1,70,0|2
176,192,32317,5,8
240,256,32590,1,0
240,128,32863,1,2
304,192,33135,1,0
384,224,33408,2,0,B|416:184|364:136,2,70,8|0|0
384,224,34226,1,0
384,224,34499,1,8
276,116,35045,5,2
204,180,35317,1,0
244,268,35590,1,8
204,180,35863,1,0
244,268,36136,1,2
320,212,36408,1,0
244,268,36681,6,0,B|196:292|148:252,1,70,8|0
252,196,37226,2,0,B|292:180|348:204,1,70,2|0
236,124,37772,2,0,B|188:148|140:108,1,70,8|0
252,52,38317,2,0,B|292:36|348:60,1,70,2|0
320,50,38863,1,8
408,192,39408,6,0,B|364:128,1,70,2|0
320,80,39954,1,8
320,80,40226,1,0
248,60,40499,2,0,B|200:92|160:76|160:76|184:140,1,140,2|8
180,192,41317,1,0
176,263,41590,6,0,B|160:308|160:308|200:292|248:324,1,140,2|8
308,284,42408,1,0
380,316,42681,1,2
404,240,42954,1,0
332,208,43226,1,4
436,132,43772,5,2
372,76,44045,1,0
372,76,44181,1,0
372,76,44317,2,0,B|292:76|292:76,2,70,8|0|2
302,76,45136,1,0
220,76,45408,2,0,B|156:76|172:140,1,70,8|0
168,192,45954,5,2
236,148,46226,1,0
304,192,46499,1,8
236,240,46772,1,0
304,192,47045,1,2
168,192,47590,1,8
156,304,48136,6,0,B|144:260|144:260|104:244|80:192|80:192|104:140|144:124|144:124|160:80,1,280,2|0
256,24,49772,1,8
320,56,50045,1,0
352,120,50317,1,2
368,192,50590,1,0
352,264,50863,1,8
316,324,51136,1,0
256,360,51408,2,0,B|256:312|256:312|200:312|192:248,1,140,2|8
104,304,52499,6,0,B|56:256|48:224,1,70,2|0
24,192,53045,2,0,B|96:192|96:192,2,70,8|0|2
24,192,53863,1,0
56,128,54136,2,0,B|96:88|120:80,1,70,8|0
120,192,54681,2,0,B|208:144|288:192|360:240|416:168,1,280,2|0
496,192,56317,1,8
392,192,56863,5,2
312,120,57136,1,0
312,120,57272,1,0
312,120,57408,1,8
312,264,57681,1,0
248,192,57954,2,0,B|176:192,2,70,2|0|8
104,192,58772,1,0
152,80,59045,6,8,B|80:112|56:192|76:264|148:308,1,280,2|0
256,192,60681,1,4
96,40,65590,6,0,B|128:120|96:184,1,140,0|0
128,244,66408,1,2
160,312,66681,1,0
236,312,66954,2,0,B|276:304|324:320,1,70
384,288,67499,5,2
396,272,67636,1,0
408,256,67772,1,0
348,208,68045,2,0,B|392:148,1,70,0|2
344,92,68590,2,0,B|376:64|432:80,2,70,0|0|0
296,148,69408,1,2
380,48,69954,6,0,B|424:32|472:76,1,70,4|0
408,120,70499,2,0,B|448:124|472:180,1,70,0|2
400,196,71045,2,0,B|442:225|432:284,1,70,0|0
434,254,71590,1,2
356,252,71863,1,0
356,252,71999,1,0
356,252,72136,2,0,B|316:228|324:172|324:172,2,70,0|2|0
256,256,73226,5,0
192,192,73499,1,2
256,128,73772,1,0
320,192,74045,1,0
256,48,74317,6,0,B|336:32,1,70
256,128,74863,2,0,B|176:144,1,70,2|0
256,208,75408,2,0,B|340:188|340:188,1,70
256,284,75954,2,0,B|176:308,1,70,2|0
256,192,76499,12,4,78681
96,80,83045,6,0,B|184:80,1,70,4|0
240,80,83590,1,2
280,144,83863,1,0
320,80,84136,1,0
360,144,84408,1,0
400,80,84681,1,2
464,200,85226,6,0,B|440:224|440:224|384:224,1,70,0|0
328,224,85772,2,0,B|256:224|256:224|220:288,1,140,2|8
144,192,86863,1,8
48,328,87408,5,4
16,240,87681,1,0
16,144,87954,1,8
48,56,88226,1,0
208,56,88499,2,0,B|144:112|144:112|208:160|208:160|144:216|144:216|208:272|208:272|144:336,1,420
464,328,91772,5,0
496,240,92045,1,0
496,144,92317,1,8
464,56,92590,1,0
304,56,92863,2,0,B|368:112|368:112|304:168|304:168|368:224|368:224|304:288|304:288|368:344|368:344,1,420
256,332,96135,6,0,B|256:252,1,70
256,56,96681,2,0,B|256:144,1,70,8|0
48,192,97226,2,0,B|116:172|148:172|164:176|260:192|340:216|372:212|404:216|464:192,1,420
376,192,100499,6,0,B|288:192,1,70
136,192,101045,2,0,B|232:192,1,70,8|0
256,32,101590,2,0,B|336:56|368:112|416:184|368:264|336:320|256:352,1,420
112,96,104863,6,0,B|72:120|72:176,1,70,4|0
72,232,105408,2,0,B|88:288|144:288,1,70,8|0
192,280,105954,2,0,B|236:268|236:208,1,70,0|0
232,152,106499,2,0,B|228:112|188:92,1,70,8|0
152,192,107045,1,0
272,192,107454,5,0
292,192,107590,1,2
376,192,107863,1,0
456,224,108135,2,0,B|488:184|440:136|440:136,2,70,2|0|2
368,320,109226,6,0,B|292:320,1,70
324,248,109772,2,0,B|256:248,1,70,8|0
254,248,110317,2,0,B|176:248,1,70
204,320,110863,2,0,B|124:320,1,70,8|0
72,264,111408,6,0,B|88:216|64:192|64:192|88:168|88:140,1,105,2|0
81,168,111954,1,2
124,104,112226,1,0
164,168,112499,1,2
204,104,112772,1,0
244,168,113045,1,2
348,100,113590,6,0,B|364:60|420:48,1,70
424,136,114136,1,8
472,216,114408,1,0
432,128,114681,5,2
460,220,114954,1,0
432,300,115226,2,0,B|398:294|388:264|388:264|359:258,1,70,0|0
392,168,115772,5,0
392,168,115908,1,2
304,184,116181,1,0
304,184,116317,1,0
256,104,116590,1,0
176,64,116863,2,0,B|176:112|136:160|136:160|208:176|232:216,1,210,2|0
256,192,117954,12,0,119590
160,32,120135,5,2
344,32,120408,1,0
192,96,120681,1,2
312,96,120954,1,0
224,168,121226,5,2
288,168,121499,1,0
256,112,121772,1,2
256,224,122045,1,0
192,224,122317,5,2
320,224,122590,1,0
256,288,122863,1,2
160,280,123135,1,0
352,280,123408,5,2
256,352,123681,1,0
200,304,123954,1,2
312,304,124226,1,0
256,248,124499,6,0,B|256:176,1,70,4|0
222,113,125045,2,0,B|256:96|296:115,2,70,8|0|2
96,120,126135,1,8
68,192,126408,1,0
44,264,126681,1,2
192,304,127226,2,0,B|260:344|324:304,2,140,8|2|8
388,192,128863,5,2
348,128,129135,1,0
292,80,129408,1,8
220,80,129681,1,0
164,128,129954,1,2
124,192,130226,1,0
124,192,130499,6,0,B|36:192,1,70,8|0
124,268,131045,2,0,B|192:268,1,70,2|0
244,324,131590,1,8
320,324,131863,1,0
384,280,132136,2,0,B|356:244|324:236|284:252|284:252|256:236,1,140,0|8
376,192,133226,6,0,B|464:192|464:192,2,70,2|0|8
376,192,134045,1,0
376,192,134317,2,0,B|424:120,1,70,2|0
352,96,134863,2,0,B|392:32|392:32,2,70,8|0|2
312,160,135681,1,0
272,224,135954,2,0,B|224:224|176:200,1,70,8|0
140,172,136499,2,0,B|172:132|140:76|140:76|172:52,1,140,2|8
292,88,137590,6,0,B|364:88|364:88,1,70,2|0
436,112,138135,1,8
452,184,138408,2,0,B|452:272|452:272,1,70,0|2
452,254,138954,1,0
404,316,139226,1,8
336,288,139499,1,0
272,256,139772,6,0,B|160:288,1,105,2|0
152,292,140317,1,8
168,216,140590,1,0
188,144,140863,1,0
188,144,141408,5,8
192,72,146317,5,2
240,144,146590,1,0
240,144,146726,1,0
240,144,146863,2,0,B|288:152|312:104,1,70,8|0
376,112,147408,2,0,B|424:192|408:272,1,140,2|8
411,245,148226,1,0
352,308,148499,5,2
328,300,148636,1,0
304,308,148772,1,0
236,276,149045,2,0,B|172:212|220:116,1,140,8|2
207,147,149863,1,0
207,147,150136,1,8
120,56,150681,6,0,B|80:56|80:56,2,35,2|0|0
184,96,151226,1,8
249,134,151499,1,0
312,176,151772,1,2
376,216,152045,1,0
380,140,152317,6,0,B|420:140|444:100,1,70,8|0
376,216,152863,2,0,B|332:212|312:264,1,70,2|0
256,288,153408,2,0,B|168:288|168:288|160:220|88:200,1,210,8|0
88,284,154499,1,8
112,160,155045,5,2
176,104,155317,1,0
256,80,155590,1,8
336,104,155863,1,0
400,160,156136,1,2
400,160,156408,5,0
336,104,156681,1,8
256,80,156954,1,0
176,104,157226,1,2
112,160,157499,1,0
128,240,157772,6,0,B|208:240,1,70,8|0
256,192,158317,1,2
314,240,158590,2,0,B|384:240,1,70,0|4
204,244,159408,6,0,B|152:192,1,70,2|0
96,240,159954,2,0,B|44:188,1,70,8|0
100,140,160499,2,0,B|48:88,1,70,2|0
50,90,161045,1,8
172,112,161317,1,0
172,112,161454,1,0
172,112,161590,2,0,B|225:165,2,70,2|0|8
312,128,162680,5,2
376,192,162953,1,0
312,256,163226,1,8
243,141,163772,6,0,B|280:128|312:128,1,70,2|0
247,217,164317,2,0,B|215:229|175:233,1,70,8|0
312,256,164863,2,0,B|340:244|379:239,1,70,2|0
379,239,165408,1,8
452,220,165681,5,0
452,220,165817,1,0
452,220,165954,1,2
392,128,166363,1,0
392,128,166499,1,8
348,60,166772,2,0,B|252:96|252:96|232:132|204:148|152:156,1,210,0|8
108,72,168136,6,0,B|68:68|40:104,1,70,2|0
100,148,168681,2,0,B|144:152|172:108,1,70,8|0
161,121,169226,2,0,B|256:232,1,140,2|8
172,248,170045,1,0
172,248,170181,1,0
172,248,170317,2,0,B|228:312,2,70,2|0|8
184,108,171408,6,0,B|108:64,2,70,2|0|8
256,152,172227,1,0
260,68,172499,2,0,B|304:76|332:116,1,70,2|0
256,152,173045,5,8
192,196,173317,2,0,B|208:232|264:236|264:236,1,70,0|2
256,152,173863,1,0
256,152,174136,2,0,B|336:192,1,70,8|0
336,272,174681,5,2
416,192,174954,1,0
336,112,175226,1,8
256,192,175499,1,0
164,136,175772,2,0,B|128:164|120:192|120:192|128:220|164:248,1,140,2|8
164,136,176863,6,0,B|244:136,1,70,2|0
108,192,177409,2,0,B|36:192|36:192,2,70,8|0|2
108,192,178226,1,0
164,248,178499,2,0,B|244:248,1,70,8|0
284,192,179045,1,2
356,192,179317,1,0
372,304,179590,2,0,B|448:264|460:192|448:120|372:80,1,280,8|8
356,192,181227,5,2
284,156,181500,1,0
268,148,181636,1,0
252,140,181772,1,8
184,104,182045,1,0
184,104,182317,2,0,B|120:128|88:200,1,140,2|8
87,200,183136,5,0
87,200,183408,2,0,B|144:248,1,70,2|0
204,200,183954,2,0,B|264:248,2,70,8|0|2
204,200,184772,1,0
148,144,185045,1,4
72,48,185590,5,2
148,48,185863,1,0
148,48,185999,1,0
148,48,186136,2,0,B|188:48|188:48|228:84,1,70,8|0
160,124,186681,2,0,B|188:148|188:148|232:148,1,70,2|0
280,192,187226,2,0,B|348:192,1,70,8|0
228,76,187772,6,0,B|176:112|152:192|152:192|176:272|236:312,1,280,2|2
268,192,189136,2,0,B|340:192,1,70,0|8
416,104,189954,6,0,B|396:68|340:60,1,70,2|0
340,56,190363,1,0
320,52,190499,1,8
244,44,190772,2,0,B|208:36|172:60,1,70,0|2
176,56,191317,1,0
92,116,191590,5,8
124,208,191863,1,0
92,116,192136,1,2
188,124,192408,1,0
124,208,192681,1,8
188,124,192954,1,0
224,216,193226,1,8
368,272,193772,1,8
256,328,194317,5,0
256,236,194590,1,0
256,144,194863,1,8
256,56,195136,1,0
256,56,195408,2,0,B|332:56|384:120,1,140,0|2
378,113,196499,6,0,B|336:168,1,70
335,168,197045,2,0,B|292:224|292:224,1,70,8|0
56,192,198681,5,0
144,192,198954,1,0
232,192,199226,1,8
320,192,199499,1,0
320,192,199772,2,0,B|360:172,2,35
404,120,200317,2,0,B|424:68,2,35
404,120,200863,5,0
316,88,201136,1,0
228,108,201408,1,8
140,92,201681,1,0
