osu file format v9

[General]
AudioFilename: huleipomeng.mp3
AudioLeadIn: 0
PreviewTime: 49466
Countdown: 0
SampleSet: Soft
StackLeniency: 0.4
Mode: 0
LetterboxInBreaks: 0

[Editor]
DistanceSpacing: 1
BeatDivisor: 4
GridSize: 8

[Metadata]
Title:Hu Lei Po Meng
Artist:PILI Music Team
Creator:yanguoke
Version:Normal
Source:PILI Series
Tags:OST huaipomeng huleipomeng chinese classical Hsiao-Chai cym_52carol mapper_31 samiljul

[Difficulty]
HPDrainRate:4
CircleSize:4
OverallDifficulty:4
ApproachRate:5
SliderMultiplier:1.2
SliderTickRate:2

[Events]
//Background and Video events
0,0,"breakyourdream.jpg"
//Break Periods
2,83503,88836
2,133752,139557
2,174746,180099
//Storyboard Layer 0 (Background)
//Storyboard Layer 1 (Fail)
//Storyboard Layer 2 (Pass)
//Storyboard Layer 3 (Foreground)
//Storyboard Sound Samples
//Background Colour Transformations
3,100,163,162,255

[TimingPoints]
42719,422.633428895447,4,2,1,50,1,0
43352,-100,4,2,1,70,0,0
43986,-100,4,2,1,20,0,0
44198,-100,4,2,1,40,0,0
44409,-100,4,2,1,70,0,0
44832,-100,4,2,1,30,0,0
45043,-100,4,2,1,70,0,0
45888,-100,4,2,1,40,0,0
46100,-100,4,2,1,70,0,0
46522,-100,4,2,1,30,0,0
48635,-100,4,2,1,20,0,0
48847,-100,4,2,1,40,0,0
49058,-100,4,2,1,70,0,0
49487,422.806164513879,4,2,1,50,1,0
49909,-100,4,2,1,30,0,0
50121,-100,4,2,1,70,0,0
50544,-100,4,2,1,20,0,0
50755,-100,4,2,1,70,0,0
51178,-100,4,2,2,70,0,0
51389,-100,4,2,2,30,0,0
51812,-100,4,2,2,70,0,0
52235,-100,4,2,1,20,0,0
52446,-100,4,2,2,70,0,0
53503,-100,4,2,2,30,0,0
53715,-100,4,2,2,70,0,0
53926,-100,4,2,1,20,0,0
54137,-100,4,2,1,70,0,0
54983,-100,4,2,2,70,0,0
55406,-100,4,2,2,20,0,0
55617,-100,4,2,1,40,0,0
55829,-100,4,2,2,70,0,0
56236,422.353777602579,4,2,1,55,1,1
56658,-100,4,2,2,70,0,1
56869,-100,4,2,1,70,0,1
58136,-100,4,2,2,70,0,1
58981,-100,4,2,1,70,0,1
59615,422.315131551163,4,2,2,70,1,1
60670,-100,4,2,1,70,0,1
61726,-100,4,2,2,70,0,1
63005,422.535211267606,4,2,1,55,1,1
63427,-100,4,2,2,70,0,1
63638,-100,4,2,1,70,0,1
64906,-100,4,2,2,70,0,1
65751,-100,4,2,1,70,0,1
66380,422.585802525654,4,2,2,70,1,1
67436,-100,4,2,1,70,0,1
68069,422.56496936404,4,2,2,70,1,1
69775,422.758499207328,4,2,1,55,1,0
70409,-100,4,2,2,70,0,0
70620,-100,4,2,1,70,0,0
71888,-100,4,2,1,30,0,0
72100,-100,4,2,2,70,0,0
72311,-100,4,2,2,30,0,0
72734,-100,4,2,1,70,0,0
73157,-100,4,2,2,70,0,0
73579,-100,4,2,2,30,0,0
73791,-100,4,2,2,80,0,0
74002,-100,4,2,1,70,0,0
74425,-100,4,2,2,40,0,0
74848,-100,4,2,2,70,0,0
75270,-100,4,2,2,30,0,0
75482,-100,4,2,2,80,0,0
75693,-100,4,2,2,40,0,0
76116,-100,4,2,2,70,0,0
76961,-100,4,2,2,30,0,0
77173,-100,4,2,2,80,0,0
77384,-100,4,2,2,40,0,0
77807,-100,4,2,2,70,0,0
78652,-100,4,2,2,20,0,0
78864,-100,4,2,1,40,0,0
79075,-100,4,2,2,70,0,0
80343,-100,4,2,1,50,0,0
80555,-100,4,2,1,30,0,0
80766,-100,4,2,2,40,0,0
80978,-100,4,2,2,80,0,0
81189,-100,4,2,1,40,0,0
81612,-100,4,2,1,70,0,0
82034,-100,4,2,1,30,0,0
82246,-100,4,2,2,70,0,0
82457,-100,4,2,2,20,0,0
82669,-100,4,2,2,40,0,0
82880,-100,4,2,2,70,0,0
83303,-100,4,2,1,70,0,0
88346,422.627475012151,4,2,1,55,1,0
90036,-100,4,2,1,55,0,1
90247,-100,4,2,2,70,0,1
90670,-100,4,2,1,70,0,1
91727,-100,4,2,2,70,0,1
92360,-100,4,2,1,70,0,1
93628,-100,4,2,2,70,0,1
94262,-100,4,2,1,70,0,1
95319,-100,4,2,2,70,0,1
96800,422.636405900004,4,2,1,70,1,0
97222,-100,4,2,2,70,0,0
98701,-100,4,2,1,70,0,0
98913,-100,4,2,2,70,0,0
99547,-100,4,2,1,70,0,0
99758,-100,4,2,2,70,0,0
100186,422.803185117328,4,2,1,70,1,0
100608,-100,4,2,2,70,0,0
101243,-100,4,2,1,70,0,0
101454,-100,4,2,2,70,0,0
101878,422.824041775015,4,2,2,70,1,0
103560,422.838940647507,4,2,1,55,1,0
103771,-100,4,2,2,70,0,0
104194,-100,4,2,1,70,0,0
105462,-100,4,2,2,70,0,0
105885,-100,4,2,1,70,0,0
106939,422.868741542625,4,2,2,70,1,0
107784,-100,4,2,1,70,0,0
108630,422.859800833034,4,2,1,70,1,0
109052,-100,4,2,2,70,0,0
110324,422.56496936404,4,2,1,70,1,0
117089,424.115189685519,4,2,1,70,1,0
117937,-100,4,2,1,40,0,0
118785,-100,4,2,1,70,0,0
120473,423.606159233555,4,2,1,70,1,0
120896,-100,4,2,1,40,0,0
122167,-100,4,2,1,70,0,0
129156,-100,4,2,1,20,0,0
129368,-100,4,2,1,70,0,0
130004,-100,4,2,1,20,0,0
130215,-100,4,2,1,70,0,0
130594,422.603661156384,4,2,1,70,1,0
133985,423.271465154177,4,2,1,70,1,0
140757,-100,4,2,1,55,0,0
141603,-100,4,2,1,30,0,0
142027,-100,4,2,1,70,0,0
142450,-100,4,2,2,70,0,0
142873,-100,4,2,1,40,0,0
143296,-100,4,2,2,70,0,0
144143,-100,4,2,1,70,0,0
144566,-100,4,2,1,40,0,0
144990,-100,4,2,1,70,0,0
146259,-100,4,2,1,40,0,0
146683,-100,4,2,2,70,0,0
147505,422.832980972516,4,2,1,70,1,1
147927,-100,4,2,2,70,0,1
148139,-100,4,2,1,70,0,1
149407,-100,4,2,2,70,0,1
150253,-100,4,2,1,70,0,1
151310,-100,4,2,2,70,0,1
151521,-100,4,2,1,70,0,1
152790,-100,4,2,2,70,0,1
153636,-100,4,2,1,70,0,1
154261,422.773393461105,4,2,2,70,1,1
154895,-100,4,2,1,70,0,1
156163,-100,4,2,2,70,0,1
156797,-100,4,2,1,70,0,1
157643,422.806164513879,4,2,2,70,1,1
158277,-100,4,2,1,70,0,1
159334,-100,4,2,2,70,0,1
161026,423.423804886311,4,2,1,70,1,0
161661,-100,4,2,2,80,0,0
161872,-100,4,2,1,40,0,0
162296,-100,4,2,1,70,0,0
163143,-100,4,2,1,40,0,0
163354,-100,4,2,2,70,0,0
163566,-100,4,2,1,40,0,0
163989,-100,4,2,1,70,0,0
164405,423.423804886311,4,2,1,70,1,0
164828,-100,4,2,1,50,0,0
165040,-100,4,2,2,80,0,0
165251,-100,4,2,1,40,0,0
165675,-100,4,2,1,70,0,0
166522,-100,4,2,1,40,0,0
166733,-100,4,2,2,80,0,0
166945,-100,4,2,1,40,0,0
167368,-100,4,2,2,70,0,0
168215,-100,4,2,2,40,0,0
168427,-100,4,2,2,80,0,0
168639,-100,4,2,2,40,0,0
169062,-100,4,2,1,70,0,0
169486,-100,4,2,2,70,0,0
169909,-100,4,2,2,40,0,0
170121,-100,4,2,2,80,0,0
170332,-100,4,2,1,40,0,0
170756,-100,4,2,2,70,0,0
171188,422.636405900004,4,2,1,70,1,0
171610,-100,4,2,1,50,0,0
171821,-100,4,2,2,80,0,0
172033,-100,4,2,1,40,0,0
172455,-100,4,2,2,70,0,0
174546,422.868741542625,4,2,1,70,1,0
181299,422.767435633658,4,2,1,70,1,1
181721,-100,4,2,2,70,0,1
181933,-100,4,2,1,70,0,1
183201,-100,4,2,2,70,0,1
183624,-100,4,2,1,70,0,1
185103,-100,4,2,2,70,0,1
185526,-100,4,2,1,70,0,1
186583,-100,4,2,2,70,0,1
188063,-100,4,2,1,70,0,0
188486,-100,4,2,2,70,0,0
189120,-100,4,2,1,70,0,0
190177,-100,4,2,2,70,0,0
190811,-100,4,2,1,70,0,0
191443,422.958169437043,4,2,2,70,1,0
192288,-100,4,2,1,40,0,0
192711,-100,4,2,2,70,0,0
193134,-100,4,2,2,40,0,0
193769,-100,4,2,2,80,0,0
193980,-100,4,2,1,70,0,0
195038,-100,4,2,2,70,0,0
195461,-100,4,2,1,70,0,0
196729,-100,4,2,2,70,0,0
197152,-100,4,2,1,70,0,0
198221,422.713822742004,4,2,2,70,1,0
198855,-100,4,2,1,70,0,0
200334,-100,4,2,2,70,0,0
201577,422.535211267606,4,2,1,70,1,0
201999,-100,4,2,2,40,0,0
202422,-100,4,2,2,30,0,0
202844,-100,4,2,2,10,0,0
203267,-100,4,2,2,5,0,0

[Colours]
Combo1 : 65,0,153
Combo2 : 189,2,133
Combo3 : 168,0,0
SliderBorder : 255,255,255

[HitObjects]
104,88,42719,1,12
104,288,43405,1,8
240,192,43986,2,0,B|272:184|328:224|376:192,1,120,8|8
440,112,44832,2,0,B|376:112,1,60,8|8
208,112,45677,5,8
144,72,45888,1,8
80,112,46100,1,8
144,216,46522,2,0,B|144:288,1,60,8|8
320,312,47367,6,0,B|368:312|392:280,1,60,2|2
336,232,47790,2,0,B|392:200|416:136|408:72,1,180,8|8
328,72,48635,2,0,B|264:72,3,60,8|8|8|8
192,72,49487,5,4
88,136,49909,2,0,B|88:176|120:200,1,60,8|8
40,224,50332,2,0,B|64:288|136:304,1,120,8|2
240,256,51178,2,0,B|296:296,2,60,4|8|8
176,208,51812,1,12
112,160,52023,2,0,B|136:120|192:128|192:128|232:96,1,120,8|4
328,64,52869,5,8
424,144,53292,1,4
400,216,53503,1,8
360,280,53715,2,0,B|304:312|232:288,1,120,8|2
128,248,54560,1,8
96,128,54983,1,4
216,96,55406,2,0,B|272:72|352:80,1,120,8|12
320,216,56236,5,4
432,144,56658,2,0,B|464:160|480:208,1,60,2|8
320,216,57291,1,2
320,216,57503,1,0
320,216,57714,1,2
320,216,57925,6,0,B|264:240|184:232,1,120,8|2
144,232,58558,1,8
80,336,58981,2,0,B|41:323|37:269,1,60,2|2
176,112,59615,5,8
304,88,60037,1,2
304,88,60248,1,0
416,160,60670,2,0,B|416:232,1,60,2|2
368,252,61093,1,2
320,280,61304,1,8
184,280,61726,2,0,B|120:280,1,60,2|8
112,152,62360,2,0,B|40:152,1,60,8|2
256,96,63005,5,4
360,248,63427,2,0,B|320:288|320:288|240:288,1,120,2|0
200,288,64061,1,2
152,136,64483,1,2
152,136,64695,2,0,B|192:96|192:96|272:96,1,120,8|2
312,96,65328,1,8
400,192,65751,2,0,B|400:264,1,60,2|2
256,336,66380,5,8
128,264,66802,1,2
128,264,67013,1,8
256,192,67436,1,2
256,192,67647,1,2
376,112,68069,5,8
256,192,68491,1,2
136,112,68914,1,10
256,40,69336,1,10
256,192,69775,5,4
336,288,70197,1,8
408,256,70409,1,4
480,224,70620,2,0,B|472:184|424:160|384:176,1,120,8|2
256,192,71466,1,8
112,120,71888,6,0,B|48:80,2,60,8|4|8
72,192,72522,1,8
120,256,72734,2,0,B|152:288|152:288|152:336|200:360,1,120,8|0
312,280,73579,6,0,B|336:256|392:264,1,60,8|4
432,304,74002,2,0,B|392:184,1,120,8|8
360,72,74848,1,8
184,80,75270,6,0,B|200:112|184:152,1,60,8|4
188,138,75693,1,8
128,192,75904,1,8
64,240,76116,2,0,B|48:272|64:312,1,60,8|8
59,298,76539,1,8
240,280,76961,6,0,B|312:320,1,60,8|4
328,240,77384,2,0,B|408:256,1,60,8|8
400,176,77807,2,0,B|464:176,2,60,4|8|8
312,88,78652,6,0,B|264:96|224:64|224:64|192:80,1,120,8|4
144,184,79498,1,8
104,252,79709,1,8
64,184,79921,1,8
136,80,80343,6,0,B|176:64|224:88|232:128,1,120,4|8
264,200,80977,1,4
240,285,81189,2,0,B|280:301|328:277|335:239,1,120,8|8
400,112,82034,5,8
400,112,82246,1,4
400,112,82457,2,0,B|464:112,2,60,8|8|8
328,72,83091,1,4
256,112,83303,1,12
128,88,90036,6,0,B|144:56|184:56,1,60,4|2
192,128,90459,2,0,B|256:112|312:144,1,120,2|2
408,216,91304,1,2
304,280,91727,2,0,B|288:312|256:312,1,60,0|2
240,240,92149,2,0,B|176:256|120:224,1,120,2|2
64,120,92994,1,2
192,120,93417,6,0,B|248:80|248:80|296:64|344:112|344:112|416:112,1,240,0|2
312,192,94685,1,2
192,192,95108,2,0,B|132:192,1,60,8|2
192,192,95530,1,2
192,272,95741,1,8
272,272,95953,2,0,B|336:272,2,60,2|2|10
240,136,96800,5,4
360,120,97222,1,4
440,208,97645,1,8
360,120,98067,1,2
320,240,98490,2,0,B|288:304|208:304,1,120,8|4
72,288,99335,2,0,B|104:232|176:232,1,120,8|2
72,96,100186,6,0,B|104:152|176:152,1,120,8|4
320,144,101031,2,0,B|288:80|208:80,1,120,8|2
216,208,101878,1,8
128,288,102300,1,4
216,208,102723,1,8
304,288,103146,1,8
376,192,103560,5,4
376,192,103771,1,2
376,192,103982,2,0,B|375:156|349:142|324:128|319:86,1,120,2|2
256,192,104828,1,2
136,192,105251,1,8
136,192,105462,1,2
136,192,105674,2,0,B|137:228|163:242|188:256|193:298,1,120,2|2
256,192,106519,1,2
336,104,106939,6,0,B|400:104|400:104|432:104|448:136,1,120,8|2
448,256,107784,2,0,B|435:283|403:283|403:283|339:283,1,120,2|2
416,192,108630,2,0,B|296:192,1,120,8|12
128,192,109475,1,8
296,192,109898,1,12
296,192,110324,5,4
120,72,111591,6,0,B|56:72,2,60,8|0|8
392,312,113281,6,0,B|464:312,2,60,8|0|8
144,128,114972,6,0,B|208:128,2,60,8|0|8
368,256,116662,6,0,B|304:256,2,60,8|0|8
88,272,117937,5,8
200,224,118361,1,8
264,120,118785,1,8
376,88,119209,2,0,B|392:152|344:200,1,120,8|0
264,288,120057,1,8
152,240,120473,1,8
72,152,120896,6,0,B|112:104|184:120,1,120,8|8
304,120,121743,1,8
400,192,122167,1,8
440,304,122591,2,0,B|368:336|328:280|328:280,1,120,8|8
232,208,123438,2,0,B|197:245|197:245|196:261|196:261|161:299,1,120,8|8
104,72,124709,5,8
104,312,125556,1,8
312,192,126403,1,8
72,192,127250,5,8
144,96,127674,1,8
256,56,128097,1,8
368,96,128521,1,8
448,192,128945,2,0,B|424:240|424:240|432:272|416:312,1,120,8|8
304,256,129792,2,0,B|277:192|202:199,1,120,8|8
256,192,130594,12,4,133552
256,48,140757,5,4
256,168,141180,1,8
136,152,141603,2,0,B|120:208|160:248|160:248|136:256,1,120,8|2
256,304,142449,1,4
368,256,142873,2,0,B|353:251|353:251|393:211|377:155,1,120,8|8
256,192,143720,1,4
256,72,144143,1,12
152,136,144566,6,0,B|80:240,1,120,8|8
192,296,145413,1,2
320,296,145836,1,8
424,232,146259,2,0,B|356:134,1,120,8|4
256,64,147106,1,12
256,64,147505,5,4
144,96,147927,2,0,B|152:168|232:176,1,120,2|8
192,288,148773,1,2
305,248,149196,2,0,B|285:179|213:173,1,120,0|2
168,168,149830,1,8
72,96,150253,1,2
72,96,150464,1,10
72,288,150887,5,8
176,232,151310,2,0,B|216:288|296:272,1,120,2|8
262,141,152156,1,2
368,184,152578,2,0,B|328:128|248:144,1,120,0|2
208,160,153213,1,8
128,248,153636,2,0,B|64:248,1,60,2|6
208,160,154261,5,0
272,112,154472,1,2
344,80,154683,2,0,B|400:40|472:88,1,120,2|2
400,184,155529,1,2
312,264,155952,2,0,B|312:328,2,60,8|2|2
248,224,156586,1,0
216,152,156797,2,0,B|176:144|176:144|144:104|88:120,1,120,2|10
144,248,157643,6,0,B|136:288|160:312,1,60,8|2
184,232,158065,2,0,B|312:184,1,120,2|2
376,96,158911,1,2
256,64,159334,1,10
144,104,159757,1,10
256,64,160179,1,10
144,104,160602,1,10
80,216,161026,5,4
176,320,161449,1,8
256,328,161661,1,4
328,296,161872,2,0,B|384:264|392:192,1,120,8|2
296,80,162719,1,8
296,80,163143,5,8
224,40,163354,1,4
144,48,163566,2,0,B|80:48|40:104,1,120,8|8
112,240,164405,1,8
112,240,164828,6,0,B|160:296,1,60,4|4
216,232,165251,2,0,B|336:224,1,120,8|8
456,312,166098,1,8
456,312,166522,6,0,B|424:256,1,60,8|4
352,240,166945,2,0,B|296:128,1,120,8|8
160,80,167792,1,8
104,208,168215,6,0,B|32:176|32:176,2,60,8|4|8
152,272,168850,1,8
216,224,169062,2,0,B|250:264|304:261|304:261|321:303,1,120,8|8
376,168,169909,5,8
296,152,170121,1,4
296,152,170332,2,0,B|230:133|239:38,1,120,8|8
238,57,170968,1,8
238,57,171179,1,8
144,136,171610,6,0,B|120:160|72:152,1,60,4|4
168,168,172033,2,0,B|208:280,1,120,8|8
288,296,172667,1,4
368,312,172878,1,8
400,184,173301,5,2
288,136,173723,1,2
168,168,174146,1,2
72,104,174546,1,12
112,80,181299,5,4
232,104,181721,2,0,B|304:120|304:120|312:152|352:160,1,120,2|2
384,168,182355,1,2
384,304,182778,1,2
384,304,182990,2,0,B|312:288|312:288|304:256|264:248,1,120,8|2
232,240,183624,1,10
112,240,184046,1,2
112,240,184258,1,10
176,112,184681,5,8
296,112,185103,2,0,B|360:112,1,60,2|8
464,184,185738,2,0,B|400:184,1,60,2|2
256,236,186372,2,0,B|224:252|224:252|200:300|200:300|160:316,1,120,8|2
256,148,187217,2,0,B|226:140|226:140|196:95|196:95|163:83,1,120,2|2
72,192,188063,5,4
72,192,188274,1,8
72,192,188486,1,4
144,288,188908,2,0,B|208:288|264:256,1,120,8|2
376,224,189754,2,0,B|416:296,2,60,8|8|4
392,104,190599,2,0,B|360:88|312:112|312:112|272:96,1,120,8|2
144,88,191443,5,8
80,192,191865,1,4
200,192,192288,1,8
256,296,192711,1,2
368,248,193134,2,0,B|392:304,2,60,8|8|8
312,192,193769,1,4
360,128,193980,2,0,B|330:101|330:101|291:108|244:77,1,120,8|8
96,136,194826,5,4
168,168,195038,1,2
136,240,195249,2,0,B|176:288|248:288,1,120,2|2
360,272,196095,1,2
424,168,196518,2,0,B|400:144|400:96,1,60,8|2
320,128,196941,2,0,B|264:88|200:120,1,120,2|2
96,168,197787,1,2
208,240,198221,5,8
205,318,198432,1,2
205,318,198643,2,0,B|257:319|286:271|286:271|329:287,1,120,2|2
360,160,199489,1,2
256,104,199911,1,8
152,160,200334,1,2
200,272,200757,2,0,B|224:288|256:264|256:264|288:288|312:272,1,120,8|2
256,192,201577,12,0,204957
