osu file format v12

[General]
AudioFilename: Black Impulse AMV.mp3
AudioLeadIn: 2004
PreviewTime: 61448
Countdown: 0
SampleSet: Soft
StackLeniency: 0.7
Mode: 0
LetterboxInBreaks: 0
WidescreenStoryboard: 0

[Editor]
DistanceSpacing: 1.2
BeatDivisor: 8
GridSize: 4

[Metadata]
Title:All The Things She Said (DnB Remix)
TitleUnicode:All The Things She Said (DnB Remix)
Artist:PESS vs t.A.T.u.
ArtistUnicode:PESS vs t.A.T.u.
Creator:spboxer3
Version:TuHard
Source:
Tags:MagicDarkLight AMV BRS Impulse Tatu Black_Rock_Shooter Black Rock Shooter tutuhaha Rue bossandy Boss Drum_and_bass
BeatmapID:295986
BeatmapSetID:73185

[Difficulty]
HPDrainRate:6
CircleSize:4
OverallDifficulty:6
ApproachRate:8
SliderMultiplier:1.64
SliderTickRate:1

[Events]
//Background and Video events
Video,152,"Black Impulse AMV.avi"
0,0,"BG.jpg",0,0
//Break Periods
2,42981,52698
2,85647,95031
2,128302,138028
//Storyboard Layer 0 (Background)
//Storyboard Layer 1 (Fail)
//Storyboard Layer 2 (Pass)
//Storyboard Layer 3 (Foreground)
//Storyboard Sound Samples
//Background Colour Transformations
3,100,163,162,255

[TimingPoints]
115,333.333333333333,4,2,2,100,1,0
115,-133.333333333333,4,2,2,50,0,0
5448,-133.333333333333,4,2,2,60,0,0
10781,-133.333333333333,4,2,2,50,0,0
16114,-133.333333333333,4,2,2,60,0,0
17448,-133.333333333333,4,2,2,65,0,0
18781,-133.333333333333,4,2,2,70,0,0
21114,-133.333333333333,4,2,1,75,0,0
21448,-100,4,2,1,80,0,0
26614,-100,4,2,1,20,0,0
26698,-100,4,2,1,80,0,0
26864,-100,4,2,1,20,0,0
26948,-100,4,2,1,80,0,0
31948,-100,4,2,1,20,0,0
32031,-100,4,2,1,80,0,0
32198,-100,4,2,1,20,0,0
32281,-100,4,2,1,80,0,0
37281,-100,4,2,1,20,0,0
37364,-100,4,2,1,80,0,0
37531,-100,4,2,1,20,0,0
37614,-100,4,2,1,80,0,0
42781,-100,4,2,2,80,0,0
53448,-133.333333333333,4,2,2,70,0,0
64114,-100,4,2,1,90,0,1
64948,-100,4,2,4,90,0,1
65031,-100,4,2,1,90,0,1
67948,-100,4,2,4,90,0,1
68031,-100,4,2,1,90,0,1
70281,-100,4,2,4,90,0,1
70364,-100,4,2,1,90,0,1
73281,-100,4,2,4,90,0,1
73364,-100,4,2,1,90,0,1
75614,-100,4,2,1,90,0,1
75698,-100,4,2,1,90,0,1
78614,-100,4,2,4,90,0,1
78698,-100,4,2,1,90,0,1
79614,-100,4,2,4,90,0,1
79698,-100,4,2,1,90,0,1
80948,-100,4,2,4,90,0,1
81031,-100,4,2,1,90,0,1
83948,-100,4,2,4,90,0,1
84031,-100,4,2,1,90,0,1
85448,-100,4,2,4,80,0,0
85531,-100,4,2,1,80,0,0
101281,-100,4,2,1,20,0,0
101364,-100,4,2,1,80,0,0
101531,-100,4,2,1,20,0,0
101614,-100,4,2,1,80,0,0
106781,-100,4,2,3,80,0,0
128102,333.333333333333,4,2,1,80,1,0
138778,333.333333333333,4,2,1,60,1,0
138778,-133.333333333333,4,2,1,60,0,0
149444,-100,4,2,1,80,0,1
150278,-100,4,2,4,80,0,1
150361,-100,4,2,1,80,0,1
154804,333.333333333333,4,2,1,80,1,1
154804,-100,4,2,1,80,0,1
154970,-100,4,2,1,80,0,1
155637,-100,4,2,4,80,0,1
155720,-100,4,2,1,80,0,1
160137,-100,4,2,1,80,0,1
160304,-100,4,2,1,80,0,1
160970,-100,4,2,1,80,0,1
161054,-100,4,2,1,80,0,1
165470,-100,4,2,1,80,0,1
165637,-100,4,2,1,80,0,1
166304,-100,4,2,4,80,0,1
166387,-100,4,2,1,80,0,1
170803,-100,4,2,1,80,0,1
170970,-100,4,2,1,80,0,1
171637,-100,4,2,4,80,0,1
171720,-100,4,2,1,80,0,1
176137,-100,4,2,1,80,0,1
176303,-100,4,2,1,80,0,1
176970,-100,4,2,4,80,0,1
177053,-100,4,2,1,80,0,1
181470,-100,4,2,4,80,0,0

[Colours]
Combo1 : 158,80,80
Combo2 : 32,181,202
Combo3 : 128,128,64
Combo4 : 192,192,192
SliderBorder : 0,0,0

[HitObjects]
88,108,115,1,2,0:0:0:0:
88,108,781,1,8,0:0:0:0:
88,108,1114,2,0,L|104:172,1,61.5000023460389,0|2,0:0|0:0,0:0:0:0:
148,228,1448,5,2,0:0:0:0:
216,264,1614,1,0,0:0:0:0:
288,276,1781,1,0,0:0:0:0:
364,268,1948,2,0,P|440:228|484:156,1,169.125006451607,8|0,0:0|0:0,0:0:0:0:
460,88,2614,1,2,0:0:0:0:
416,28,2781,6,0,P|392:52|388:88,1,61.5000023460389,2|0,0:0|0:0,0:0:0:0:
316,104,3114,1,0,0:0:0:0:
316,20,3281,2,0,P|264:48|196:52,1,123.000004692078,8|0,0:0|0:0,0:0:0:0:
128,36,3781,6,0,P|128:68|140:96,1,61.5000023460389,0|2,0:0|0:0,0:0:0:0:
136,168,4114,2,0,P|128:204|104:224,2,61.5000023460389,2|0|0,0:0|0:0|0:0,0:0:0:0:
208,188,4614,2,0,P|268:124|376:116,1,184.500007038117,8|0,0:0|0:0,0:0:0:0:
436,240,5448,6,0,P|472:228|496:208,2,61.5000023460389,0|0|0,0:0|0:0|0:0,0:0:0:0:
412,308,5948,2,0,P|344:264|236:288,1,184.500007038117,8|0,0:0|0:0,0:0:0:0:
112,220,6781,6,0,P|80:212|60:188,2,61.5000023460389,2|0|0,0:0|0:0|0:0,0:0:0:0:
152,148,7281,2,0,P|180:56|280:16,1,184.500007038117,8|0,0:0|0:0,0:0:0:0:
388,76,8114,5,2,0:0:0:0:
412,144,8281,1,0,0:0:0:0:
416,216,8448,1,0,0:0:0:0:
400,288,8614,2,0,P|328:252|220:280,1,184.500007038117,8|0,0:0|0:0,0:0:0:0:
116,180,9448,6,0,P|104:136|80:112,2,61.5000023460389,2|0|0,0:0|0:0|0:0,0:0:0:0:
188,192,9948,2,0,P|272:152|300:56,1,184.500007038117,8|0,0:0|0:0,0:0:0:0:
428,148,10781,6,0,L|496:284,1,123.000004692078,2|0,0:0|0:0,0:0:0:0:
444,320,11281,1,0,0:0:0:0:
384,364,11448,2,0,L|264:308,1,123.000004692078,8|0,0:0|0:0,0:0:0:0:
192,188,12115,5,2,0:0:0:0:
136,140,12281,1,0,0:0:0:0:
72,104,12448,1,0,0:0:0:0:
4,76,12615,1,8,0:0:0:0:
152,292,13114,6,0,P|168:320|196:340,1,61.5000023460389,0|0,0:0|0:0,0:0:0:0:
228,268,13448,2,0,P|312:232|336:136,1,184.500007038117,2|0,0:0|0:0,0:0:0:0:
316,80,14114,2,0,L|432:152,1,123.000004692078,8|2,0:0|0:0,0:0:0:0:
476,280,14781,6,0,L|432:336,2,61.5000023460389,8|0|0,0:0|0:0|0:0,0:0:0:0:
412,244,15281,2,0,P|328:212|216:244,1,184.500007038117,8|0,0:0|0:0,0:0:0:0:
96,184,16115,6,0,L|64:100,1,61.5000023460389,2|0,0:0|0:0,0:0:0:0:
216,84,16615,2,0,P|312:112|404:72,1,184.500007038117,8|0,0:0|0:0,0:0:0:0:
452,124,17281,1,2,0:0:0:0:
480,192,17448,6,0,P|464:216|436:240,1,61.5000023460389,2|0,0:0|0:0,0:0:0:0:
340,340,17948,2,0,P|304:248|224:208,1,184.500007038117,8|0,0:0|0:0,0:0:0:0:
104,132,18781,6,0,P|80:108|72:72,2,61.5000023460389,2|0|0,0:0|0:0|0:0,0:0:0:0:
148,72,19281,2,0,P|232:36|328:48,1,184.500007038117,8|0,0:0|0:0,0:0:0:0:
388,176,20114,6,0,P|432:176|464:160,2,61.5000023460389,0|0|0,0:0|0:0|0:0,0:0:0:0:
316,172,20614,2,0,P|236:196|180:276,1,184.500007038117,8|8,0:0|0:0,0:0:0:0:
52,116,21448,5,0,0:0:0:0:
204,52,21781,2,0,L|172:148,1,82,8|2,0:0|0:0,0:0:0:0:
168,168,22031,2,0,P|228:152|304:176,1,123,8|0,0:0|0:0,0:0:0:0:
344,224,22448,1,8,0:0:0:0:
388,292,22614,6,0,P|432:304|472:296,2,82,0|4|0,0:0|0:0|0:0,0:0:0:0:
344,224,23114,1,8,0:0:0:0:
356,144,23281,6,0,B|280:96|280:96|248:16,1,164,0|4,0:0|0:0,0:0:0:0:
172,40,23781,2,0,L|136:128,1,82,8|0,0:0|0:0,0:0:0:0:
140,200,24114,2,0,L|176:288,1,82,4|0,0:0|0:0,0:0:0:0:
244,316,24448,1,8,0:0:0:0:
324,320,24614,6,0,L|492:260,1,164,2|2,0:0|0:0,0:0:0:0:
460,184,25114,2,0,B|416:168|416:168|376:128,1,82,8|6,0:0|0:0,0:0:0:0:
340,76,25448,2,0,B|316:44|316:44|252:24,2,82,4|2|8,0:0|0:0|0:0,0:0:0:0:
264,112,25948,6,0,B|212:144|212:144|144:144,1,123,2|0,0:0|0:0,0:0:0:0:
116,124,26281,2,0,L|32:180,2,82,6|8|0,0:0|0:0|0:0,0:0:0:0:
148,48,26781,6,0,L|244:24,2,82,4|2|8,0:0|0:0|0:0,0:0:0:0:
116,124,27281,2,0,B|128:208|128:208|92:296,1,164,2|6,0:0|0:0,0:0:0:0:
160,336,27781,2,0,L|232:268,1,82,8|2,0:0|0:0,0:0:0:0:
272,216,28114,6,0,B|320:212|320:212|368:184,2,82,4|2|8,0:0|0:0|0:0,0:0:0:0:
296,136,28614,2,0,B|228:108|228:108|176:12,1,164,2|6,0:0|0:0,0:0:0:0:
268,24,29114,2,0,L|372:24,1,82,8|2,0:0|0:0,0:0:0:0:
412,80,29448,6,0,B|456:92|456:92|496:124,2,82,4|2|8,0:0|0:0|0:0,0:0:0:0:
404,160,29948,2,0,B|392:232|392:232|312:312,1,164,2|2,0:0|0:0,0:0:0:0:
252,324,30448,2,0,P|280:360|328:376,1,82,8|6,0:0|0:0,0:0:0:0:
396,356,30781,6,0,L|480:336,2,82,4|2|8,0:0|0:0|0:0,0:0:0:0:
332,304,31281,2,0,B|256:288|256:288|173:312,1,164,2|4,0:0|0:0,0:0:0:0:
116,252,31781,2,0,L|56:160,1,82,8|0,0:0|0:0,0:0:0:0:
92,104,32114,6,0,B|136:88|136:88|176:56,2,82,4|2|8,0:0|0:0|0:0,0:0:0:0:
240,172,32781,2,0,L|68:236,1,164,0|8,0:0|0:0,0:0:0:0:
220,320,33448,5,4,0:0:0:0:
300,308,33614,1,2,0:0:0:0:
368,264,33781,1,8,0:0:0:0:
396,188,33948,2,0,B|412:128|412:128|500:52,1,164,2|6,0:0|0:0,0:0:0:0:
416,20,34448,2,0,L|352:76,1,82,8|0,0:0|0:0,0:0:0:0:
288,120,34781,6,0,P|264:80|212:56,1,82,4|0,0:0|0:0,0:0:0:0:
208,140,35114,2,0,P|176:196|68:216,2,164,8|4|8,0:0|0:0|0:0,0:0:0:0:
356,212,36114,5,4,0:0:0:0:
308,280,36281,1,2,0:0:0:0:
236,320,36448,1,8,0:0:0:0:
156,340,36614,2,0,B|104:308|104:308|-4:296,1,164,2|6,0:0|0:0,0:0:0:0:
28,220,37114,2,0,L|128:228,1,82,8|0,0:0|0:0,0:0:0:0:
136,148,37448,6,0,L|-40:140,1,164,4|8,0:0|0:0,0:0:0:0:
8,68,37948,2,0,L|180:76,1,164,0|6,0:0|0:0,0:0:0:0:
232,132,38448,2,0,B|276:136|276:136|332:116,1,82,8|2,0:0|0:0,0:0:0:0:
344,200,38781,6,0,L|436:348,1,164,4|8,0:0|0:0,0:0:0:0:
480,272,39281,2,0,L|393:132,1,164,2|6,0:0|0:0,0:0:0:0:
360,56,39781,2,0,B|324:28|324:28|276:24,1,82,8|2,0:0|0:0,0:0:0:0:
212,56,40115,6,0,B|176:80|176:80|128:84,2,82,4|2|8,0:0|0:0|0:0,0:0:0:0:
252,128,40615,2,0,L|312:320,1,164,2|2,0:0|0:0,0:0:0:0:
376,320,41115,2,0,B|400:280|400:280|448:264,1,82,8|6,0:0|0:0,0:0:0:0:
444,188,41448,6,0,B|398:199|398:199|353:176,2,82,4|2|8,0:0|0:0|0:0,0:0:0:0:
416,112,41948,2,0,L|264:48,1,164,2|6,0:0|0:0,0:0:0:0:
184,56,42448,2,0,B|136:60|136:60|96:80,1,82,8|2,0:0|0:0,0:0:0:0:
44,128,42781,1,4,2:2:0:0:
92,92,53448,5,0,0:0:0:0:
116,236,53781,1,0,0:0:0:0:
232,148,54115,2,0,L|364:144,1,123.000004692078,2|0,0:0|0:0,0:0:0:0:
440,264,54781,6,0,L|364:268,1,61.5000023460389,0|0,0:0|0:0,0:0:0:0:
252,344,55281,2,0,L|60:352,1,184.500007038117,2|0,0:0|0:0,0:0:0:0:
48,280,55948,1,0,0:0:0:0:
28,208,56115,6,0,B|24:176|24:176|12:128,2,61.5000023460389,0|0|0,0:0|0:0|0:0,0:0:0:0:
100,224,56615,2,0,L|284:216,1,184.500007038117,2|2,0:0|0:0,0:0:0:0:
360,212,57281,1,0,0:0:0:0:
432,208,57448,6,0,B|464:200|464:200|504:176,2,61.5000023460389,0|0|0,0:0|0:0|0:0,0:0:0:0:
412,136,57948,2,0,L|240:52,1,184.500007038117,2|2,0:0|0:0,0:0:0:0:
172,56,58615,1,0,0:0:0:0:
100,56,58781,6,0,B|72:44|72:44|28:36,2,61.5000023460389,2|0|0,0:0|0:0|0:0,0:0:0:0:
56,116,59281,2,0,L|16:304,1,184.500007038117,0|2,0:0|0:0,0:0:0:0:
80,340,59948,1,0,0:0:0:0:
152,320,60115,6,0,B|192:308|192:308|224:288,2,61.5000023460389,2|0|0,0:0|0:0|0:0,0:0:0:0:
132,248,60615,2,0,L|170:67,1,184.500007038117,2|2,0:0|0:0,0:0:0:0:
244,48,61281,1,0,0:0:0:0:
316,64,61448,6,0,P|344:88|380:92,1,61.5000023460389,2|0,0:0|0:0,0:0:0:0:
436,60,61781,2,0,P|468:64|496:76,1,61.5000023460389,0|2,0:0|0:0,0:0:0:0:
452,136,62115,2,0,P|424:176|416:276,1,123.000004692078,0|2,0:0|0:0,0:0:0:0:
352,292,62615,1,0,0:0:0:0:
332,364,62781,5,0,0:0:0:0:
128,280,63115,1,0,0:0:0:0:
60,68,63448,2,0,P|104:120|228:112,1,184.500007038117,0|0,0:0|0:0,0:0:0:0:
308,144,64115,6,0,L|248:228,1,82,4|2,0:0|0:0,0:0:0:0:
404,280,64448,2,0,L|357:214,1,82,8|6,0:0|0:0,0:0:0:0:
308,144,64781,2,0,P|296:88|180:32,1,164,0|8,0:0|0:0,0:0:0:0:
128,32,65281,1,2,0:0:0:0:
208,132,65448,6,0,L|348:20,1,164,4|8,0:0|0:0,0:0:0:0:
448,248,66115,2,0,B|416:216|416:216|368:200,1,82,0|6,0:0|0:0,0:0:0:0:
300,228,66448,2,0,B|268:260|268:260|220:276,1,82,8|2,0:0|0:0,0:0:0:0:
232,352,66781,6,0,P|212:276|112:216,1,164,4|8,0:0|0:0,0:0:0:0:
80,176,67281,1,6,0:0:0:0:
59,96,67448,2,0,L|163:90,1,82,0|6,0:0|0:0,0:0:0:0:
216,176,67781,2,0,P|188:104|232:29,1,164,8|4,0:0|0:0,0:0:0:0:
324,116,68281,5,2,0:0:0:0:
324,116,68448,2,0,P|368:148|420:152,1,82,8|2,0:0|0:0,0:0:0:0:
348,36,68781,2,0,L|288:204,1,164,0|8,0:0|0:0,0:0:0:0:
84,320,69448,6,0,B|116:288|116:288|176:276,1,82,4|2,0:0|0:0,0:0:0:0:
232,276,69781,2,0,B|268:268|268:268|300:236,1,82,8|6,0:0|0:0,0:0:0:0:
447,255,70115,2,0,P|376:216|300:236,1,164,0|8,0:0|0:0,0:0:0:0:
232,192,70615,1,2,0:0:0:0:
232,276,70781,6,0,L|200:360,1,82,4|2,0:0|0:0,0:0:0:0:
156,232,71115,2,0,L|126:155,1,82,8|2,0:0|0:0,0:0:0:0:
112,56,71448,2,0,P|100:140|40:196,1,164,4|8,0:0|0:0,0:0:0:0:
16,284,71948,5,2,0:0:0:0:
16,284,72115,2,0,P|-8:188|16:120,1,164,4|8,0:0|0:0,0:0:0:0:
92,140,72615,1,6,0:0:0:0:
172,160,72781,2,0,B|224:160|224:160|280:128,1,82,0|6,0:0|0:0,0:0:0:0:
260,20,73115,2,0,P|288:124|344:152,1,164,8|4,0:0|0:0,0:0:0:0:
392,92,73615,5,2,0:0:0:0:
392,92,73781,2,0,B|364:52|364:52|320:28,1,82,8|6,0:0|0:0,0:0:0:0:
332,148,74115,2,0,L|464:32,1,164,0|10,0:0|0:0,0:0:0:0:
432,352,74781,6,0,P|420:304|388:272,1,82,4|2,0:0|0:0,0:0:0:0:
344,340,75115,2,0,P|276:316|216:216,1,164,8|2,0:0|0:0,0:0:0:0:
196,168,75615,1,0,0:0:0:0:
156,96,75781,2,0,B|136:56|136:56|80:32,1,82,8|2,0:0|0:0,0:0:0:0:
116,180,76115,6,0,P|184:172|264:84,1,164,4|8,0:0|0:0,0:0:0:0:
308,48,76615,1,2,0:0:0:0:
384,76,76781,2,0,B|428:80|428:80|476:112,1,82,4|2,0:0|0:0,0:0:0:0:
400,160,77115,2,0,L|352:248,1,82,8|6,0:0|0:0,0:0:0:0:
465,324,77448,6,0,P|380:296|360:231,1,164,4|8,0:0|0:0,0:0:0:0:
292,188,77948,1,2,0:0:0:0:
216,160,78115,2,0,B|204:120|204:120|208:64,1,82,0|2,0:0|0:0,0:0:0:0:
136,176,78448,2,0,L|196:344,1,164,8|4,0:0|0:0,0:0:0:0:
340,316,78948,5,2,0:0:0:0:
340,316,79114,2,0,L|304:228,1,82,8|2,0:0|0:0,0:0:0:0:
396,256,79448,2,0,P|344:320|248:332,1,164,0|8,0:0|0:0,0:0:0:0:
32,176,80114,6,0,B|72:152|72:152|96:108,1,82,4|2,0:0|0:0,0:0:0:0:
172,120,80448,2,0,B|188:88|188:88|228:64,1,82,8|6,0:0|0:0,0:0:0:0:
316,228,80781,2,0,P|236:248|164:172,1,164,0|8,0:0|0:0,0:0:0:0:
172,120,81281,1,2,0:0:0:0:
92,212,81448,6,0,L|20:276,1,82,4|2,0:0|0:0,0:0:0:0:
56,368,81781,2,0,L|120:296,1,82,8|2,0:0|0:0,0:0:0:0:
92,212,82114,2,0,P|56:160|84:68,1,164,4|8,0:0|0:0,0:0:0:0:
292,112,82614,5,6,0:0:0:0:
292,112,82781,2,0,B|204:148|204:148|116:136,1,164,4|8,0:0|0:0,0:0:0:0:
92,212,83281,1,2,0:0:0:0:
172,228,83448,2,0,L|268:244,1,82,0|6,0:0|0:0,0:0:0:0:
404,304,83781,2,0,L|236:332,1,164,8|4,0:0|0:0,0:0:0:0:
80,308,84281,5,2,0:0:0:0:
80,308,84448,2,0,L|176:324,1,82,8|2,0:0|0:0,0:0:0:0:
16,352,84781,2,0,P|76:312|84:216,1,164,0|8,0:0|0:0,0:0:0:0:
120,108,85281,2,0,L|160:204,1,82,2|4,0:0|2:0,0:0:0:0:
100,68,95781,6,0,L|40:140,1,82,2|2,0:0|0:0,0:0:0:0:
56,212,96114,2,0,B|136:188|136:188|248:216,1,164,4|8,0:0|0:0,0:0:0:0:
256,280,96614,1,0,0:0:0:0:
320,332,96781,2,0,B|400:356|400:356|512:328,1,164,2|8,0:0|0:0,0:0:0:0:
480,256,97281,1,2,0:0:0:0:
404,224,97448,6,0,P|428:188|480:176,2,82,6|2|8,0:0|0:0|0:0,0:0:0:0:
324,216,97948,2,0,P|356:148|436:104,1,164,2|6,0:0|0:0,0:0:0:0:
404,28,98448,2,0,L|300:40,1,82,8|2,0:0|0:0,0:0:0:0:
244,68,98781,5,6,0:0:0:0:
164,72,98948,1,2,0:0:0:0:
84,76,99114,1,8,0:0:0:0:
64,156,99281,2,0,L|88:288,1,123,2|0,0:0|0:0,0:0:0:0:
100,316,99614,2,0,L|152:248,1,82,2|8,0:0|0:0,0:0:0:0:
196,184,99948,1,6,0:0:0:0:
268,148,100114,6,0,P|312:136|356:100,1,82,4|2,0:0|0:0,0:0:0:0:
272,68,100448,1,8,0:0:0:0:
272,68,100614,2,0,L|352:224,1,164,2|6,0:0|0:0,0:0:0:0:
356,296,101114,2,0,B|308:316|308:316|264:304,1,82,8|0,0:0|0:0,0:0:0:0:
200,280,101448,6,0,B|171:272|171:272|123:292,1,82,4|2,0:0|0:0,0:0:0:0:
48,328,101781,1,8,0:0:0:0:
84,224,101948,2,0,L|252:152,1,164,2|4,0:0|0:0,0:0:0:0:
188,92,102448,2,0,B|236:72|236:72|280:84,1,82,8|2,0:0|0:0,0:0:0:0:
344,108,102781,6,0,B|372:115|372:115|420:95,1,82,6|0,0:0|0:0,0:0:0:0:
496,60,103114,1,8,0:0:0:0:
460,164,103281,2,0,L|292:236,1,164,2|4,0:0|0:0,0:0:0:0:
344,304,103781,2,0,B|292:324|292:324|236:320,1,82,10|2,0:0|0:0,0:0:0:0:
184,324,104114,6,0,B|160:284|160:284|112:264,1,82,4|0,0:0|0:0,0:0:0:0:
52,232,104448,2,0,L|72:136,1,82,8|0,0:0|0:0,0:0:0:0:
56,112,104698,2,0,P|112:120|196:80,1,123,0|0,0:0|0:0,0:0:0:0:
304,28,105114,2,0,P|256:24|216:32,1,82,8|6,0:0|0:0,0:0:0:0:
264,104,105448,6,0,L|420:196,2,164,0|0|0,0:0|0:0|0:0,0:0:0:0:
200,156,106281,1,0,0:0:0:0:
144,216,106448,2,0,L|48:216,1,82,0|0,0:0|0:0,0:0:0:0:
156,296,106781,6,0,B|256:296|256:296|332:336,1,164,4|10,0:0|0:0,0:0:0:0:
380,372,107281,1,4,0:0:0:0:
432,308,107448,2,0,L|376:220,1,82,0|4,0:0|0:0,0:0:0:0:
440,176,107781,2,0,L|484:245,1,82,10|8,0:0|0:0,0:0:0:0:
387,238,108114,6,0,L|260:168,1,123,4|0,0:0|0:0,0:0:0:0:
240,164,108448,2,0,P|212:212|184:232,1,82,10|0,0:0|0:0,0:0:0:0:
74,152,108781,2,0,L|156:152,2,82,8|4|10,0:0|0:0|0:0,0:0:0:0:
24,216,109281,1,8,0:0:0:0:
156,152,109448,6,0,P|180:80|268:52,1,164,4|10,0:0|0:0,0:0:0:0:
340,60,109948,1,4,0:0:0:0:
396,120,110114,2,0,P|416:160|464:188,1,82,0|4,0:0|0:0,0:0:0:0:
396,248,110448,2,0,P|384:300|348:328,1,82,10|12,0:0|0:0,0:0:0:0:
224,304,110781,6,0,P|316:280|364:319,1,164,4|10,0:0|0:0,0:0:0:0:
444,336,111281,1,4,0:0:0:0:
476,260,111448,2,0,L|504:160,1,82,0|0,0:0|0:0,0:0:0:0:
420,160,111781,2,0,L|448:60,1,82,0|0,0:0|0:0,0:0:0:0:
344,120,112114,6,0,B|324:176|324:176|224:224,1,164,4|10,0:0|0:0,0:0:0:0:
148,204,112614,1,4,0:0:0:0:
68,184,112781,2,0,P|48:144|48:104,1,82,0|4,0:0|0:0,0:0:0:0:
112,48,113114,2,0,P|132:88|132:128,1,82,10|0,0:0|0:0,0:0:0:0:
92,264,113448,6,0,P|144:316|252:312,1,164,4|10,0:0|0:0,0:0:0:0:
312,316,113948,1,0,0:0:0:0:
376,264,114114,2,0,P|400:220|404:172,1,82,0|4,0:0|0:0,0:0:0:0:
352,124,114448,2,0,P|328:168|324:216,1,82,2|8,0:0|0:0,0:0:0:0:
432,112,114781,6,0,P|396:56|288:48,1,164,4|10,0:0|0:0,0:0:0:0:
268,116,115281,1,4,0:0:0:0:
196,156,115448,2,0,P|172:200|132:216,1,82,0|0,0:0|0:0,0:0:0:0:
64,196,115781,2,0,P|88:152|128:136,1,82,10|4,0:0|0:0,0:0:0:0:
92,276,116114,6,0,P|148:332|252:328,1,164,4|10,0:0|0:0,0:0:0:0:
296,292,116614,1,4,0:0:0:0:
328,216,116781,2,0,P|340:176|392:140,1,82,0|4,0:0|0:0,0:0:0:0:
488,248,117114,2,0,P|448:244|408:220,1,82,2|0,0:0|0:0,0:0:0:0:
244,216,117448,6,0,L|80:252,1,164,4|10,0:0|0:0,0:0:0:0:
40,180,117948,2,0,L|200:144,1,164,4|4,0:0|0:0,0:0:0:0:
284,140,118448,1,10,0:0:0:0:
364,132,118614,1,0,0:0:0:0:
420,192,118781,6,0,L|392:368,1,164,4|10,0:0|0:0,0:0:0:0:
312,372,119281,2,0,L|337:210,1,164,0|4,0:0|0:0,0:0:0:0:
364,132,119781,1,10,0:0:0:0:
328,56,119948,1,0,0:0:0:0:
248,36,120114,6,0,L|76:52,1,164,4|10,0:0|0:0,0:0:0:0:
56,128,120614,2,0,L|219:112,1,164,4|0,0:0|0:0,0:0:0:0:
264,184,121114,1,14,0:0:0:0:
292,260,121281,1,4,0:0:0:0:
232,316,121448,6,0,L|60:332,1,164,4|10,0:0|0:0,0:0:0:0:
36,256,121948,2,0,L|117:247,1,82,4|4,0:0|0:0,0:0:0:0:
200,240,122281,1,0,0:0:0:0:
264,184,122448,2,0,P|304:152|312:112,1,82,10|0,0:0|0:0,0:0:0:0:
174,77,122781,6,0,P|196:160|264:184,1,164,4|10,0:0|0:0,0:0:0:0:
296,260,123281,2,0,L|480:232,1,164,4|4,0:0|0:0,0:0:0:0:
432,160,123781,1,10,0:0:0:0:
364,112,123948,1,0,0:0:0:0:
284,104,124114,6,0,P|244:120|220:152,2,82,4|0|10,0:0|0:0|0:0,0:0:0:0:
296,184,124614,2,0,L|184:40,1,164,0|4,0:0|0:0,0:0:0:0:
132,108,125114,2,0,L|120:196,1,82,10|0,0:0|0:0,0:0:0:0:
116,272,125448,5,4,0:0:0:0:
192,304,125614,1,0,0:0:0:0:
276,308,125781,2,0,P|336:292|372:236,1,123,10|0,0:0|0:0,0:0:0:0:
408,232,126114,2,0,L|348:152,1,82,0|8,0:0|0:0,0:0:0:0:
408,100,126448,2,0,L|348:20,1,82,2|4,0:0|0:0,0:0:0:0:
288,80,126781,6,0,P|264:112|216:128,1,82,4|0,0:0|0:0,0:0:0:0:
212,48,127114,1,10,0:0:0:0:
212,48,127281,2,0,L|320:192,1,164,4|4,0:0|0:0,0:0:0:0:
268,248,127781,2,0,P|232:224|184:224,1,82,10|0,0:0|0:0,0:0:0:0:
116,248,128102,1,0,0:0:0:0:
64,104,138778,5,0,0:0:0:0:
232,284,139278,1,0,0:0:0:0:
232,284,139444,1,8,0:0:0:0:
304,156,139778,1,0,0:0:0:0:
168,100,140111,6,0,P|204:76|224:48,1,61.5000023460389,0|0,0:0|0:0,0:0:0:0:
284,36,140444,1,0,0:0:0:0:
428,76,140778,1,8,0:0:0:0:
304,156,141111,1,0,0:0:0:0:
424,296,141444,6,0,P|388:252|268:280,1,184.500007038117,0|0,0:0|0:0,0:0:0:0:
228,332,142111,2,0,L|108:288,1,123.000004692078,8|0,0:0|0:0,0:0:0:0:
48,156,142778,6,0,L|116:184,1,61.5000023460389,0|0,0:0|0:0,0:0:0:0:
172,204,143111,1,0,0:0:0:0:
272,96,143444,1,8,0:0:0:0:
316,236,143778,1,0,0:0:0:0:
172,204,144111,5,0,0:0:0:0:
424,52,144778,1,8,0:0:0:0:
472,192,145111,1,0,0:0:0:0:
424,332,145444,6,0,P|352:296|348:200,1,184.500007038117,0|0,0:0|0:0,0:0:0:0:
312,136,146111,2,0,P|296:92|216:60,1,123.000004692078,8|0,0:0|0:0,0:0:0:0:
256,192,146778,12,0,149111,0:0:0:0:
204,240,149444,6,0,L|264:156,1,82,4|2,0:0|0:0,0:0:0:0:
108,104,149778,2,0,L|155:170,1,82,8|6,0:0|0:0,0:0:0:0:
204,240,150111,2,0,P|216:296|332:352,1,164,0|10,0:0|0:0,0:0:0:0:
384,352,150611,1,2,0:0:0:0:
304,252,150778,6,0,L|164:364,1,164,4|8,0:0|0:0,0:0:0:0:
64,136,151444,2,0,B|96:168|96:168|144:184,1,82,0|6,0:0|0:0,0:0:0:0:
212,156,151778,2,0,B|244:124|244:124|292:108,1,82,8|2,0:0|0:0,0:0:0:0:
280,32,152111,6,0,P|300:108|400:168,1,164,4|10,0:0|0:0,0:0:0:0:
432,208,152611,1,6,0:0:0:0:
453,288,152778,2,0,L|349:294,1,82,0|6,0:0|0:0,0:0:0:0:
296,208,153111,2,0,P|324:280|280:355,1,164,8|4,0:0|0:0,0:0:0:0:
188,268,153611,5,2,0:0:0:0:
188,268,153778,2,0,P|144:236|92:232,1,82,8|6,0:0|0:0,0:0:0:0:
164,348,154111,2,0,L|224:180,1,164,0|8,0:0|0:0,0:0:0:0:
428,64,154804,6,0,B|396:96|396:96|336:108,1,82,4|0,0:0|0:0,0:0:0:0:
280,108,155137,2,0,B|244:116|244:116|212:148,1,82,8|2,0:0|0:0,0:0:0:0:
65,129,155470,2,0,P|136:168|212:148,1,164,4|10,0:0|0:0,0:0:0:0:
280,192,155970,1,2,0:0:0:0:
280,108,156137,6,0,L|312:24,1,82,4|2,0:0|0:0,0:0:0:0:
356,152,156470,2,0,L|386:229,1,82,8|2,0:0|0:0,0:0:0:0:
400,328,156804,2,0,P|412:244|472:188,1,164,4|8,0:0|0:0,0:0:0:0:
496,100,157304,5,2,0:0:0:0:
496,100,157470,2,0,P|520:196|496:264,1,164,4|10,0:0|0:0,0:0:0:0:
420,244,157970,1,6,0:0:0:0:
340,224,158137,2,0,B|288:224|288:224|232:256,1,82,0|6,0:0|0:0,0:0:0:0:
252,364,158470,2,0,P|224:260|168:232,1,164,8|4,0:0|0:0,0:0:0:0:
120,292,158970,5,2,0:0:0:0:
120,292,159137,2,0,B|148:332|148:332|192:356,1,82,8|6,0:0|0:0,0:0:0:0:
180,236,159470,2,0,L|48:352,1,164,0|8,0:0|0:0,0:0:0:0:
80,32,160137,6,0,P|92:80|124:112,1,82,4|2,0:0|0:0,0:0:0:0:
168,44,160470,2,0,P|236:68|296:168,1,164,8|2,0:0|0:0,0:0:0:0:
316,216,160970,1,0,0:0:0:0:
356,288,161137,2,0,B|376:328|376:328|432:352,1,82,10|2,0:0|0:0,0:0:0:0:
396,204,161470,6,0,P|328:212|248:300,1,164,4|8,0:0|0:0,0:0:0:0:
204,336,161970,1,2,0:0:0:0:
128,308,162137,2,0,B|84:304|84:304|36:272,1,82,4|6,0:0|0:0,0:0:0:0:
112,224,162470,2,0,L|160:136,1,82,8|2,0:0|0:0,0:0:0:0:
47,60,162804,6,0,P|132:88|152:153,1,164,4|10,0:0|0:0,0:0:0:0:
220,196,163304,1,6,0:0:0:0:
296,224,163470,2,0,B|308:264|308:264|304:320,1,82,0|6,0:0|0:0,0:0:0:0:
376,208,163804,2,0,L|316:40,1,164,8|4,0:0|0:0,0:0:0:0:
172,68,164304,5,2,0:0:0:0:
172,68,164470,2,0,L|208:156,1,82,8|6,0:0|0:0,0:0:0:0:
116,128,164804,2,0,P|168:64|264:52,1,164,0|8,0:0|0:0,0:0:0:0:
480,208,165470,6,0,B|440:232|440:232|416:276,1,82,4|2,0:0|0:0,0:0:0:0:
340,264,165804,2,0,B|324:296|324:296|284:320,1,82,8|6,0:0|0:0,0:0:0:0:
196,156,166137,2,0,P|276:136|348:212,1,164,0|10,0:0|0:0,0:0:0:0:
340,264,166637,1,2,0:0:0:0:
420,172,166804,6,0,L|492:108,1,82,4|2,0:0|0:0,0:0:0:0:
456,16,167137,2,0,L|392:88,1,82,8|2,0:0|0:0,0:0:0:0:
420,172,167470,2,0,P|456:224|428:316,1,164,4|8,0:0|0:0,0:0:0:0:
220,272,167970,5,2,0:0:0:0:
220,272,168137,2,0,B|308:236|308:236|396:248,1,164,4|10,0:0|0:0,0:0:0:0:
420,172,168637,1,6,0:0:0:0:
340,156,168804,2,0,L|244:140,1,82,0|6,0:0|0:0,0:0:0:0:
108,80,169137,2,0,L|276:52,1,164,12|4,0:0|0:0,0:0:0:0:
432,76,169637,5,2,0:0:0:0:
432,76,169804,2,0,L|336:60,1,82,8|6,0:0|0:0,0:0:0:0:
496,32,170137,2,0,P|436:72|428:168,1,164,0|8,0:0|0:0,0:0:0:0:
440,240,170637,1,0,0:0:0:0:
396,308,170804,6,0,L|224:332,1,164,4|8,0:0|0:0,0:0:0:0:
156,308,171304,1,6,0:0:0:0:
84,264,171470,2,0,B|64:224|64:224|64:172,1,82,0|0,0:0|0:0,0:0:0:0:
156,156,171804,2,0,B|176:196|176:196|176:248,1,82,2|2,0:0|0:0,0:0:0:0:
64,186,172137,6,0,P|60:135|156:63,1,164,4|8,0:0|0:0,0:0:0:0:
228,100,172637,1,2,0:0:0:0:
260,192,172804,2,0,P|268:236|308:268,1,82,4|6,0:0|0:0,0:0:0:0:
376,208,173137,2,0,P|368:164|328:132,1,82,8|2,0:0|0:0,0:0:0:0:
293,261,173470,6,0,B|363:303|363:303|459:287,1,164,4|10,0:0|0:0,0:0:0:0:
488,220,173970,1,6,0:0:0:0:
436,156,174137,2,0,L|352:172,1,82,0|6,0:0|0:0,0:0:0:0:
208,280,174470,2,0,L|28:312,1,164,8|4,0:0|0:0,0:0:0:0:
68,228,174970,5,2,0:0:0:0:
108,156,175137,2,0,P|120:108|156:88,1,82,8|6,0:0|0:0,0:0:0:0:
180,188,175470,2,0,L|12:124,1,164,0|8,0:0|0:0,0:0:0:0:
364,320,176137,6,0,P|404:304|436:256,1,82,4|2,0:0|0:0,0:0:0:0:
428,192,176470,2,0,P|408:144|420:100,1,82,8|6,0:0|0:0,0:0:0:0:
508,192,176804,2,0,L|332:192,1,164,0|10,0:0|0:0,0:0:0:0:
272,236,177304,1,2,0:0:0:0:
204,280,177470,6,0,L|116:280,1,82,4|2,0:0|0:0,0:0:0:0:
96,200,177804,2,0,L|180:200,1,82,8|2,0:0|0:0,0:0:0:0:
284,320,178137,2,0,P|324:308|352:272,1,82,4|2,0:0|0:0,0:0:0:0:
348,196,178470,1,8,0:0:0:0:
300,128,178637,5,2,0:0:0:0:
300,128,178804,2,0,L|136:64,1,164,4|10,0:0|0:0,0:0:0:0:
116,144,179304,1,2,0:0:0:0:
80,216,179470,2,0,P|124:224|180:200,1,82,0|6,0:0|0:0,0:0:0:0:
300,128,179804,2,0,P|352:80|456:88,1,164,8|4,0:0|0:0,0:0:0:0:
484,152,180304,5,2,0:0:0:0:
436,220,180470,2,0,P|392:244|344:248,1,82,8|6,0:0|0:0,0:0:0:0:
388,152,180804,2,0,L|496:292,1,164,0|8,0:0|0:0,0:0:0:0:
428,340,181304,1,10,0:0:0:0:
428,340,181387,1,10,0:0:0:0:
428,340,181470,1,4,0:0:0:0:
