osu file format v14

[General]
AudioFilename: PERRRRRRRRKELE.mp3
AudioLeadIn: 0
PreviewTime: -1
Countdown: 1
SampleSet: None
StackLeniency: 0.7
Mode: 0
LetterboxInBreaks: 1
WidescreenStoryboard: 0

[Editor]
DistanceSpacing: 0.5
BeatDivisor: 4
GridSize: 4
TimelineZoom: 1

[Metadata]
Title:PERRRRRRRRRRRKELE
TitleUnicode:PERRRRRRRRRRRKELE
Artist:PERRRRRRRRRRRKELE
ArtistUnicode:PERRRRRRRRRRRKELE
Creator:Not_Zippy
Version:PERRRRRRRRRRRKELE
Source:PERRRRRRRRRRRKELE
Tags:PERRRRRRRRRRRKELE
BeatmapID:700895
BeatmapSetID:314034

[Difficulty]
HPDrainRate:0
CircleSize:7
OverallDifficulty:10
ApproachRate:0
SliderMultiplier:0.400000005960464
SliderTickRate:1

[Events]
//Background and Video events
//Break Periods
//Storyboard Layer 0 (Background)
//Storyboard Layer 1 (Fail)
//Storyboard Layer 2 (Pass)
//Storyboard Layer 3 (Foreground)
//Storyboard Sound Samples

[TimingPoints]
0,6,4,1,0,100,1,0

[HitObjects]
488,24,364,5,0,0:0:0:0:
483,27,365,1,0,0:0:0:0:
479,30,367,1,0,0:0:0:0:
475,33,368,1,0,0:0:0:0:
470,36,370,1,0,0:0:0:0:
466,40,371,1,0,0:0:0:0:
462,43,373,1,0,0:0:0:0:
458,46,374,1,0,0:0:0:0:
453,49,376,1,0,0:0:0:0:
449,52,377,1,0,0:0:0:0:
445,56,379,1,0,0:0:0:0:
440,59,380,1,0,0:0:0:0:
436,62,382,1,0,0:0:0:0:
432,65,383,1,0,0:0:0:0:
428,68,385,1,0,0:0:0:0:
423,72,386,1,0,0:0:0:0:
419,75,388,1,0,0:0:0:0:
415,78,389,1,0,0:0:0:0:
410,81,391,1,0,0:0:0:0:
406,84,392,1,0,0:0:0:0:
402,88,394,1,0,0:0:0:0:
397,91,395,1,0,0:0:0:0:
393,94,397,1,0,0:0:0:0:
389,97,398,1,0,0:0:0:0:
384,100,400,1,0,0:0:0:0:
380,103,401,1,0,0:0:0:0:
376,107,403,1,0,0:0:0:0:
371,110,404,1,0,0:0:0:0:
367,113,406,1,0,0:0:0:0:
363,116,407,1,0,0:0:0:0:
358,119,409,1,0,0:0:0:0:
354,122,410,1,0,0:0:0:0:
350,125,412,1,0,0:0:0:0:
345,129,413,1,0,0:0:0:0:
341,132,415,1,0,0:0:0:0:
337,135,416,1,0,0:0:0:0:
332,138,418,1,0,0:0:0:0:
328,141,419,1,0,0:0:0:0:
324,144,421,1,0,0:0:0:0:
319,147,422,1,0,0:0:0:0:
315,150,424,1,0,0:0:0:0:
311,153,425,1,0,0:0:0:0:
306,156,427,1,0,0:0:0:0:
302,160,428,1,0,0:0:0:0:
297,163,430,1,0,0:0:0:0:
293,166,431,1,0,0:0:0:0:
289,169,433,1,0,0:0:0:0:
284,172,434,1,0,0:0:0:0:
280,175,436,1,0,0:0:0:0:
275,178,437,1,0,0:0:0:0:
271,181,439,1,0,0:0:0:0:
267,184,440,1,0,0:0:0:0:
262,187,442,1,0,0:0:0:0:
258,190,443,1,0,0:0:0:0:
253,193,445,1,0,0:0:0:0:
249,196,446,1,0,0:0:0:0:
244,199,448,1,0,0:0:0:0:
240,202,449,1,0,0:0:0:0:
235,205,451,1,0,0:0:0:0:
231,208,452,1,0,0:0:0:0:
227,211,454,1,0,0:0:0:0:
222,214,455,1,0,0:0:0:0:
218,217,457,1,0,0:0:0:0:
213,219,458,1,0,0:0:0:0:
209,222,460,1,0,0:0:0:0:
204,225,461,1,0,0:0:0:0:
200,228,463,1,0,0:0:0:0:
195,231,464,1,0,0:0:0:0:
191,234,466,1,0,0:0:0:0:
186,237,467,1,0,0:0:0:0:
181,239,469,1,0,0:0:0:0:
177,242,470,1,0,0:0:0:0:
172,245,472,1,0,0:0:0:0:
168,248,473,1,0,0:0:0:0:
163,251,475,1,0,0:0:0:0:
158,253,476,1,0,0:0:0:0:
154,256,478,1,0,0:0:0:0:
149,259,479,1,0,0:0:0:0:
144,261,481,1,0,0:0:0:0:
140,264,482,1,0,0:0:0:0:
135,266,484,1,0,0:0:0:0:
130,269,485,1,0,0:0:0:0:
126,271,487,1,0,0:0:0:0:
121,274,488,1,0,0:0:0:0:
116,276,490,1,0,0:0:0:0:
111,279,491,1,0,0:0:0:0:
106,281,493,1,0,0:0:0:0:
102,283,494,1,0,0:0:0:0:
97,285,496,1,0,0:0:0:0:
92,287,497,1,0,0:0:0:0:
87,289,499,1,0,0:0:0:0:
82,291,500,1,0,0:0:0:0:
76,292,502,1,0,0:0:0:0:
71,293,503,1,0,0:0:0:0:
66,294,505,1,0,0:0:0:0:
61,295,506,1,0,0:0:0:0:
55,295,508,1,0,0:0:0:0:
50,293,509,1,0,0:0:0:0:
46,289,511,1,0,0:0:0:0:
44,285,512,1,0,0:0:0:0:
24,24,568,1,0,0:0:0:0:
28,27,569,1,0,0:0:0:0:
32,30,571,1,0,0:0:0:0:
36,33,572,1,0,0:0:0:0:
41,36,574,1,0,0:0:0:0:
45,40,575,1,0,0:0:0:0:
49,43,577,1,0,0:0:0:0:
53,46,578,1,0,0:0:0:0:
58,49,580,1,0,0:0:0:0:
62,52,581,1,0,0:0:0:0:
66,56,583,1,0,0:0:0:0:
71,59,584,1,0,0:0:0:0:
75,62,586,1,0,0:0:0:0:
79,65,587,1,0,0:0:0:0:
83,68,589,1,0,0:0:0:0:
88,72,590,1,0,0:0:0:0:
92,75,592,1,0,0:0:0:0:
96,78,593,1,0,0:0:0:0:
101,81,595,1,0,0:0:0:0:
105,84,596,1,0,0:0:0:0:
109,88,598,1,0,0:0:0:0:
114,91,599,1,0,0:0:0:0:
118,94,601,1,0,0:0:0:0:
122,97,602,1,0,0:0:0:0:
127,100,604,1,0,0:0:0:0:
131,103,605,1,0,0:0:0:0:
135,107,607,1,0,0:0:0:0:
140,110,608,1,0,0:0:0:0:
144,113,610,1,0,0:0:0:0:
148,116,611,1,0,0:0:0:0:
153,119,613,1,0,0:0:0:0:
157,122,614,1,0,0:0:0:0:
161,125,616,1,0,0:0:0:0:
166,129,617,1,0,0:0:0:0:
170,132,619,1,0,0:0:0:0:
174,135,620,1,0,0:0:0:0:
179,138,622,1,0,0:0:0:0:
183,141,623,1,0,0:0:0:0:
187,144,625,1,0,0:0:0:0:
192,147,626,1,0,0:0:0:0:
196,150,628,1,0,0:0:0:0:
200,153,629,1,0,0:0:0:0:
205,156,631,1,0,0:0:0:0:
209,160,632,1,0,0:0:0:0:
214,163,634,1,0,0:0:0:0:
218,166,635,1,0,0:0:0:0:
222,169,637,1,0,0:0:0:0:
227,172,638,1,0,0:0:0:0:
231,175,640,1,0,0:0:0:0:
236,178,641,1,0,0:0:0:0:
240,181,643,1,0,0:0:0:0:
244,184,644,1,0,0:0:0:0:
249,187,646,1,0,0:0:0:0:
253,190,647,1,0,0:0:0:0:
258,193,649,1,0,0:0:0:0:
262,196,650,1,0,0:0:0:0:
267,199,652,1,0,0:0:0:0:
271,202,653,1,0,0:0:0:0:
276,205,655,1,0,0:0:0:0:
280,208,656,1,0,0:0:0:0:
284,211,658,1,0,0:0:0:0:
289,214,659,1,0,0:0:0:0:
293,217,661,1,0,0:0:0:0:
298,219,662,1,0,0:0:0:0:
302,222,664,1,0,0:0:0:0:
307,225,665,1,0,0:0:0:0:
311,228,667,1,0,0:0:0:0:
316,231,668,1,0,0:0:0:0:
320,234,670,1,0,0:0:0:0:
325,237,671,1,0,0:0:0:0:
330,239,673,1,0,0:0:0:0:
334,242,674,1,0,0:0:0:0:
339,245,676,1,0,0:0:0:0:
343,248,677,1,0,0:0:0:0:
348,251,679,1,0,0:0:0:0:
353,253,680,1,0,0:0:0:0:
357,256,682,1,0,0:0:0:0:
362,259,683,1,0,0:0:0:0:
367,261,685,1,0,0:0:0:0:
371,264,686,1,0,0:0:0:0:
376,266,688,1,0,0:0:0:0:
381,269,689,1,0,0:0:0:0:
385,271,691,1,0,0:0:0:0:
390,274,692,1,0,0:0:0:0:
395,276,694,1,0,0:0:0:0:
400,279,695,1,0,0:0:0:0:
405,281,697,1,0,0:0:0:0:
409,283,698,1,0,0:0:0:0:
414,285,700,1,0,0:0:0:0:
419,287,701,1,0,0:0:0:0:
424,289,703,1,0,0:0:0:0:
429,291,704,1,0,0:0:0:0:
435,292,706,1,0,0:0:0:0:
440,293,707,1,0,0:0:0:0:
445,294,709,1,0,0:0:0:0:
450,295,710,1,0,0:0:0:0:
456,295,712,1,0,0:0:0:0:
461,293,713,1,0,0:0:0:0:
465,289,715,1,0,0:0:0:0:
467,285,716,1,0,0:0:0:0:
488,360,739,1,0,0:0:0:0:
483,356,740,1,0,0:0:0:0:
479,353,742,1,0,0:0:0:0:
475,350,743,1,0,0:0:0:0:
470,347,745,1,0,0:0:0:0:
466,343,746,1,0,0:0:0:0:
462,340,748,1,0,0:0:0:0:
458,337,749,1,0,0:0:0:0:
453,334,751,1,0,0:0:0:0:
449,331,752,1,0,0:0:0:0:
445,327,754,1,0,0:0:0:0:
440,324,755,1,0,0:0:0:0:
436,321,757,1,0,0:0:0:0:
432,318,758,1,0,0:0:0:0:
428,315,760,1,0,0:0:0:0:
423,311,761,1,0,0:0:0:0:
419,308,763,1,0,0:0:0:0:
415,305,764,1,0,0:0:0:0:
410,302,766,1,0,0:0:0:0:
406,299,767,1,0,0:0:0:0:
402,295,769,1,0,0:0:0:0:
397,292,770,1,0,0:0:0:0:
393,289,772,1,0,0:0:0:0:
389,286,773,1,0,0:0:0:0:
384,283,775,1,0,0:0:0:0:
380,280,776,1,0,0:0:0:0:
376,276,778,1,0,0:0:0:0:
371,273,779,1,0,0:0:0:0:
367,270,781,1,0,0:0:0:0:
363,267,782,1,0,0:0:0:0:
358,264,784,1,0,0:0:0:0:
354,261,785,1,0,0:0:0:0:
350,258,787,1,0,0:0:0:0:
345,254,788,1,0,0:0:0:0:
341,251,790,1,0,0:0:0:0:
337,248,791,1,0,0:0:0:0:
332,245,793,1,0,0:0:0:0:
328,242,794,1,0,0:0:0:0:
324,239,796,1,0,0:0:0:0:
319,236,797,1,0,0:0:0:0:
315,233,799,1,0,0:0:0:0:
311,230,800,1,0,0:0:0:0:
306,227,802,1,0,0:0:0:0:
302,223,803,1,0,0:0:0:0:
297,220,805,1,0,0:0:0:0:
293,217,806,1,0,0:0:0:0:
289,214,808,1,0,0:0:0:0:
284,211,809,1,0,0:0:0:0:
280,208,811,1,0,0:0:0:0:
275,205,812,1,0,0:0:0:0:
271,202,814,1,0,0:0:0:0:
267,199,815,1,0,0:0:0:0:
262,196,817,1,0,0:0:0:0:
258,193,818,1,0,0:0:0:0:
253,190,820,1,0,0:0:0:0:
249,187,821,1,0,0:0:0:0:
244,184,823,1,0,0:0:0:0:
240,181,824,1,0,0:0:0:0:
235,178,826,1,0,0:0:0:0:
231,175,827,1,0,0:0:0:0:
227,172,829,1,0,0:0:0:0:
222,169,830,1,0,0:0:0:0:
218,166,832,1,0,0:0:0:0:
213,164,833,1,0,0:0:0:0:
209,161,835,1,0,0:0:0:0:
204,158,836,1,0,0:0:0:0:
200,155,838,1,0,0:0:0:0:
195,152,839,1,0,0:0:0:0:
191,149,841,1,0,0:0:0:0:
186,146,842,1,0,0:0:0:0:
181,144,844,1,0,0:0:0:0:
177,141,845,1,0,0:0:0:0:
172,138,847,1,0,0:0:0:0:
168,135,848,1,0,0:0:0:0:
163,132,850,1,0,0:0:0:0:
158,130,851,1,0,0:0:0:0:
154,127,853,1,0,0:0:0:0:
149,124,854,1,0,0:0:0:0:
144,122,856,1,0,0:0:0:0:
140,119,857,1,0,0:0:0:0:
135,117,859,1,0,0:0:0:0:
130,114,860,1,0,0:0:0:0:
126,112,862,1,0,0:0:0:0:
121,109,863,1,0,0:0:0:0:
116,107,865,1,0,0:0:0:0:
111,104,866,1,0,0:0:0:0:
106,102,868,1,0,0:0:0:0:
102,100,869,1,0,0:0:0:0:
97,98,871,1,0,0:0:0:0:
92,96,872,1,0,0:0:0:0:
87,94,874,1,0,0:0:0:0:
82,92,875,1,0,0:0:0:0:
76,91,877,1,0,0:0:0:0:
71,90,878,1,0,0:0:0:0:
66,89,880,1,0,0:0:0:0:
61,88,881,1,0,0:0:0:0:
55,88,883,1,0,0:0:0:0:
50,90,884,1,0,0:0:0:0:
46,94,886,1,0,0:0:0:0:
44,98,887,1,0,0:0:0:0:
24,360,943,1,0,0:0:0:0:
28,356,944,1,0,0:0:0:0:
32,353,946,1,0,0:0:0:0:
36,350,947,1,0,0:0:0:0:
41,347,949,1,0,0:0:0:0:
45,343,950,1,0,0:0:0:0:
49,340,952,1,0,0:0:0:0:
53,337,953,1,0,0:0:0:0:
58,334,955,1,0,0:0:0:0:
62,331,956,1,0,0:0:0:0:
66,327,958,1,0,0:0:0:0:
71,324,959,1,0,0:0:0:0:
75,321,961,1,0,0:0:0:0:
79,318,962,1,0,0:0:0:0:
83,315,964,1,0,0:0:0:0:
88,311,965,1,0,0:0:0:0:
92,308,967,1,0,0:0:0:0:
96,305,968,1,0,0:0:0:0:
101,302,970,1,0,0:0:0:0:
105,299,971,1,0,0:0:0:0:
109,295,973,1,0,0:0:0:0:
114,292,974,1,0,0:0:0:0:
118,289,976,1,0,0:0:0:0:
122,286,977,1,0,0:0:0:0:
127,283,979,1,0,0:0:0:0:
131,280,980,1,0,0:0:0:0:
135,276,982,1,0,0:0:0:0:
140,273,983,1,0,0:0:0:0:
144,270,985,1,0,0:0:0:0:
148,267,986,1,0,0:0:0:0:
153,264,988,1,0,0:0:0:0:
157,261,989,1,0,0:0:0:0:
161,258,991,1,0,0:0:0:0:
166,254,992,1,0,0:0:0:0:
170,251,994,1,0,0:0:0:0:
174,248,995,1,0,0:0:0:0:
179,245,997,1,0,0:0:0:0:
183,242,998,1,0,0:0:0:0:
187,239,1000,1,0,0:0:0:0:
192,236,1001,1,0,0:0:0:0:
196,233,1003,1,0,0:0:0:0:
200,230,1004,1,0,0:0:0:0:
205,227,1006,1,0,0:0:0:0:
209,223,1007,1,0,0:0:0:0:
214,220,1009,1,0,0:0:0:0:
218,217,1010,1,0,0:0:0:0:
222,214,1012,1,0,0:0:0:0:
227,211,1013,1,0,0:0:0:0:
231,208,1015,1,0,0:0:0:0:
236,205,1016,1,0,0:0:0:0:
240,202,1018,1,0,0:0:0:0:
244,199,1019,1,0,0:0:0:0:
249,196,1021,1,0,0:0:0:0:
253,193,1022,1,0,0:0:0:0:
258,190,1024,1,0,0:0:0:0:
262,187,1025,1,0,0:0:0:0:
267,184,1027,1,0,0:0:0:0:
271,181,1028,1,0,0:0:0:0:
276,178,1030,1,0,0:0:0:0:
280,175,1031,1,0,0:0:0:0:
284,172,1033,1,0,0:0:0:0:
289,169,1034,1,0,0:0:0:0:
293,166,1036,1,0,0:0:0:0:
298,164,1037,1,0,0:0:0:0:
302,161,1039,1,0,0:0:0:0:
307,158,1040,1,0,0:0:0:0:
311,155,1042,1,0,0:0:0:0:
316,152,1043,1,0,0:0:0:0:
320,149,1045,1,0,0:0:0:0:
325,146,1046,1,0,0:0:0:0:
330,144,1048,1,0,0:0:0:0:
334,141,1049,1,0,0:0:0:0:
339,138,1051,1,0,0:0:0:0:
343,135,1052,1,0,0:0:0:0:
348,132,1054,1,0,0:0:0:0:
353,130,1055,1,0,0:0:0:0:
357,127,1057,1,0,0:0:0:0:
362,124,1058,1,0,0:0:0:0:
367,122,1060,1,0,0:0:0:0:
371,119,1061,1,0,0:0:0:0:
376,117,1063,1,0,0:0:0:0:
381,114,1064,1,0,0:0:0:0:
385,112,1066,1,0,0:0:0:0:
390,109,1067,1,0,0:0:0:0:
395,107,1069,1,0,0:0:0:0:
400,104,1070,1,0,0:0:0:0:
405,102,1072,1,0,0:0:0:0:
409,100,1073,1,0,0:0:0:0:
414,98,1075,1,0,0:0:0:0:
419,96,1076,1,0,0:0:0:0:
424,94,1078,1,0,0:0:0:0:
429,92,1079,1,0,0:0:0:0:
435,91,1081,1,0,0:0:0:0:
440,90,1082,1,0,0:0:0:0:
445,89,1084,1,0,0:0:0:0:
450,88,1085,1,0,0:0:0:0:
456,88,1087,1,0,0:0:0:0:
461,90,1088,1,0,0:0:0:0:
465,94,1090,1,0,0:0:0:0:
467,98,1091,1,0,0:0:0:0:
488,24,1125,1,0,0:0:0:0:
483,27,1126,1,0,0:0:0:0:
479,30,1128,1,0,0:0:0:0:
475,33,1129,1,0,0:0:0:0:
470,36,1131,1,0,0:0:0:0:
466,40,1132,1,0,0:0:0:0:
462,43,1134,1,0,0:0:0:0:
458,46,1135,1,0,0:0:0:0:
453,49,1137,1,0,0:0:0:0:
449,52,1138,1,0,0:0:0:0:
445,56,1140,1,0,0:0:0:0:
440,59,1141,1,0,0:0:0:0:
436,62,1143,1,0,0:0:0:0:
432,65,1144,1,0,0:0:0:0:
428,68,1146,1,0,0:0:0:0:
423,72,1147,1,0,0:0:0:0:
419,75,1149,1,0,0:0:0:0:
415,78,1150,1,0,0:0:0:0:
410,81,1152,1,0,0:0:0:0:
406,84,1153,1,0,0:0:0:0:
402,88,1155,1,0,0:0:0:0:
397,91,1156,1,0,0:0:0:0:
393,94,1158,1,0,0:0:0:0:
389,97,1159,1,0,0:0:0:0:
384,100,1161,1,0,0:0:0:0:
380,103,1162,1,0,0:0:0:0:
376,107,1164,1,0,0:0:0:0:
371,110,1165,1,0,0:0:0:0:
367,113,1167,1,0,0:0:0:0:
363,116,1168,1,0,0:0:0:0:
358,119,1170,1,0,0:0:0:0:
354,122,1171,1,0,0:0:0:0:
350,125,1173,1,0,0:0:0:0:
345,129,1174,1,0,0:0:0:0:
341,132,1176,1,0,0:0:0:0:
337,135,1177,1,0,0:0:0:0:
332,138,1179,1,0,0:0:0:0:
328,141,1180,1,0,0:0:0:0:
324,144,1182,1,0,0:0:0:0:
319,147,1183,1,0,0:0:0:0:
315,150,1185,1,0,0:0:0:0:
311,153,1186,1,0,0:0:0:0:
306,156,1188,1,0,0:0:0:0:
302,160,1189,1,0,0:0:0:0:
297,163,1191,1,0,0:0:0:0:
293,166,1192,1,0,0:0:0:0:
289,169,1194,1,0,0:0:0:0:
284,172,1195,1,0,0:0:0:0:
280,175,1197,1,0,0:0:0:0:
275,178,1198,1,0,0:0:0:0:
271,181,1200,1,0,0:0:0:0:
267,184,1201,1,0,0:0:0:0:
262,187,1203,1,0,0:0:0:0:
258,190,1204,1,0,0:0:0:0:
253,193,1206,1,0,0:0:0:0:
249,196,1207,1,0,0:0:0:0:
244,199,1209,1,0,0:0:0:0:
240,202,1210,1,0,0:0:0:0:
235,205,1212,1,0,0:0:0:0:
231,208,1213,1,0,0:0:0:0:
227,211,1215,1,0,0:0:0:0:
222,214,1216,1,0,0:0:0:0:
218,217,1218,1,0,0:0:0:0:
213,219,1219,1,0,0:0:0:0:
209,222,1221,1,0,0:0:0:0:
204,225,1222,1,0,0:0:0:0:
200,228,1224,1,0,0:0:0:0:
195,231,1225,1,0,0:0:0:0:
191,234,1227,1,0,0:0:0:0:
186,237,1228,1,0,0:0:0:0:
181,239,1230,1,0,0:0:0:0:
177,242,1231,1,0,0:0:0:0:
172,245,1233,1,0,0:0:0:0:
168,248,1234,1,0,0:0:0:0:
163,251,1236,1,0,0:0:0:0:
158,253,1237,1,0,0:0:0:0:
154,256,1239,1,0,0:0:0:0:
149,259,1240,1,0,0:0:0:0:
144,261,1242,1,0,0:0:0:0:
140,264,1243,1,0,0:0:0:0:
135,266,1245,1,0,0:0:0:0:
130,269,1246,1,0,0:0:0:0:
126,271,1248,1,0,0:0:0:0:
121,274,1249,1,0,0:0:0:0:
116,276,1251,1,0,0:0:0:0:
111,279,1252,1,0,0:0:0:0:
106,281,1254,1,0,0:0:0:0:
102,283,1255,1,0,0:0:0:0:
97,285,1257,1,0,0:0:0:0:
92,287,1258,1,0,0:0:0:0:
87,289,1260,1,0,0:0:0:0:
82,291,1261,1,0,0:0:0:0:
76,292,1263,1,0,0:0:0:0:
71,293,1264,1,0,0:0:0:0:
66,294,1266,1,0,0:0:0:0:
61,295,1267,1,0,0:0:0:0:
55,295,1269,1,0,0:0:0:0:
50,293,1270,1,0,0:0:0:0:
46,289,1272,1,0,0:0:0:0:
44,285,1273,1,0,0:0:0:0:
24,24,1329,1,0,0:0:0:0:
28,27,1330,1,0,0:0:0:0:
32,30,1332,1,0,0:0:0:0:
36,33,1333,1,0,0:0:0:0:
41,36,1335,1,0,0:0:0:0:
45,40,1336,1,0,0:0:0:0:
49,43,1338,1,0,0:0:0:0:
53,46,1339,1,0,0:0:0:0:
58,49,1341,1,0,0:0:0:0:
62,52,1342,1,0,0:0:0:0:
66,56,1344,1,0,0:0:0:0:
71,59,1345,1,0,0:0:0:0:
75,62,1347,1,0,0:0:0:0:
79,65,1348,1,0,0:0:0:0:
83,68,1350,1,0,0:0:0:0:
88,72,1351,1,0,0:0:0:0:
92,75,1353,1,0,0:0:0:0:
96,78,1354,1,0,0:0:0:0:
101,81,1356,1,0,0:0:0:0:
105,84,1357,1,0,0:0:0:0:
109,88,1359,1,0,0:0:0:0:
114,91,1360,1,0,0:0:0:0:
118,94,1362,1,0,0:0:0:0:
122,97,1363,1,0,0:0:0:0:
127,100,1365,1,0,0:0:0:0:
131,103,1366,1,0,0:0:0:0:
135,107,1368,1,0,0:0:0:0:
140,110,1369,1,0,0:0:0:0:
144,113,1371,1,0,0:0:0:0:
148,116,1372,1,0,0:0:0:0:
153,119,1374,1,0,0:0:0:0:
157,122,1375,1,0,0:0:0:0:
161,125,1377,1,0,0:0:0:0:
166,129,1378,1,0,0:0:0:0:
170,132,1380,1,0,0:0:0:0:
174,135,1381,1,0,0:0:0:0:
179,138,1383,1,0,0:0:0:0:
183,141,1384,1,0,0:0:0:0:
187,144,1386,1,0,0:0:0:0:
192,147,1387,1,0,0:0:0:0:
196,150,1389,1,0,0:0:0:0:
200,153,1390,1,0,0:0:0:0:
205,156,1392,1,0,0:0:0:0:
209,160,1393,1,0,0:0:0:0:
214,163,1395,1,0,0:0:0:0:
218,166,1396,1,0,0:0:0:0:
222,169,1398,1,0,0:0:0:0:
227,172,1399,1,0,0:0:0:0:
231,175,1401,1,0,0:0:0:0:
236,178,1402,1,0,0:0:0:0:
240,181,1404,1,0,0:0:0:0:
244,184,1405,1,0,0:0:0:0:
249,187,1407,1,0,0:0:0:0:
253,190,1408,1,0,0:0:0:0:
258,193,1410,1,0,0:0:0:0:
262,196,1411,1,0,0:0:0:0:
267,199,1413,1,0,0:0:0:0:
271,202,1414,1,0,0:0:0:0:
276,205,1416,1,0,0:0:0:0:
280,208,1417,1,0,0:0:0:0:
284,211,1419,1,0,0:0:0:0:
289,214,1420,1,0,0:0:0:0:
293,217,1422,1,0,0:0:0:0:
298,219,1423,1,0,0:0:0:0:
302,222,1425,1,0,0:0:0:0:
307,225,1426,1,0,0:0:0:0:
311,228,1428,1,0,0:0:0:0:
316,231,1429,1,0,0:0:0:0:
320,234,1431,1,0,0:0:0:0:
325,237,1432,1,0,0:0:0:0:
330,239,1434,1,0,0:0:0:0:
334,242,1435,1,0,0:0:0:0:
339,245,1437,1,0,0:0:0:0:
343,248,1438,1,0,0:0:0:0:
348,251,1440,1,0,0:0:0:0:
353,253,1441,1,0,0:0:0:0:
357,256,1443,1,0,0:0:0:0:
362,259,1444,1,0,0:0:0:0:
367,261,1446,1,0,0:0:0:0:
371,264,1447,1,0,0:0:0:0:
376,266,1449,1,0,0:0:0:0:
381,269,1450,1,0,0:0:0:0:
385,271,1452,1,0,0:0:0:0:
390,274,1453,1,0,0:0:0:0:
395,276,1455,1,0,0:0:0:0:
400,279,1456,1,0,0:0:0:0:
405,281,1458,1,0,0:0:0:0:
409,283,1459,1,0,0:0:0:0:
414,285,1461,1,0,0:0:0:0:
419,287,1462,1,0,0:0:0:0:
424,289,1464,1,0,0:0:0:0:
429,291,1465,1,0,0:0:0:0:
435,292,1467,1,0,0:0:0:0:
440,293,1468,1,0,0:0:0:0:
445,294,1470,1,0,0:0:0:0:
450,295,1471,1,0,0:0:0:0:
456,295,1473,1,0,0:0:0:0:
461,293,1474,1,0,0:0:0:0:
465,289,1476,1,0,0:0:0:0:
467,285,1477,1,0,0:0:0:0:
488,360,1500,1,0,0:0:0:0:
488,24,1501,1,0,0:0:0:0:
483,27,1502,1,0,0:0:0:0:
479,353,1503,1,0,0:0:0:0:
479,30,1504,1,0,0:0:0:0:
475,33,1505,1,0,0:0:0:0:
470,347,1506,1,0,0:0:0:0:
470,36,1507,1,0,0:0:0:0:
466,40,1508,1,0,0:0:0:0:
462,340,1509,1,0,0:0:0:0:
462,43,1510,1,0,0:0:0:0:
458,46,1511,1,0,0:0:0:0:
453,334,1512,1,0,0:0:0:0:
453,49,1513,1,0,0:0:0:0:
449,52,1514,1,0,0:0:0:0:
445,327,1515,1,0,0:0:0:0:
445,56,1516,1,0,0:0:0:0:
440,59,1517,1,0,0:0:0:0:
436,321,1518,1,0,0:0:0:0:
436,62,1519,1,0,0:0:0:0:
432,65,1520,1,0,0:0:0:0:
428,315,1521,1,0,0:0:0:0:
428,68,1522,1,0,0:0:0:0:
423,72,1523,1,0,0:0:0:0:
419,308,1524,1,0,0:0:0:0:
419,75,1525,1,0,0:0:0:0:
415,78,1526,1,0,0:0:0:0:
410,302,1527,1,0,0:0:0:0:
410,81,1528,1,0,0:0:0:0:
406,84,1529,1,0,0:0:0:0:
402,295,1530,1,0,0:0:0:0:
402,88,1531,1,0,0:0:0:0:
397,91,1532,1,0,0:0:0:0:
393,289,1533,1,0,0:0:0:0:
393,94,1534,1,0,0:0:0:0:
389,97,1535,1,0,0:0:0:0:
384,283,1536,1,0,0:0:0:0:
384,100,1537,1,0,0:0:0:0:
380,103,1538,1,0,0:0:0:0:
376,276,1539,1,0,0:0:0:0:
376,107,1540,1,0,0:0:0:0:
371,110,1541,1,0,0:0:0:0:
367,270,1542,1,0,0:0:0:0:
367,113,1543,1,0,0:0:0:0:
363,116,1544,1,0,0:0:0:0:
358,264,1545,1,0,0:0:0:0:
358,119,1546,1,0,0:0:0:0:
354,122,1547,1,0,0:0:0:0:
350,258,1548,1,0,0:0:0:0:
350,125,1549,1,0,0:0:0:0:
345,129,1550,1,0,0:0:0:0:
341,251,1551,1,0,0:0:0:0:
341,132,1552,1,0,0:0:0:0:
337,135,1553,1,0,0:0:0:0:
332,245,1554,1,0,0:0:0:0:
332,138,1555,1,0,0:0:0:0:
328,141,1556,1,0,0:0:0:0:
324,239,1557,1,0,0:0:0:0:
324,144,1558,1,0,0:0:0:0:
319,147,1559,1,0,0:0:0:0:
315,233,1560,1,0,0:0:0:0:
315,150,1561,1,0,0:0:0:0:
311,153,1562,1,0,0:0:0:0:
306,227,1563,1,0,0:0:0:0:
306,156,1564,1,0,0:0:0:0:
302,160,1565,1,0,0:0:0:0:
297,220,1566,1,0,0:0:0:0:
297,163,1567,1,0,0:0:0:0:
293,166,1568,1,0,0:0:0:0:
289,214,1569,1,0,0:0:0:0:
289,169,1570,1,0,0:0:0:0:
284,172,1571,1,0,0:0:0:0:
280,208,1572,1,0,0:0:0:0:
280,175,1573,1,0,0:0:0:0:
275,178,1574,1,0,0:0:0:0:
271,202,1575,1,0,0:0:0:0:
271,181,1576,1,0,0:0:0:0:
267,184,1577,1,0,0:0:0:0:
262,196,1578,1,0,0:0:0:0:
262,187,1579,1,0,0:0:0:0:
258,190,1580,1,0,0:0:0:0:
253,190,1581,1,0,0:0:0:0:
253,193,1582,1,0,0:0:0:0:
249,196,1583,1,0,0:0:0:0:
244,184,1584,1,0,0:0:0:0:
244,199,1585,1,0,0:0:0:0:
240,202,1586,1,0,0:0:0:0:
235,178,1587,1,0,0:0:0:0:
235,205,1588,1,0,0:0:0:0:
231,208,1589,1,0,0:0:0:0:
227,172,1590,1,0,0:0:0:0:
227,211,1591,1,0,0:0:0:0:
222,214,1592,1,0,0:0:0:0:
218,166,1593,1,0,0:0:0:0:
218,217,1594,1,0,0:0:0:0:
213,219,1595,1,0,0:0:0:0:
209,161,1596,1,0,0:0:0:0:
209,222,1597,1,0,0:0:0:0:
204,225,1598,1,0,0:0:0:0:
200,155,1599,1,0,0:0:0:0:
200,228,1600,1,0,0:0:0:0:
195,231,1601,1,0,0:0:0:0:
191,149,1602,1,0,0:0:0:0:
191,234,1603,1,0,0:0:0:0:
186,237,1604,1,0,0:0:0:0:
181,144,1605,1,0,0:0:0:0:
181,239,1606,1,0,0:0:0:0:
177,242,1607,1,0,0:0:0:0:
172,138,1608,1,0,0:0:0:0:
172,245,1609,1,0,0:0:0:0:
168,248,1610,1,0,0:0:0:0:
163,132,1611,1,0,0:0:0:0:
163,251,1612,1,0,0:0:0:0:
158,253,1613,1,0,0:0:0:0:
154,127,1614,1,0,0:0:0:0:
154,256,1615,1,0,0:0:0:0:
149,259,1616,1,0,0:0:0:0:
144,122,1617,1,0,0:0:0:0:
144,261,1618,1,0,0:0:0:0:
140,264,1619,1,0,0:0:0:0:
135,117,1620,1,0,0:0:0:0:
135,266,1621,1,0,0:0:0:0:
130,269,1622,1,0,0:0:0:0:
126,112,1623,1,0,0:0:0:0:
126,271,1624,1,0,0:0:0:0:
121,274,1625,1,0,0:0:0:0:
116,107,1626,1,0,0:0:0:0:
116,276,1627,1,0,0:0:0:0:
111,279,1628,1,0,0:0:0:0:
106,102,1629,1,0,0:0:0:0:
106,281,1630,1,0,0:0:0:0:
102,283,1631,1,0,0:0:0:0:
97,98,1632,1,0,0:0:0:0:
97,285,1633,1,0,0:0:0:0:
92,287,1634,1,0,0:0:0:0:
87,94,1635,1,0,0:0:0:0:
87,289,1636,1,0,0:0:0:0:
82,291,1637,1,0,0:0:0:0:
76,91,1638,1,0,0:0:0:0:
76,292,1639,1,0,0:0:0:0:
71,293,1640,1,0,0:0:0:0:
66,89,1641,1,0,0:0:0:0:
66,294,1642,1,0,0:0:0:0:
61,295,1643,1,0,0:0:0:0:
55,88,1644,1,0,0:0:0:0:
55,295,1645,1,0,0:0:0:0:
50,293,1646,1,0,0:0:0:0:
46,94,1647,1,0,0:0:0:0:
46,289,1648,1,0,0:0:0:0:
44,285,1649,1,0,0:0:0:0:
24,360,1704,1,0,0:0:0:0:
24,24,1705,1,0,0:0:0:0:
28,27,1706,1,0,0:0:0:0:
32,353,1707,1,0,0:0:0:0:
32,30,1708,1,0,0:0:0:0:
36,33,1709,1,0,0:0:0:0:
41,347,1710,1,0,0:0:0:0:
41,36,1711,1,0,0:0:0:0:
45,40,1712,1,0,0:0:0:0:
49,340,1713,1,0,0:0:0:0:
49,43,1714,1,0,0:0:0:0:
53,46,1715,1,0,0:0:0:0:
58,334,1716,1,0,0:0:0:0:
58,49,1717,1,0,0:0:0:0:
62,52,1718,1,0,0:0:0:0:
66,327,1719,1,0,0:0:0:0:
66,56,1720,1,0,0:0:0:0:
71,59,1721,1,0,0:0:0:0:
75,321,1722,1,0,0:0:0:0:
75,62,1723,1,0,0:0:0:0:
79,65,1724,1,0,0:0:0:0:
83,315,1725,1,0,0:0:0:0:
83,68,1726,1,0,0:0:0:0:
88,72,1727,1,0,0:0:0:0:
92,308,1728,1,0,0:0:0:0:
92,75,1729,1,0,0:0:0:0:
96,78,1730,1,0,0:0:0:0:
101,302,1731,1,0,0:0:0:0:
101,81,1732,1,0,0:0:0:0:
105,84,1733,1,0,0:0:0:0:
109,295,1734,1,0,0:0:0:0:
109,88,1735,1,0,0:0:0:0:
114,91,1736,1,0,0:0:0:0:
118,289,1737,1,0,0:0:0:0:
118,94,1738,1,0,0:0:0:0:
122,97,1739,1,0,0:0:0:0:
127,283,1740,1,0,0:0:0:0:
127,100,1741,1,0,0:0:0:0:
131,103,1742,1,0,0:0:0:0:
135,276,1743,1,0,0:0:0:0:
135,107,1744,1,0,0:0:0:0:
140,110,1745,1,0,0:0:0:0:
144,270,1746,1,0,0:0:0:0:
144,113,1747,1,0,0:0:0:0:
148,116,1748,1,0,0:0:0:0:
153,264,1749,1,0,0:0:0:0:
153,119,1750,1,0,0:0:0:0:
157,122,1751,1,0,0:0:0:0:
161,258,1752,1,0,0:0:0:0:
161,125,1753,1,0,0:0:0:0:
166,129,1754,1,0,0:0:0:0:
170,251,1755,1,0,0:0:0:0:
170,132,1756,1,0,0:0:0:0:
174,135,1757,1,0,0:0:0:0:
179,245,1758,1,0,0:0:0:0:
179,138,1759,1,0,0:0:0:0:
183,141,1760,1,0,0:0:0:0:
187,239,1761,1,0,0:0:0:0:
187,144,1762,1,0,0:0:0:0:
192,147,1763,1,0,0:0:0:0:
196,233,1764,1,0,0:0:0:0:
196,150,1765,1,0,0:0:0:0:
200,153,1766,1,0,0:0:0:0:
205,227,1767,1,0,0:0:0:0:
205,156,1768,1,0,0:0:0:0:
209,160,1769,1,0,0:0:0:0:
214,220,1770,1,0,0:0:0:0:
214,163,1771,1,0,0:0:0:0:
218,166,1772,1,0,0:0:0:0:
222,214,1773,1,0,0:0:0:0:
222,169,1774,1,0,0:0:0:0:
227,172,1775,1,0,0:0:0:0:
231,208,1776,1,0,0:0:0:0:
231,175,1777,1,0,0:0:0:0:
236,178,1778,1,0,0:0:0:0:
240,202,1779,1,0,0:0:0:0:
240,181,1780,1,0,0:0:0:0:
244,184,1781,1,0,0:0:0:0:
249,196,1782,1,0,0:0:0:0:
249,187,1783,1,0,0:0:0:0:
253,190,1784,1,0,0:0:0:0:
258,190,1785,1,0,0:0:0:0:
258,193,1786,1,0,0:0:0:0:
262,196,1787,1,0,0:0:0:0:
267,184,1788,1,0,0:0:0:0:
267,199,1789,1,0,0:0:0:0:
271,202,1790,1,0,0:0:0:0:
276,178,1791,1,0,0:0:0:0:
276,205,1792,1,0,0:0:0:0:
280,208,1793,1,0,0:0:0:0:
284,172,1794,1,0,0:0:0:0:
284,211,1795,1,0,0:0:0:0:
289,214,1796,1,0,0:0:0:0:
293,166,1797,1,0,0:0:0:0:
293,217,1798,1,0,0:0:0:0:
298,219,1799,1,0,0:0:0:0:
302,161,1800,1,0,0:0:0:0:
302,222,1801,1,0,0:0:0:0:
307,225,1802,1,0,0:0:0:0:
311,155,1803,1,0,0:0:0:0:
311,228,1804,1,0,0:0:0:0:
316,231,1805,1,0,0:0:0:0:
320,149,1806,1,0,0:0:0:0:
320,234,1807,1,0,0:0:0:0:
325,237,1808,1,0,0:0:0:0:
330,144,1809,1,0,0:0:0:0:
330,239,1810,1,0,0:0:0:0:
334,242,1811,1,0,0:0:0:0:
339,138,1812,1,0,0:0:0:0:
339,245,1813,1,0,0:0:0:0:
343,248,1814,1,0,0:0:0:0:
348,132,1815,1,0,0:0:0:0:
348,251,1816,1,0,0:0:0:0:
353,253,1817,1,0,0:0:0:0:
357,127,1818,1,0,0:0:0:0:
357,256,1819,1,0,0:0:0:0:
362,259,1820,1,0,0:0:0:0:
367,122,1821,1,0,0:0:0:0:
367,261,1822,1,0,0:0:0:0:
371,264,1823,1,0,0:0:0:0:
376,117,1824,1,0,0:0:0:0:
376,266,1825,1,0,0:0:0:0:
381,269,1826,1,0,0:0:0:0:
385,112,1827,1,0,0:0:0:0:
385,271,1828,1,0,0:0:0:0:
390,274,1829,1,0,0:0:0:0:
395,107,1830,1,0,0:0:0:0:
395,276,1831,1,0,0:0:0:0:
400,279,1832,1,0,0:0:0:0:
405,102,1833,1,0,0:0:0:0:
405,281,1834,1,0,0:0:0:0:
409,283,1835,1,0,0:0:0:0:
414,98,1836,1,0,0:0:0:0:
414,285,1837,1,0,0:0:0:0:
419,287,1838,1,0,0:0:0:0:
424,94,1839,1,0,0:0:0:0:
424,289,1840,1,0,0:0:0:0:
429,291,1841,1,0,0:0:0:0:
435,91,1842,1,0,0:0:0:0:
435,292,1843,1,0,0:0:0:0:
440,293,1844,1,0,0:0:0:0:
445,89,1845,1,0,0:0:0:0:
445,294,1846,1,0,0:0:0:0:
450,295,1847,1,0,0:0:0:0:
456,88,1848,1,0,0:0:0:0:
456,295,1849,1,0,0:0:0:0:
461,293,1850,1,0,0:0:0:0:
465,94,1851,1,0,0:0:0:0:
465,289,1852,1,0,0:0:0:0:
467,285,1853,1,0,0:0:0:0:
488,360,1876,1,0,0:0:0:0:
483,356,1877,1,0,0:0:0:0:
479,353,1879,1,0,0:0:0:0:
475,350,1880,1,0,0:0:0:0:
470,347,1882,1,0,0:0:0:0:
466,343,1883,1,0,0:0:0:0:
462,340,1885,1,0,0:0:0:0:
458,337,1886,1,0,0:0:0:0:
453,334,1888,1,0,0:0:0:0:
449,331,1889,1,0,0:0:0:0:
445,327,1891,1,0,0:0:0:0:
440,324,1892,1,0,0:0:0:0:
436,321,1894,1,0,0:0:0:0:
432,318,1895,1,0,0:0:0:0:
428,315,1897,1,0,0:0:0:0:
423,311,1898,1,0,0:0:0:0:
419,308,1900,1,0,0:0:0:0:
415,305,1901,1,0,0:0:0:0:
410,302,1903,1,0,0:0:0:0:
406,299,1904,1,0,0:0:0:0:
402,295,1906,1,0,0:0:0:0:
397,292,1907,1,0,0:0:0:0:
393,289,1909,1,0,0:0:0:0:
389,286,1910,1,0,0:0:0:0:
384,283,1912,1,0,0:0:0:0:
380,280,1913,1,0,0:0:0:0:
376,276,1915,1,0,0:0:0:0:
371,273,1916,1,0,0:0:0:0:
367,270,1918,1,0,0:0:0:0:
363,267,1919,1,0,0:0:0:0:
358,264,1921,1,0,0:0:0:0:
354,261,1922,1,0,0:0:0:0:
350,258,1924,1,0,0:0:0:0:
345,254,1925,1,0,0:0:0:0:
341,251,1927,1,0,0:0:0:0:
337,248,1928,1,0,0:0:0:0:
332,245,1930,1,0,0:0:0:0:
328,242,1931,1,0,0:0:0:0:
324,239,1933,1,0,0:0:0:0:
319,236,1934,1,0,0:0:0:0:
315,233,1936,1,0,0:0:0:0:
311,230,1937,1,0,0:0:0:0:
306,227,1939,1,0,0:0:0:0:
302,223,1940,1,0,0:0:0:0:
297,220,1942,1,0,0:0:0:0:
293,217,1943,1,0,0:0:0:0:
289,214,1945,1,0,0:0:0:0:
284,211,1946,1,0,0:0:0:0:
280,208,1948,1,0,0:0:0:0:
275,205,1949,1,0,0:0:0:0:
271,202,1951,1,0,0:0:0:0:
267,199,1952,1,0,0:0:0:0:
262,196,1954,1,0,0:0:0:0:
258,193,1955,1,0,0:0:0:0:
253,190,1957,1,0,0:0:0:0:
249,187,1958,1,0,0:0:0:0:
244,184,1960,1,0,0:0:0:0:
240,181,1961,1,0,0:0:0:0:
235,178,1963,1,0,0:0:0:0:
231,175,1964,1,0,0:0:0:0:
227,172,1966,1,0,0:0:0:0:
222,169,1967,1,0,0:0:0:0:
218,166,1969,1,0,0:0:0:0:
213,164,1970,1,0,0:0:0:0:
209,161,1972,1,0,0:0:0:0:
204,158,1973,1,0,0:0:0:0:
200,155,1975,1,0,0:0:0:0:
195,152,1976,1,0,0:0:0:0:
191,149,1978,1,0,0:0:0:0:
186,146,1979,1,0,0:0:0:0:
181,144,1981,1,0,0:0:0:0:
177,141,1982,1,0,0:0:0:0:
172,138,1984,1,0,0:0:0:0:
168,135,1985,1,0,0:0:0:0:
163,132,1987,1,0,0:0:0:0:
158,130,1988,1,0,0:0:0:0:
154,127,1990,1,0,0:0:0:0:
149,124,1991,1,0,0:0:0:0:
144,122,1993,1,0,0:0:0:0:
140,119,1994,1,0,0:0:0:0:
135,117,1996,1,0,0:0:0:0:
130,114,1997,1,0,0:0:0:0:
126,112,1999,1,0,0:0:0:0:
121,109,2000,1,0,0:0:0:0:
116,107,2002,1,0,0:0:0:0:
111,104,2003,1,0,0:0:0:0:
106,102,2005,1,0,0:0:0:0:
102,100,2006,1,0,0:0:0:0:
97,98,2008,1,0,0:0:0:0:
92,96,2009,1,0,0:0:0:0:
87,94,2011,1,0,0:0:0:0:
82,92,2012,1,0,0:0:0:0:
76,91,2014,1,0,0:0:0:0:
71,90,2015,1,0,0:0:0:0:
66,89,2017,1,0,0:0:0:0:
61,88,2018,1,0,0:0:0:0:
55,88,2020,1,0,0:0:0:0:
50,90,2021,1,0,0:0:0:0:
46,94,2023,1,0,0:0:0:0:
44,98,2024,1,0,0:0:0:0:
24,360,2080,1,0,0:0:0:0:
28,356,2081,1,0,0:0:0:0:
32,353,2083,1,0,0:0:0:0:
36,350,2084,1,0,0:0:0:0:
41,347,2086,1,0,0:0:0:0:
45,343,2087,1,0,0:0:0:0:
49,340,2089,1,0,0:0:0:0:
53,337,2090,1,0,0:0:0:0:
58,334,2092,1,0,0:0:0:0:
62,331,2093,1,0,0:0:0:0:
66,327,2095,1,0,0:0:0:0:
71,324,2096,1,0,0:0:0:0:
75,321,2098,1,0,0:0:0:0:
79,318,2099,1,0,0:0:0:0:
83,315,2101,1,0,0:0:0:0:
88,311,2102,1,0,0:0:0:0:
92,308,2104,1,0,0:0:0:0:
96,305,2105,1,0,0:0:0:0:
101,302,2107,1,0,0:0:0:0:
105,299,2108,1,0,0:0:0:0:
109,295,2110,1,0,0:0:0:0:
114,292,2111,1,0,0:0:0:0:
118,289,2113,1,0,0:0:0:0:
122,286,2114,1,0,0:0:0:0:
127,283,2116,1,0,0:0:0:0:
131,280,2117,1,0,0:0:0:0:
135,276,2119,1,0,0:0:0:0:
140,273,2120,1,0,0:0:0:0:
144,270,2122,1,0,0:0:0:0:
148,267,2123,1,0,0:0:0:0:
153,264,2125,1,0,0:0:0:0:
157,261,2126,1,0,0:0:0:0:
161,258,2128,1,0,0:0:0:0:
166,254,2129,1,0,0:0:0:0:
170,251,2131,1,0,0:0:0:0:
174,248,2132,1,0,0:0:0:0:
179,245,2134,1,0,0:0:0:0:
183,242,2135,1,0,0:0:0:0:
187,239,2137,1,0,0:0:0:0:
192,236,2138,1,0,0:0:0:0:
196,233,2140,1,0,0:0:0:0:
200,230,2141,1,0,0:0:0:0:
205,227,2143,1,0,0:0:0:0:
209,223,2144,1,0,0:0:0:0:
214,220,2146,1,0,0:0:0:0:
218,217,2147,1,0,0:0:0:0:
222,214,2149,1,0,0:0:0:0:
227,211,2150,1,0,0:0:0:0:
231,208,2152,1,0,0:0:0:0:
236,205,2153,1,0,0:0:0:0:
240,202,2155,1,0,0:0:0:0:
244,199,2156,1,0,0:0:0:0:
249,196,2158,1,0,0:0:0:0:
253,193,2159,1,0,0:0:0:0:
258,190,2161,1,0,0:0:0:0:
262,187,2162,1,0,0:0:0:0:
267,184,2164,1,0,0:0:0:0:
271,181,2165,1,0,0:0:0:0:
276,178,2167,1,0,0:0:0:0:
280,175,2168,1,0,0:0:0:0:
284,172,2170,1,0,0:0:0:0:
289,169,2171,1,0,0:0:0:0:
293,166,2173,1,0,0:0:0:0:
298,164,2174,1,0,0:0:0:0:
302,161,2176,1,0,0:0:0:0:
307,158,2177,1,0,0:0:0:0:
311,155,2179,1,0,0:0:0:0:
316,152,2180,1,0,0:0:0:0:
320,149,2182,1,0,0:0:0:0:
325,146,2183,1,0,0:0:0:0:
330,144,2185,1,0,0:0:0:0:
334,141,2186,1,0,0:0:0:0:
339,138,2188,1,0,0:0:0:0:
343,135,2189,1,0,0:0:0:0:
348,132,2191,1,0,0:0:0:0:
353,130,2192,1,0,0:0:0:0:
357,127,2194,1,0,0:0:0:0:
362,124,2195,1,0,0:0:0:0:
367,122,2197,1,0,0:0:0:0:
371,119,2198,1,0,0:0:0:0:
376,117,2200,1,0,0:0:0:0:
381,114,2201,1,0,0:0:0:0:
385,112,2203,1,0,0:0:0:0:
390,109,2204,1,0,0:0:0:0:
395,107,2206,1,0,0:0:0:0:
400,104,2207,1,0,0:0:0:0:
405,102,2209,1,0,0:0:0:0:
409,100,2210,1,0,0:0:0:0:
414,98,2212,1,0,0:0:0:0:
419,96,2213,1,0,0:0:0:0:
424,94,2215,1,0,0:0:0:0:
429,92,2216,1,0,0:0:0:0:
435,91,2218,1,0,0:0:0:0:
440,90,2219,1,0,0:0:0:0:
445,89,2221,1,0,0:0:0:0:
450,88,2222,1,0,0:0:0:0:
456,88,2224,1,0,0:0:0:0:
461,90,2225,1,0,0:0:0:0:
465,94,2227,1,0,0:0:0:0:
467,98,2228,1,0,0:0:0:0:
488,24,2326,1,0,0:0:0:0:
483,27,2327,1,0,0:0:0:0:
479,30,2329,1,0,0:0:0:0:
475,33,2330,1,0,0:0:0:0:
470,36,2332,1,0,0:0:0:0:
466,40,2333,1,0,0:0:0:0:
462,43,2335,1,0,0:0:0:0:
458,46,2336,1,0,0:0:0:0:
453,49,2338,1,0,0:0:0:0:
449,52,2339,1,0,0:0:0:0:
445,56,2341,1,0,0:0:0:0:
440,59,2342,1,0,0:0:0:0:
436,62,2344,1,0,0:0:0:0:
432,65,2345,1,0,0:0:0:0:
428,68,2347,1,0,0:0:0:0:
423,72,2348,1,0,0:0:0:0:
419,75,2350,1,0,0:0:0:0:
415,78,2351,1,0,0:0:0:0:
410,81,2353,1,0,0:0:0:0:
406,84,2354,1,0,0:0:0:0:
402,88,2356,1,0,0:0:0:0:
397,91,2357,1,0,0:0:0:0:
393,94,2359,1,0,0:0:0:0:
389,97,2360,1,0,0:0:0:0:
384,100,2362,1,0,0:0:0:0:
380,103,2363,1,0,0:0:0:0:
376,107,2365,1,0,0:0:0:0:
371,110,2366,1,0,0:0:0:0:
367,113,2368,1,0,0:0:0:0:
363,116,2369,1,0,0:0:0:0:
358,119,2371,1,0,0:0:0:0:
354,122,2372,1,0,0:0:0:0:
350,125,2374,1,0,0:0:0:0:
345,129,2375,1,0,0:0:0:0:
341,132,2377,1,0,0:0:0:0:
337,135,2378,1,0,0:0:0:0:
332,138,2380,1,0,0:0:0:0:
328,141,2381,1,0,0:0:0:0:
324,144,2383,1,0,0:0:0:0:
319,147,2384,1,0,0:0:0:0:
315,150,2386,1,0,0:0:0:0:
311,153,2387,1,0,0:0:0:0:
306,156,2389,1,0,0:0:0:0:
302,160,2390,1,0,0:0:0:0:
297,163,2392,1,0,0:0:0:0:
293,166,2393,1,0,0:0:0:0:
289,169,2395,1,0,0:0:0:0:
284,172,2396,1,0,0:0:0:0:
280,175,2398,1,0,0:0:0:0:
275,178,2399,1,0,0:0:0:0:
271,181,2401,1,0,0:0:0:0:
267,184,2402,1,0,0:0:0:0:
262,187,2404,1,0,0:0:0:0:
258,190,2405,1,0,0:0:0:0:
253,193,2407,1,0,0:0:0:0:
249,196,2408,1,0,0:0:0:0:
244,199,2410,1,0,0:0:0:0:
240,202,2411,1,0,0:0:0:0:
235,205,2413,1,0,0:0:0:0:
231,208,2414,1,0,0:0:0:0:
227,211,2416,1,0,0:0:0:0:
222,214,2417,1,0,0:0:0:0:
218,217,2419,1,0,0:0:0:0:
213,219,2420,1,0,0:0:0:0:
209,222,2422,1,0,0:0:0:0:
204,225,2423,1,0,0:0:0:0:
200,228,2425,1,0,0:0:0:0:
195,231,2426,1,0,0:0:0:0:
191,234,2428,1,0,0:0:0:0:
186,237,2429,1,0,0:0:0:0:
181,239,2431,1,0,0:0:0:0:
177,242,2432,1,0,0:0:0:0:
172,245,2434,1,0,0:0:0:0:
168,248,2435,1,0,0:0:0:0:
163,251,2437,1,0,0:0:0:0:
158,253,2438,1,0,0:0:0:0:
154,256,2440,1,0,0:0:0:0:
149,259,2441,1,0,0:0:0:0:
144,261,2443,1,0,0:0:0:0:
140,264,2444,1,0,0:0:0:0:
135,266,2446,1,0,0:0:0:0:
130,269,2447,1,0,0:0:0:0:
126,271,2449,1,0,0:0:0:0:
121,274,2450,1,0,0:0:0:0:
116,276,2452,1,0,0:0:0:0:
111,279,2453,1,0,0:0:0:0:
106,281,2455,1,0,0:0:0:0:
102,283,2456,1,0,0:0:0:0:
97,285,2458,1,0,0:0:0:0:
92,287,2459,1,0,0:0:0:0:
87,289,2461,1,0,0:0:0:0:
82,291,2462,1,0,0:0:0:0:
76,292,2464,1,0,0:0:0:0:
71,293,2465,1,0,0:0:0:0:
66,294,2467,1,0,0:0:0:0:
61,295,2468,1,0,0:0:0:0:
55,295,2470,1,0,0:0:0:0:
50,293,2471,1,0,0:0:0:0:
46,289,2473,1,0,0:0:0:0:
44,285,2474,1,0,0:0:0:0:
24,24,2530,1,0,0:0:0:0:
28,27,2531,1,0,0:0:0:0:
32,30,2533,1,0,0:0:0:0:
36,33,2534,1,0,0:0:0:0:
41,36,2536,1,0,0:0:0:0:
45,40,2537,1,0,0:0:0:0:
49,43,2539,1,0,0:0:0:0:
53,46,2540,1,0,0:0:0:0:
58,49,2542,1,0,0:0:0:0:
62,52,2543,1,0,0:0:0:0:
66,56,2545,1,0,0:0:0:0:
71,59,2546,1,0,0:0:0:0:
75,62,2548,1,0,0:0:0:0:
79,65,2549,1,0,0:0:0:0:
83,68,2551,1,0,0:0:0:0:
88,72,2552,1,0,0:0:0:0:
92,75,2554,1,0,0:0:0:0:
96,78,2555,1,0,0:0:0:0:
101,81,2557,1,0,0:0:0:0:
105,84,2558,1,0,0:0:0:0:
109,88,2560,1,0,0:0:0:0:
114,91,2561,1,0,0:0:0:0:
118,94,2563,1,0,0:0:0:0:
122,97,2564,1,0,0:0:0:0:
127,100,2566,1,0,0:0:0:0:
131,103,2567,1,0,0:0:0:0:
135,107,2569,1,0,0:0:0:0:
140,110,2570,1,0,0:0:0:0:
144,113,2572,1,0,0:0:0:0:
148,116,2573,1,0,0:0:0:0:
153,119,2575,1,0,0:0:0:0:
157,122,2576,1,0,0:0:0:0:
161,125,2578,1,0,0:0:0:0:
166,129,2579,1,0,0:0:0:0:
170,132,2581,1,0,0:0:0:0:
174,135,2582,1,0,0:0:0:0:
179,138,2584,1,0,0:0:0:0:
183,141,2585,1,0,0:0:0:0:
187,144,2587,1,0,0:0:0:0:
192,147,2588,1,0,0:0:0:0:
196,150,2590,1,0,0:0:0:0:
200,153,2591,1,0,0:0:0:0:
205,156,2593,1,0,0:0:0:0:
209,160,2594,1,0,0:0:0:0:
214,163,2596,1,0,0:0:0:0:
218,166,2597,1,0,0:0:0:0:
222,169,2599,1,0,0:0:0:0:
227,172,2600,1,0,0:0:0:0:
231,175,2602,1,0,0:0:0:0:
236,178,2603,1,0,0:0:0:0:
240,181,2605,1,0,0:0:0:0:
244,184,2606,1,0,0:0:0:0:
249,187,2608,1,0,0:0:0:0:
253,190,2609,1,0,0:0:0:0:
258,193,2611,1,0,0:0:0:0:
262,196,2612,1,0,0:0:0:0:
267,199,2614,1,0,0:0:0:0:
271,202,2615,1,0,0:0:0:0:
276,205,2617,1,0,0:0:0:0:
280,208,2618,1,0,0:0:0:0:
284,211,2620,1,0,0:0:0:0:
289,214,2621,1,0,0:0:0:0:
293,217,2623,1,0,0:0:0:0:
298,219,2624,1,0,0:0:0:0:
302,222,2626,1,0,0:0:0:0:
307,225,2627,1,0,0:0:0:0:
311,228,2629,1,0,0:0:0:0:
316,231,2630,1,0,0:0:0:0:
320,234,2632,1,0,0:0:0:0:
325,237,2633,1,0,0:0:0:0:
330,239,2635,1,0,0:0:0:0:
334,242,2636,1,0,0:0:0:0:
339,245,2638,1,0,0:0:0:0:
343,248,2639,1,0,0:0:0:0:
348,251,2641,1,0,0:0:0:0:
353,253,2642,1,0,0:0:0:0:
357,256,2644,1,0,0:0:0:0:
362,259,2645,1,0,0:0:0:0:
367,261,2647,1,0,0:0:0:0:
371,264,2648,1,0,0:0:0:0:
376,266,2650,1,0,0:0:0:0:
381,269,2651,1,0,0:0:0:0:
385,271,2653,1,0,0:0:0:0:
390,274,2654,1,0,0:0:0:0:
395,276,2656,1,0,0:0:0:0:
400,279,2657,1,0,0:0:0:0:
405,281,2659,1,0,0:0:0:0:
409,283,2660,1,0,0:0:0:0:
414,285,2662,1,0,0:0:0:0:
419,287,2663,1,0,0:0:0:0:
424,289,2665,1,0,0:0:0:0:
429,291,2666,1,0,0:0:0:0:
435,292,2668,1,0,0:0:0:0:
440,293,2669,1,0,0:0:0:0:
445,294,2671,1,0,0:0:0:0:
450,295,2672,1,0,0:0:0:0:
456,295,2674,1,0,0:0:0:0:
461,293,2675,1,0,0:0:0:0:
465,289,2677,1,0,0:0:0:0:
467,285,2678,1,0,0:0:0:0:
488,360,2701,1,0,0:0:0:0:
483,356,2702,1,0,0:0:0:0:
479,353,2704,1,0,0:0:0:0:
475,350,2705,1,0,0:0:0:0:
470,347,2707,1,0,0:0:0:0:
466,343,2708,1,0,0:0:0:0:
462,340,2710,1,0,0:0:0:0:
458,337,2711,1,0,0:0:0:0:
453,334,2713,1,0,0:0:0:0:
449,331,2714,1,0,0:0:0:0:
445,327,2716,1,0,0:0:0:0:
440,324,2717,1,0,0:0:0:0:
436,321,2719,1,0,0:0:0:0:
432,318,2720,1,0,0:0:0:0:
428,315,2722,1,0,0:0:0:0:
423,311,2723,1,0,0:0:0:0:
419,308,2725,1,0,0:0:0:0:
415,305,2726,1,0,0:0:0:0:
410,302,2728,1,0,0:0:0:0:
406,299,2729,1,0,0:0:0:0:
402,295,2731,1,0,0:0:0:0:
397,292,2732,1,0,0:0:0:0:
393,289,2734,1,0,0:0:0:0:
389,286,2735,1,0,0:0:0:0:
384,283,2737,1,0,0:0:0:0:
380,280,2738,1,0,0:0:0:0:
376,276,2740,1,0,0:0:0:0:
371,273,2741,1,0,0:0:0:0:
367,270,2743,1,0,0:0:0:0:
363,267,2744,1,0,0:0:0:0:
358,264,2746,1,0,0:0:0:0:
354,261,2747,1,0,0:0:0:0:
350,258,2749,1,0,0:0:0:0:
345,254,2750,1,0,0:0:0:0:
341,251,2752,1,0,0:0:0:0:
337,248,2753,1,0,0:0:0:0:
332,245,2755,1,0,0:0:0:0:
328,242,2756,1,0,0:0:0:0:
324,239,2758,1,0,0:0:0:0:
319,236,2759,1,0,0:0:0:0:
315,233,2761,1,0,0:0:0:0:
311,230,2762,1,0,0:0:0:0:
306,227,2764,1,0,0:0:0:0:
302,223,2765,1,0,0:0:0:0:
297,220,2767,1,0,0:0:0:0:
293,217,2768,1,0,0:0:0:0:
289,214,2770,1,0,0:0:0:0:
284,211,2771,1,0,0:0:0:0:
280,208,2773,1,0,0:0:0:0:
275,205,2774,1,0,0:0:0:0:
271,202,2776,1,0,0:0:0:0:
267,199,2777,1,0,0:0:0:0:
262,196,2779,1,0,0:0:0:0:
258,193,2780,1,0,0:0:0:0:
253,190,2782,1,0,0:0:0:0:
249,187,2783,1,0,0:0:0:0:
244,184,2785,1,0,0:0:0:0:
240,181,2786,1,0,0:0:0:0:
235,178,2788,1,0,0:0:0:0:
231,175,2789,1,0,0:0:0:0:
227,172,2791,1,0,0:0:0:0:
222,169,2792,1,0,0:0:0:0:
218,166,2794,1,0,0:0:0:0:
213,164,2795,1,0,0:0:0:0:
209,161,2797,1,0,0:0:0:0:
204,158,2798,1,0,0:0:0:0:
200,155,2800,1,0,0:0:0:0:
195,152,2801,1,0,0:0:0:0:
191,149,2803,1,0,0:0:0:0:
186,146,2804,1,0,0:0:0:0:
181,144,2806,1,0,0:0:0:0:
177,141,2807,1,0,0:0:0:0:
172,138,2809,1,0,0:0:0:0:
168,135,2810,1,0,0:0:0:0:
163,132,2812,1,0,0:0:0:0:
158,130,2813,1,0,0:0:0:0:
154,127,2815,1,0,0:0:0:0:
149,124,2816,1,0,0:0:0:0:
144,122,2818,1,0,0:0:0:0:
140,119,2819,1,0,0:0:0:0:
135,117,2821,1,0,0:0:0:0:
130,114,2822,1,0,0:0:0:0:
126,112,2824,1,0,0:0:0:0:
121,109,2825,1,0,0:0:0:0:
116,107,2827,1,0,0:0:0:0:
111,104,2828,1,0,0:0:0:0:
106,102,2830,1,0,0:0:0:0:
102,100,2831,1,0,0:0:0:0:
97,98,2833,1,0,0:0:0:0:
92,96,2834,1,0,0:0:0:0:
87,94,2836,1,0,0:0:0:0:
82,92,2837,1,0,0:0:0:0:
76,91,2839,1,0,0:0:0:0:
71,90,2840,1,0,0:0:0:0:
66,89,2842,1,0,0:0:0:0:
61,88,2843,1,0,0:0:0:0:
55,88,2845,1,0,0:0:0:0:
50,90,2846,1,0,0:0:0:0:
46,94,2848,1,0,0:0:0:0:
44,98,2849,1,0,0:0:0:0:
24,360,2905,1,0,0:0:0:0:
28,356,2906,1,0,0:0:0:0:
32,353,2908,1,0,0:0:0:0:
36,350,2909,1,0,0:0:0:0:
41,347,2911,1,0,0:0:0:0:
45,343,2912,1,0,0:0:0:0:
49,340,2914,1,0,0:0:0:0:
53,337,2915,1,0,0:0:0:0:
58,334,2917,1,0,0:0:0:0:
62,331,2918,1,0,0:0:0:0:
66,327,2920,1,0,0:0:0:0:
71,324,2921,1,0,0:0:0:0:
75,321,2923,1,0,0:0:0:0:
79,318,2924,1,0,0:0:0:0:
83,315,2926,1,0,0:0:0:0:
88,311,2927,1,0,0:0:0:0:
92,308,2929,1,0,0:0:0:0:
96,305,2930,1,0,0:0:0:0:
101,302,2932,1,0,0:0:0:0:
105,299,2933,1,0,0:0:0:0:
109,295,2935,1,0,0:0:0:0:
114,292,2936,1,0,0:0:0:0:
488,24,2937,1,0,0:0:0:0:
483,27,2938,1,0,0:0:0:0:
122,286,2939,1,0,0:0:0:0:
479,30,2940,1,0,0:0:0:0:
475,33,2941,1,0,0:0:0:0:
131,280,2942,1,0,0:0:0:0:
470,36,2943,1,0,0:0:0:0:
466,40,2944,1,0,0:0:0:0:
140,273,2945,1,0,0:0:0:0:
462,43,2946,1,0,0:0:0:0:
458,46,2947,1,0,0:0:0:0:
148,267,2948,1,0,0:0:0:0:
453,49,2949,1,0,0:0:0:0:
449,52,2950,1,0,0:0:0:0:
157,261,2951,1,0,0:0:0:0:
445,56,2952,1,0,0:0:0:0:
440,59,2953,1,0,0:0:0:0:
166,254,2954,1,0,0:0:0:0:
436,62,2955,1,0,0:0:0:0:
432,65,2956,1,0,0:0:0:0:
174,248,2957,1,0,0:0:0:0:
428,68,2958,1,0,0:0:0:0:
423,72,2959,1,0,0:0:0:0:
183,242,2960,1,0,0:0:0:0:
419,75,2961,1,0,0:0:0:0:
415,78,2962,1,0,0:0:0:0:
192,236,2963,1,0,0:0:0:0:
410,81,2964,1,0,0:0:0:0:
406,84,2965,1,0,0:0:0:0:
200,230,2966,1,0,0:0:0:0:
402,88,2967,1,0,0:0:0:0:
397,91,2968,1,0,0:0:0:0:
209,223,2969,1,0,0:0:0:0:
393,94,2970,1,0,0:0:0:0:
389,97,2971,1,0,0:0:0:0:
218,217,2972,1,0,0:0:0:0:
384,100,2973,1,0,0:0:0:0:
380,103,2974,1,0,0:0:0:0:
227,211,2975,1,0,0:0:0:0:
376,107,2976,1,0,0:0:0:0:
371,110,2977,1,0,0:0:0:0:
236,205,2978,1,0,0:0:0:0:
367,113,2979,1,0,0:0:0:0:
363,116,2980,1,0,0:0:0:0:
244,199,2981,1,0,0:0:0:0:
358,119,2982,1,0,0:0:0:0:
354,122,2983,1,0,0:0:0:0:
253,193,2984,1,0,0:0:0:0:
350,125,2985,1,0,0:0:0:0:
345,129,2986,1,0,0:0:0:0:
262,187,2987,1,0,0:0:0:0:
341,132,2988,1,0,0:0:0:0:
337,135,2989,1,0,0:0:0:0:
271,181,2990,1,0,0:0:0:0:
332,138,2991,1,0,0:0:0:0:
328,141,2992,1,0,0:0:0:0:
280,175,2993,1,0,0:0:0:0:
324,144,2994,1,0,0:0:0:0:
319,147,2995,1,0,0:0:0:0:
289,169,2996,1,0,0:0:0:0:
315,150,2997,1,0,0:0:0:0:
311,153,2998,1,0,0:0:0:0:
298,164,2999,1,0,0:0:0:0:
306,156,3000,1,0,0:0:0:0:
302,160,3001,1,0,0:0:0:0:
307,158,3002,1,0,0:0:0:0:
297,163,3003,1,0,0:0:0:0:
293,166,3004,1,0,0:0:0:0:
316,152,3005,1,0,0:0:0:0:
289,169,3006,1,0,0:0:0:0:
284,172,3007,1,0,0:0:0:0:
325,146,3008,1,0,0:0:0:0:
280,175,3009,1,0,0:0:0:0:
275,178,3010,1,0,0:0:0:0:
334,141,3011,1,0,0:0:0:0:
271,181,3012,1,0,0:0:0:0:
267,184,3013,1,0,0:0:0:0:
343,135,3014,1,0,0:0:0:0:
262,187,3015,1,0,0:0:0:0:
258,190,3016,1,0,0:0:0:0:
353,130,3017,1,0,0:0:0:0:
253,193,3018,1,0,0:0:0:0:
249,196,3019,1,0,0:0:0:0:
362,124,3020,1,0,0:0:0:0:
244,199,3021,1,0,0:0:0:0:
240,202,3022,1,0,0:0:0:0:
371,119,3023,1,0,0:0:0:0:
235,205,3024,1,0,0:0:0:0:
231,208,3025,1,0,0:0:0:0:
381,114,3026,1,0,0:0:0:0:
227,211,3027,1,0,0:0:0:0:
222,214,3028,1,0,0:0:0:0:
390,109,3029,1,0,0:0:0:0:
218,217,3030,1,0,0:0:0:0:
213,219,3031,1,0,0:0:0:0:
400,104,3032,1,0,0:0:0:0:
209,222,3033,1,0,0:0:0:0:
204,225,3034,1,0,0:0:0:0:
409,100,3035,1,0,0:0:0:0:
200,228,3036,1,0,0:0:0:0:
195,231,3037,1,0,0:0:0:0:
419,96,3038,1,0,0:0:0:0:
191,234,3039,1,0,0:0:0:0:
186,237,3040,1,0,0:0:0:0:
429,92,3041,1,0,0:0:0:0:
181,239,3042,1,0,0:0:0:0:
177,242,3043,1,0,0:0:0:0:
440,90,3044,1,0,0:0:0:0:
172,245,3045,1,0,0:0:0:0:
168,248,3046,1,0,0:0:0:0:
450,88,3047,1,0,0:0:0:0:
163,251,3048,1,0,0:0:0:0:
158,253,3049,1,0,0:0:0:0:
461,90,3050,1,0,0:0:0:0:
154,256,3051,1,0,0:0:0:0:
149,259,3052,1,0,0:0:0:0:
467,98,3053,1,0,0:0:0:0:
144,261,3054,1,0,0:0:0:0:
140,264,3055,1,0,0:0:0:0:
135,266,3057,1,0,0:0:0:0:
130,269,3058,1,0,0:0:0:0:
126,271,3060,1,0,0:0:0:0:
121,274,3061,1,0,0:0:0:0:
116,276,3063,1,0,0:0:0:0:
111,279,3064,1,0,0:0:0:0:
106,281,3066,1,0,0:0:0:0:
102,283,3067,1,0,0:0:0:0:
97,285,3069,1,0,0:0:0:0:
92,287,3070,1,0,0:0:0:0:
87,289,3072,1,0,0:0:0:0:
82,291,3073,1,0,0:0:0:0:
76,292,3075,1,0,0:0:0:0:
71,293,3076,1,0,0:0:0:0:
66,294,3078,1,0,0:0:0:0:
61,295,3079,1,0,0:0:0:0:
55,295,3081,1,0,0:0:0:0:
50,293,3082,1,0,0:0:0:0:
46,289,3084,1,0,0:0:0:0:
44,285,3085,1,0,0:0:0:0:
24,24,3141,1,0,0:0:0:0:
28,27,3142,1,0,0:0:0:0:
32,30,3144,1,0,0:0:0:0:
36,33,3145,1,0,0:0:0:0:
41,36,3147,1,0,0:0:0:0:
45,40,3148,1,0,0:0:0:0:
49,43,3150,1,0,0:0:0:0:
53,46,3151,1,0,0:0:0:0:
58,49,3153,1,0,0:0:0:0:
62,52,3154,1,0,0:0:0:0:
66,56,3156,1,0,0:0:0:0:
71,59,3157,1,0,0:0:0:0:
75,62,3159,1,0,0:0:0:0:
79,65,3160,1,0,0:0:0:0:
83,68,3162,1,0,0:0:0:0:
88,72,3163,1,0,0:0:0:0:
92,75,3165,1,0,0:0:0:0:
96,78,3166,1,0,0:0:0:0:
101,81,3168,1,0,0:0:0:0:
105,84,3169,1,0,0:0:0:0:
109,88,3171,1,0,0:0:0:0:
114,91,3172,1,0,0:0:0:0:
118,94,3174,1,0,0:0:0:0:
122,97,3175,1,0,0:0:0:0:
127,100,3177,1,0,0:0:0:0:
131,103,3178,1,0,0:0:0:0:
135,107,3180,1,0,0:0:0:0:
140,110,3181,1,0,0:0:0:0:
144,113,3183,1,0,0:0:0:0:
148,116,3184,1,0,0:0:0:0:
153,119,3186,1,0,0:0:0:0:
157,122,3187,1,0,0:0:0:0:
161,125,3189,1,0,0:0:0:0:
166,129,3190,1,0,0:0:0:0:
170,132,3192,1,0,0:0:0:0:
174,135,3193,1,0,0:0:0:0:
179,138,3195,1,0,0:0:0:0:
183,141,3196,1,0,0:0:0:0:
187,144,3198,1,0,0:0:0:0:
192,147,3199,1,0,0:0:0:0:
196,150,3201,1,0,0:0:0:0:
200,153,3202,1,0,0:0:0:0:
205,156,3204,1,0,0:0:0:0:
209,160,3205,1,0,0:0:0:0:
214,163,3207,1,0,0:0:0:0:
218,166,3208,1,0,0:0:0:0:
222,169,3210,1,0,0:0:0:0:
227,172,3211,1,0,0:0:0:0:
231,175,3213,1,0,0:0:0:0:
236,178,3214,1,0,0:0:0:0:
240,181,3216,1,0,0:0:0:0:
244,184,3217,1,0,0:0:0:0:
249,187,3219,1,0,0:0:0:0:
253,190,3220,1,0,0:0:0:0:
258,193,3222,1,0,0:0:0:0:
262,196,3223,1,0,0:0:0:0:
267,199,3225,1,0,0:0:0:0:
271,202,3226,1,0,0:0:0:0:
276,205,3228,1,0,0:0:0:0:
280,208,3229,1,0,0:0:0:0:
284,211,3231,1,0,0:0:0:0:
289,214,3232,1,0,0:0:0:0:
293,217,3234,1,0,0:0:0:0:
298,219,3235,1,0,0:0:0:0:
302,222,3237,1,0,0:0:0:0:
307,225,3238,1,0,0:0:0:0:
311,228,3240,1,0,0:0:0:0:
316,231,3241,1,0,0:0:0:0:
320,234,3243,1,0,0:0:0:0:
325,237,3244,1,0,0:0:0:0:
330,239,3246,1,0,0:0:0:0:
334,242,3247,1,0,0:0:0:0:
339,245,3249,1,0,0:0:0:0:
343,248,3250,1,0,0:0:0:0:
348,251,3252,1,0,0:0:0:0:
353,253,3253,1,0,0:0:0:0:
357,256,3255,1,0,0:0:0:0:
362,259,3256,1,0,0:0:0:0:
367,261,3258,1,0,0:0:0:0:
371,264,3259,1,0,0:0:0:0:
376,266,3261,1,0,0:0:0:0:
381,269,3262,1,0,0:0:0:0:
385,271,3264,1,0,0:0:0:0:
390,274,3265,1,0,0:0:0:0:
395,276,3267,1,0,0:0:0:0:
400,279,3268,1,0,0:0:0:0:
405,281,3270,1,0,0:0:0:0:
409,283,3271,1,0,0:0:0:0:
414,285,3273,1,0,0:0:0:0:
419,287,3274,1,0,0:0:0:0:
424,289,3276,1,0,0:0:0:0:
429,291,3277,1,0,0:0:0:0:
435,292,3279,1,0,0:0:0:0:
440,293,3280,1,0,0:0:0:0:
445,294,3282,1,0,0:0:0:0:
450,295,3283,1,0,0:0:0:0:
456,295,3285,1,0,0:0:0:0:
461,293,3286,1,0,0:0:0:0:
465,289,3288,1,0,0:0:0:0:
467,285,3289,1,0,0:0:0:0:
488,360,3312,1,0,0:0:0:0:
483,356,3313,1,0,0:0:0:0:
479,353,3315,1,0,0:0:0:0:
475,350,3316,1,0,0:0:0:0:
470,347,3318,1,0,0:0:0:0:
466,343,3319,1,0,0:0:0:0:
462,340,3321,1,0,0:0:0:0:
458,337,3322,1,0,0:0:0:0:
453,334,3324,1,0,0:0:0:0:
449,331,3325,1,0,0:0:0:0:
445,327,3327,1,0,0:0:0:0:
440,324,3328,1,0,0:0:0:0:
436,321,3330,1,0,0:0:0:0:
432,318,3331,1,0,0:0:0:0:
428,315,3333,1,0,0:0:0:0:
423,311,3334,1,0,0:0:0:0:
419,308,3336,1,0,0:0:0:0:
415,305,3337,1,0,0:0:0:0:
410,302,3339,1,0,0:0:0:0:
406,299,3340,1,0,0:0:0:0:
402,295,3342,1,0,0:0:0:0:
397,292,3343,1,0,0:0:0:0:
393,289,3345,1,0,0:0:0:0:
389,286,3346,1,0,0:0:0:0:
384,283,3348,1,0,0:0:0:0:
380,280,3349,1,0,0:0:0:0:
376,276,3351,1,0,0:0:0:0:
371,273,3352,1,0,0:0:0:0:
367,270,3354,1,0,0:0:0:0:
363,267,3355,1,0,0:0:0:0:
358,264,3357,1,0,0:0:0:0:
354,261,3358,1,0,0:0:0:0:
350,258,3360,1,0,0:0:0:0:
345,254,3361,1,0,0:0:0:0:
341,251,3363,1,0,0:0:0:0:
337,248,3364,1,0,0:0:0:0:
332,245,3366,1,0,0:0:0:0:
328,242,3367,1,0,0:0:0:0:
324,239,3369,1,0,0:0:0:0:
319,236,3370,1,0,0:0:0:0:
315,233,3372,1,0,0:0:0:0:
311,230,3373,1,0,0:0:0:0:
306,227,3375,1,0,0:0:0:0:
302,223,3376,1,0,0:0:0:0:
297,220,3378,1,0,0:0:0:0:
293,217,3379,1,0,0:0:0:0:
289,214,3381,1,0,0:0:0:0:
284,211,3382,1,0,0:0:0:0:
280,208,3384,1,0,0:0:0:0:
275,205,3385,1,0,0:0:0:0:
271,202,3387,1,0,0:0:0:0:
267,199,3388,1,0,0:0:0:0:
262,196,3390,1,0,0:0:0:0:
258,193,3391,1,0,0:0:0:0:
253,190,3393,1,0,0:0:0:0:
249,187,3394,1,0,0:0:0:0:
244,184,3396,1,0,0:0:0:0:
240,181,3397,1,0,0:0:0:0:
235,178,3399,1,0,0:0:0:0:
231,175,3400,1,0,0:0:0:0:
227,172,3402,1,0,0:0:0:0:
222,169,3403,1,0,0:0:0:0:
218,166,3405,1,0,0:0:0:0:
213,164,3406,1,0,0:0:0:0:
209,161,3408,1,0,0:0:0:0:
204,158,3409,1,0,0:0:0:0:
200,155,3411,1,0,0:0:0:0:
195,152,3412,1,0,0:0:0:0:
191,149,3414,1,0,0:0:0:0:
186,146,3415,1,0,0:0:0:0:
181,144,3417,1,0,0:0:0:0:
177,141,3418,1,0,0:0:0:0:
172,138,3420,1,0,0:0:0:0:
168,135,3421,1,0,0:0:0:0:
163,132,3423,1,0,0:0:0:0:
158,130,3424,1,0,0:0:0:0:
154,127,3426,1,0,0:0:0:0:
149,124,3427,1,0,0:0:0:0:
144,122,3429,1,0,0:0:0:0:
140,119,3430,1,0,0:0:0:0:
135,117,3432,1,0,0:0:0:0:
130,114,3433,1,0,0:0:0:0:
126,112,3435,1,0,0:0:0:0:
121,109,3436,1,0,0:0:0:0:
116,107,3438,1,0,0:0:0:0:
111,104,3439,1,0,0:0:0:0:
106,102,3441,1,0,0:0:0:0:
102,100,3442,1,0,0:0:0:0:
97,98,3444,1,0,0:0:0:0:
92,96,3445,1,0,0:0:0:0:
87,94,3447,1,0,0:0:0:0:
82,92,3448,1,0,0:0:0:0:
76,91,3450,1,0,0:0:0:0:
71,90,3451,1,0,0:0:0:0:
66,89,3453,1,0,0:0:0:0:
61,88,3454,1,0,0:0:0:0:
55,88,3456,1,0,0:0:0:0:
50,90,3457,1,0,0:0:0:0:
46,94,3459,1,0,0:0:0:0:
44,98,3460,1,0,0:0:0:0:
24,360,3516,1,0,0:0:0:0:
28,356,3517,1,0,0:0:0:0:
32,353,3519,1,0,0:0:0:0:
36,350,3520,1,0,0:0:0:0:
41,347,3522,1,0,0:0:0:0:
45,343,3523,1,0,0:0:0:0:
49,340,3525,1,0,0:0:0:0:
53,337,3526,1,0,0:0:0:0:
58,334,3528,1,0,0:0:0:0:
62,331,3529,1,0,0:0:0:0:
66,327,3531,1,0,0:0:0:0:
71,324,3532,1,0,0:0:0:0:
75,321,3534,1,0,0:0:0:0:
79,318,3535,1,0,0:0:0:0:
83,315,3537,1,0,0:0:0:0:
88,311,3538,1,0,0:0:0:0:
92,308,3540,1,0,0:0:0:0:
96,305,3541,1,0,0:0:0:0:
101,302,3543,1,0,0:0:0:0:
105,299,3544,1,0,0:0:0:0:
109,295,3546,1,0,0:0:0:0:
114,292,3547,1,0,0:0:0:0:
118,289,3549,1,0,0:0:0:0:
122,286,3550,1,0,0:0:0:0:
127,283,3552,1,0,0:0:0:0:
131,280,3553,1,0,0:0:0:0:
135,276,3555,1,0,0:0:0:0:
140,273,3556,1,0,0:0:0:0:
144,270,3558,1,0,0:0:0:0:
148,267,3559,1,0,0:0:0:0:
153,264,3561,1,0,0:0:0:0:
157,261,3562,1,0,0:0:0:0:
161,258,3564,1,0,0:0:0:0:
166,254,3565,1,0,0:0:0:0:
170,251,3567,1,0,0:0:0:0:
174,248,3568,1,0,0:0:0:0:
179,245,3570,1,0,0:0:0:0:
183,242,3571,1,0,0:0:0:0:
187,239,3573,1,0,0:0:0:0:
192,236,3574,1,0,0:0:0:0:
196,233,3576,1,0,0:0:0:0:
200,230,3577,1,0,0:0:0:0:
205,227,3579,1,0,0:0:0:0:
209,223,3580,1,0,0:0:0:0:
214,220,3582,1,0,0:0:0:0:
218,217,3583,1,0,0:0:0:0:
222,214,3585,1,0,0:0:0:0:
227,211,3586,1,0,0:0:0:0:
231,208,3588,1,0,0:0:0:0:
236,205,3589,1,0,0:0:0:0:
240,202,3591,1,0,0:0:0:0:
244,199,3592,1,0,0:0:0:0:
249,196,3594,1,0,0:0:0:0:
253,193,3595,1,0,0:0:0:0:
258,190,3597,1,0,0:0:0:0:
262,187,3598,1,0,0:0:0:0:
267,184,3600,1,0,0:0:0:0:
271,181,3601,1,0,0:0:0:0:
276,178,3603,1,0,0:0:0:0:
280,175,3604,1,0,0:0:0:0:
284,172,3606,1,0,0:0:0:0:
289,169,3607,1,0,0:0:0:0:
293,166,3609,1,0,0:0:0:0:
298,164,3610,1,0,0:0:0:0:
302,161,3612,1,0,0:0:0:0:
307,158,3613,1,0,0:0:0:0:
311,155,3615,1,0,0:0:0:0:
316,152,3616,1,0,0:0:0:0:
320,149,3618,1,0,0:0:0:0:
325,146,3619,1,0,0:0:0:0:
330,144,3621,1,0,0:0:0:0:
334,141,3622,1,0,0:0:0:0:
339,138,3624,1,0,0:0:0:0:
343,135,3625,1,0,0:0:0:0:
348,132,3627,1,0,0:0:0:0:
353,130,3628,1,0,0:0:0:0:
357,127,3630,1,0,0:0:0:0:
362,124,3631,1,0,0:0:0:0:
367,122,3633,1,0,0:0:0:0:
371,119,3634,1,0,0:0:0:0:
376,117,3636,1,0,0:0:0:0:
381,114,3637,1,0,0:0:0:0:
385,112,3639,1,0,0:0:0:0:
390,109,3640,1,0,0:0:0:0:
395,107,3642,1,0,0:0:0:0:
400,104,3643,1,0,0:0:0:0:
405,102,3645,1,0,0:0:0:0:
409,100,3646,1,0,0:0:0:0:
414,98,3648,1,0,0:0:0:0:
419,96,3649,1,0,0:0:0:0:
424,94,3651,1,0,0:0:0:0:
429,92,3652,1,0,0:0:0:0:
435,91,3654,1,0,0:0:0:0:
440,90,3655,1,0,0:0:0:0:
445,89,3657,1,0,0:0:0:0:
450,88,3658,1,0,0:0:0:0:
456,88,3660,1,0,0:0:0:0:
461,90,3661,1,0,0:0:0:0:
465,94,3663,1,0,0:0:0:0:
467,98,3664,1,0,0:0:0:0:
488,24,3698,1,0,0:0:0:0:
483,27,3699,1,0,0:0:0:0:
479,30,3701,1,0,0:0:0:0:
475,33,3702,1,0,0:0:0:0:
470,36,3704,1,0,0:0:0:0:
466,40,3705,1,0,0:0:0:0:
462,43,3707,1,0,0:0:0:0:
458,46,3708,1,0,0:0:0:0:
453,49,3710,1,0,0:0:0:0:
449,52,3711,1,0,0:0:0:0:
445,56,3713,1,0,0:0:0:0:
440,59,3714,1,0,0:0:0:0:
436,62,3716,1,0,0:0:0:0:
432,65,3717,1,0,0:0:0:0:
428,68,3719,1,0,0:0:0:0:
423,72,3720,1,0,0:0:0:0:
419,75,3722,1,0,0:0:0:0:
415,78,3723,1,0,0:0:0:0:
410,81,3725,1,0,0:0:0:0:
406,84,3726,1,0,0:0:0:0:
402,88,3728,1,0,0:0:0:0:
397,91,3729,1,0,0:0:0:0:
393,94,3731,1,0,0:0:0:0:
389,97,3732,1,0,0:0:0:0:
384,100,3734,1,0,0:0:0:0:
380,103,3735,1,0,0:0:0:0:
376,107,3737,1,0,0:0:0:0:
371,110,3738,1,0,0:0:0:0:
367,113,3740,1,0,0:0:0:0:
363,116,3741,1,0,0:0:0:0:
358,119,3743,1,0,0:0:0:0:
354,122,3744,1,0,0:0:0:0:
350,125,3746,1,0,0:0:0:0:
345,129,3747,1,0,0:0:0:0:
341,132,3749,1,0,0:0:0:0:
337,135,3750,1,0,0:0:0:0:
332,138,3752,1,0,0:0:0:0:
328,141,3753,1,0,0:0:0:0:
324,144,3755,1,0,0:0:0:0:
319,147,3756,1,0,0:0:0:0:
315,150,3758,1,0,0:0:0:0:
311,153,3759,1,0,0:0:0:0:
306,156,3761,1,0,0:0:0:0:
302,160,3762,1,0,0:0:0:0:
297,163,3764,1,0,0:0:0:0:
293,166,3765,1,0,0:0:0:0:
289,169,3767,1,0,0:0:0:0:
284,172,3768,1,0,0:0:0:0:
280,175,3770,1,0,0:0:0:0:
275,178,3771,1,0,0:0:0:0:
271,181,3773,1,0,0:0:0:0:
267,184,3774,1,0,0:0:0:0:
262,187,3776,1,0,0:0:0:0:
258,190,3777,1,0,0:0:0:0:
253,193,3779,1,0,0:0:0:0:
249,196,3780,1,0,0:0:0:0:
244,199,3782,1,0,0:0:0:0:
240,202,3783,1,0,0:0:0:0:
235,205,3785,1,0,0:0:0:0:
488,24,3786,1,0,0:0:0:0:
483,27,3787,1,0,0:0:0:0:
227,211,3788,1,0,0:0:0:0:
479,30,3789,1,0,0:0:0:0:
475,33,3790,1,0,0:0:0:0:
218,217,3791,1,0,0:0:0:0:
470,36,3792,1,0,0:0:0:0:
466,40,3793,1,0,0:0:0:0:
209,222,3794,1,0,0:0:0:0:
462,43,3795,1,0,0:0:0:0:
458,46,3796,1,0,0:0:0:0:
200,228,3797,1,0,0:0:0:0:
453,49,3798,1,0,0:0:0:0:
449,52,3799,1,0,0:0:0:0:
191,234,3800,1,0,0:0:0:0:
445,56,3801,1,0,0:0:0:0:
440,59,3802,1,0,0:0:0:0:
181,239,3803,1,0,0:0:0:0:
436,62,3804,1,0,0:0:0:0:
432,65,3805,1,0,0:0:0:0:
172,245,3806,1,0,0:0:0:0:
428,68,3807,1,0,0:0:0:0:
423,72,3808,1,0,0:0:0:0:
163,251,3809,1,0,0:0:0:0:
419,75,3810,1,0,0:0:0:0:
415,78,3811,1,0,0:0:0:0:
154,256,3812,1,0,0:0:0:0:
410,81,3813,1,0,0:0:0:0:
406,84,3814,1,0,0:0:0:0:
144,261,3815,1,0,0:0:0:0:
402,88,3816,1,0,0:0:0:0:
397,91,3817,1,0,0:0:0:0:
135,266,3818,1,0,0:0:0:0:
393,94,3819,1,0,0:0:0:0:
389,97,3820,1,0,0:0:0:0:
126,271,3821,1,0,0:0:0:0:
384,100,3822,1,0,0:0:0:0:
380,103,3823,1,0,0:0:0:0:
116,276,3824,1,0,0:0:0:0:
376,107,3825,1,0,0:0:0:0:
371,110,3826,1,0,0:0:0:0:
106,281,3827,1,0,0:0:0:0:
367,113,3828,1,0,0:0:0:0:
363,116,3829,1,0,0:0:0:0:
97,285,3830,1,0,0:0:0:0:
358,119,3831,1,0,0:0:0:0:
354,122,3832,1,0,0:0:0:0:
87,289,3833,1,0,0:0:0:0:
350,125,3834,1,0,0:0:0:0:
345,129,3835,1,0,0:0:0:0:
76,292,3836,1,0,0:0:0:0:
341,132,3837,1,0,0:0:0:0:
337,135,3838,1,0,0:0:0:0:
66,294,3839,1,0,0:0:0:0:
332,138,3840,1,0,0:0:0:0:
328,141,3841,1,0,0:0:0:0:
55,295,3842,1,0,0:0:0:0:
324,144,3843,1,0,0:0:0:0:
319,147,3844,1,0,0:0:0:0:
46,289,3845,1,0,0:0:0:0:
315,150,3846,1,0,0:0:0:0:
311,153,3847,1,0,0:0:0:0:
306,156,3849,1,0,0:0:0:0:
302,160,3850,1,0,0:0:0:0:
297,163,3852,1,0,0:0:0:0:
293,166,3853,1,0,0:0:0:0:
289,169,3855,1,0,0:0:0:0:
284,172,3856,1,0,0:0:0:0:
280,175,3858,1,0,0:0:0:0:
275,178,3859,1,0,0:0:0:0:
271,181,3861,1,0,0:0:0:0:
267,184,3862,1,0,0:0:0:0:
262,187,3864,1,0,0:0:0:0:
258,190,3865,1,0,0:0:0:0:
253,193,3867,1,0,0:0:0:0:
249,196,3868,1,0,0:0:0:0:
244,199,3870,1,0,0:0:0:0:
240,202,3871,1,0,0:0:0:0:
235,205,3873,1,0,0:0:0:0:
231,208,3874,1,0,0:0:0:0:
227,211,3876,1,0,0:0:0:0:
222,214,3877,1,0,0:0:0:0:
218,217,3879,1,0,0:0:0:0:
213,219,3880,1,0,0:0:0:0:
209,222,3882,1,0,0:0:0:0:
204,225,3883,1,0,0:0:0:0:
200,228,3885,1,0,0:0:0:0:
195,231,3886,1,0,0:0:0:0:
191,234,3888,1,0,0:0:0:0:
186,237,3889,1,0,0:0:0:0:
181,239,3891,1,0,0:0:0:0:
177,242,3892,1,0,0:0:0:0:
172,245,3894,1,0,0:0:0:0:
168,248,3895,1,0,0:0:0:0:
163,251,3897,1,0,0:0:0:0:
158,253,3898,1,0,0:0:0:0:
154,256,3900,1,0,0:0:0:0:
149,259,3901,1,0,0:0:0:0:
24,24,3902,1,0,0:0:0:0:
144,261,3903,1,0,0:0:0:0:
140,264,3904,1,0,0:0:0:0:
32,30,3905,1,0,0:0:0:0:
135,266,3906,1,0,0:0:0:0:
130,269,3907,1,0,0:0:0:0:
41,36,3908,1,0,0:0:0:0:
126,271,3909,1,0,0:0:0:0:
121,274,3910,1,0,0:0:0:0:
49,43,3911,1,0,0:0:0:0:
116,276,3912,1,0,0:0:0:0:
111,279,3913,1,0,0:0:0:0:
58,49,3914,1,0,0:0:0:0:
106,281,3915,1,0,0:0:0:0:
102,283,3916,1,0,0:0:0:0:
66,56,3917,1,0,0:0:0:0:
97,285,3918,1,0,0:0:0:0:
92,287,3919,1,0,0:0:0:0:
75,62,3920,1,0,0:0:0:0:
87,289,3921,1,0,0:0:0:0:
82,291,3922,1,0,0:0:0:0:
83,68,3923,1,0,0:0:0:0:
76,292,3924,1,0,0:0:0:0:
71,293,3925,1,0,0:0:0:0:
92,75,3926,1,0,0:0:0:0:
66,294,3927,1,0,0:0:0:0:
61,295,3928,1,0,0:0:0:0:
101,81,3929,1,0,0:0:0:0:
55,295,3930,1,0,0:0:0:0:
50,293,3931,1,0,0:0:0:0:
109,88,3932,1,0,0:0:0:0:
46,289,3933,1,0,0:0:0:0:
44,285,3934,1,0,0:0:0:0:
118,94,3935,1,0,0:0:0:0:
122,97,3936,1,0,0:0:0:0:
127,100,3938,1,0,0:0:0:0:
131,103,3939,1,0,0:0:0:0:
135,107,3941,1,0,0:0:0:0:
140,110,3942,1,0,0:0:0:0:
144,113,3944,1,0,0:0:0:0:
148,116,3945,1,0,0:0:0:0:
153,119,3947,1,0,0:0:0:0:
157,122,3948,1,0,0:0:0:0:
161,125,3950,1,0,0:0:0:0:
166,129,3951,1,0,0:0:0:0:
170,132,3953,1,0,0:0:0:0:
174,135,3954,1,0,0:0:0:0:
179,138,3956,1,0,0:0:0:0:
183,141,3957,1,0,0:0:0:0:
187,144,3959,1,0,0:0:0:0:
192,147,3960,1,0,0:0:0:0:
196,150,3962,1,0,0:0:0:0:
200,153,3963,1,0,0:0:0:0:
205,156,3965,1,0,0:0:0:0:
209,160,3966,1,0,0:0:0:0:
214,163,3968,1,0,0:0:0:0:
218,166,3969,1,0,0:0:0:0:
222,169,3971,1,0,0:0:0:0:
227,172,3972,1,0,0:0:0:0:
231,175,3974,1,0,0:0:0:0:
236,178,3975,1,0,0:0:0:0:
240,181,3977,1,0,0:0:0:0:
244,184,3978,1,0,0:0:0:0:
249,187,3980,1,0,0:0:0:0:
253,190,3981,1,0,0:0:0:0:
258,193,3983,1,0,0:0:0:0:
262,196,3984,1,0,0:0:0:0:
267,199,3986,1,0,0:0:0:0:
271,202,3987,1,0,0:0:0:0:
276,205,3989,1,0,0:0:0:0:
24,24,3990,1,0,0:0:0:0:
28,27,3991,1,0,0:0:0:0:
284,211,3992,1,0,0:0:0:0:
32,30,3993,1,0,0:0:0:0:
36,33,3994,1,0,0:0:0:0:
293,217,3995,1,0,0:0:0:0:
41,36,3996,1,0,0:0:0:0:
45,40,3997,1,0,0:0:0:0:
302,222,3998,1,0,0:0:0:0:
49,43,3999,1,0,0:0:0:0:
53,46,4000,1,0,0:0:0:0:
311,228,4001,1,0,0:0:0:0:
58,49,4002,1,0,0:0:0:0:
62,52,4003,1,0,0:0:0:0:
320,234,4004,1,0,0:0:0:0:
66,56,4005,1,0,0:0:0:0:
71,59,4006,1,0,0:0:0:0:
330,239,4007,1,0,0:0:0:0:
75,62,4008,1,0,0:0:0:0:
79,65,4009,1,0,0:0:0:0:
339,245,4010,1,0,0:0:0:0:
83,68,4011,1,0,0:0:0:0:
88,72,4012,1,0,0:0:0:0:
348,251,4013,1,0,0:0:0:0:
92,75,4014,1,0,0:0:0:0:
96,78,4015,1,0,0:0:0:0:
357,256,4016,1,0,0:0:0:0:
101,81,4017,1,0,0:0:0:0:
105,84,4018,1,0,0:0:0:0:
367,261,4019,1,0,0:0:0:0:
109,88,4020,1,0,0:0:0:0:
114,91,4021,1,0,0:0:0:0:
376,266,4022,1,0,0:0:0:0:
118,94,4023,1,0,0:0:0:0:
122,97,4024,1,0,0:0:0:0:
385,271,4025,1,0,0:0:0:0:
127,100,4026,1,0,0:0:0:0:
131,103,4027,1,0,0:0:0:0:
395,276,4028,1,0,0:0:0:0:
135,107,4029,1,0,0:0:0:0:
140,110,4030,1,0,0:0:0:0:
405,281,4031,1,0,0:0:0:0:
144,113,4032,1,0,0:0:0:0:
148,116,4033,1,0,0:0:0:0:
414,285,4034,1,0,0:0:0:0:
153,119,4035,1,0,0:0:0:0:
157,122,4036,1,0,0:0:0:0:
424,289,4037,1,0,0:0:0:0:
161,125,4038,1,0,0:0:0:0:
166,129,4039,1,0,0:0:0:0:
435,292,4040,1,0,0:0:0:0:
170,132,4041,1,0,0:0:0:0:
174,135,4042,1,0,0:0:0:0:
445,294,4043,1,0,0:0:0:0:
179,138,4044,1,0,0:0:0:0:
183,141,4045,1,0,0:0:0:0:
456,295,4046,1,0,0:0:0:0:
187,144,4047,1,0,0:0:0:0:
192,147,4048,1,0,0:0:0:0:
465,289,4049,1,0,0:0:0:0:
196,150,4050,1,0,0:0:0:0:
200,153,4051,1,0,0:0:0:0:
205,156,4053,1,0,0:0:0:0:
209,160,4054,1,0,0:0:0:0:
214,163,4056,1,0,0:0:0:0:
218,166,4057,1,0,0:0:0:0:
222,169,4059,1,0,0:0:0:0:
227,172,4060,1,0,0:0:0:0:
231,175,4062,1,0,0:0:0:0:
236,178,4063,1,0,0:0:0:0:
240,181,4065,1,0,0:0:0:0:
244,184,4066,1,0,0:0:0:0:
249,187,4068,1,0,0:0:0:0:
253,190,4069,1,0,0:0:0:0:
258,193,4071,1,0,0:0:0:0:
262,196,4072,1,0,0:0:0:0:
488,360,4073,1,0,0:0:0:0:
267,199,4074,1,0,0:0:0:0:
271,202,4075,1,0,0:0:0:0:
479,353,4076,1,0,0:0:0:0:
276,205,4077,1,0,0:0:0:0:
280,208,4078,1,0,0:0:0:0:
470,347,4079,1,0,0:0:0:0:
284,211,4080,1,0,0:0:0:0:
289,214,4081,1,0,0:0:0:0:
462,340,4082,1,0,0:0:0:0:
293,217,4083,1,0,0:0:0:0:
298,219,4084,1,0,0:0:0:0:
453,334,4085,1,0,0:0:0:0:
302,222,4086,1,0,0:0:0:0:
307,225,4087,1,0,0:0:0:0:
445,327,4088,1,0,0:0:0:0:
311,228,4089,1,0,0:0:0:0:
316,231,4090,1,0,0:0:0:0:
436,321,4091,1,0,0:0:0:0:
320,234,4092,1,0,0:0:0:0:
325,237,4093,1,0,0:0:0:0:
428,315,4094,1,0,0:0:0:0:
330,239,4095,1,0,0:0:0:0:
334,242,4096,1,0,0:0:0:0:
419,308,4097,1,0,0:0:0:0:
339,245,4098,1,0,0:0:0:0:
343,248,4099,1,0,0:0:0:0:
410,302,4100,1,0,0:0:0:0:
348,251,4101,1,0,0:0:0:0:
353,253,4102,1,0,0:0:0:0:
402,295,4103,1,0,0:0:0:0:
357,256,4104,1,0,0:0:0:0:
362,259,4105,1,0,0:0:0:0:
393,289,4106,1,0,0:0:0:0:
367,261,4107,1,0,0:0:0:0:
371,264,4108,1,0,0:0:0:0:
384,283,4109,1,0,0:0:0:0:
376,266,4110,1,0,0:0:0:0:
381,269,4111,1,0,0:0:0:0:
376,276,4112,1,0,0:0:0:0:
385,271,4113,1,0,0:0:0:0:
390,274,4114,1,0,0:0:0:0:
367,270,4115,1,0,0:0:0:0:
395,276,4116,1,0,0:0:0:0:
400,279,4117,1,0,0:0:0:0:
358,264,4118,1,0,0:0:0:0:
405,281,4119,1,0,0:0:0:0:
409,283,4120,1,0,0:0:0:0:
350,258,4121,1,0,0:0:0:0:
414,285,4122,1,0,0:0:0:0:
419,287,4123,1,0,0:0:0:0:
341,251,4124,1,0,0:0:0:0:
424,289,4125,1,0,0:0:0:0:
429,291,4126,1,0,0:0:0:0:
332,245,4127,1,0,0:0:0:0:
435,292,4128,1,0,0:0:0:0:
440,293,4129,1,0,0:0:0:0:
324,239,4130,1,0,0:0:0:0:
445,294,4131,1,0,0:0:0:0:
450,295,4132,1,0,0:0:0:0:
315,233,4133,1,0,0:0:0:0:
456,295,4134,1,0,0:0:0:0:
461,293,4135,1,0,0:0:0:0:
306,227,4136,1,0,0:0:0:0:
465,289,4137,1,0,0:0:0:0:
467,285,4138,1,0,0:0:0:0:
297,220,4139,1,0,0:0:0:0:
297,163,4140,1,0,0:0:0:0:
293,166,4141,1,0,0:0:0:0:
289,214,4142,1,0,0:0:0:0:
289,169,4143,1,0,0:0:0:0:
284,172,4144,1,0,0:0:0:0:
280,208,4145,1,0,0:0:0:0:
280,175,4146,1,0,0:0:0:0:
275,178,4147,1,0,0:0:0:0:
271,202,4148,1,0,0:0:0:0:
271,181,4149,1,0,0:0:0:0:
267,184,4150,1,0,0:0:0:0:
262,196,4151,1,0,0:0:0:0:
262,187,4152,1,0,0:0:0:0:
258,190,4153,1,0,0:0:0:0:
253,190,4154,1,0,0:0:0:0:
253,193,4155,1,0,0:0:0:0:
249,196,4156,1,0,0:0:0:0:
244,184,4157,1,0,0:0:0:0:
244,199,4158,1,0,0:0:0:0:
240,202,4159,1,0,0:0:0:0:
235,178,4160,1,0,0:0:0:0:
488,360,4161,1,0,0:0:0:0:
483,356,4162,1,0,0:0:0:0:
227,172,4163,1,0,0:0:0:0:
479,353,4164,1,0,0:0:0:0:
475,350,4165,1,0,0:0:0:0:
218,166,4166,1,0,0:0:0:0:
470,347,4167,1,0,0:0:0:0:
466,343,4168,1,0,0:0:0:0:
209,161,4169,1,0,0:0:0:0:
462,340,4170,1,0,0:0:0:0:
458,337,4171,1,0,0:0:0:0:
200,155,4172,1,0,0:0:0:0:
453,334,4173,1,0,0:0:0:0:
449,331,4174,1,0,0:0:0:0:
191,149,4175,1,0,0:0:0:0:
445,327,4176,1,0,0:0:0:0:
440,324,4177,1,0,0:0:0:0:
181,144,4178,1,0,0:0:0:0:
436,321,4179,1,0,0:0:0:0:
432,318,4180,1,0,0:0:0:0:
172,138,4181,1,0,0:0:0:0:
428,315,4182,1,0,0:0:0:0:
423,311,4183,1,0,0:0:0:0:
163,132,4184,1,0,0:0:0:0:
419,308,4185,1,0,0:0:0:0:
415,305,4186,1,0,0:0:0:0:
154,127,4187,1,0,0:0:0:0:
410,302,4188,1,0,0:0:0:0:
406,299,4189,1,0,0:0:0:0:
144,122,4190,1,0,0:0:0:0:
402,295,4191,1,0,0:0:0:0:
397,292,4192,1,0,0:0:0:0:
135,117,4193,1,0,0:0:0:0:
393,289,4194,1,0,0:0:0:0:
389,286,4195,1,0,0:0:0:0:
126,112,4196,1,0,0:0:0:0:
384,283,4197,1,0,0:0:0:0:
380,280,4198,1,0,0:0:0:0:
116,107,4199,1,0,0:0:0:0:
376,276,4200,1,0,0:0:0:0:
371,273,4201,1,0,0:0:0:0:
106,102,4202,1,0,0:0:0:0:
367,270,4203,1,0,0:0:0:0:
363,267,4204,1,0,0:0:0:0:
97,98,4205,1,0,0:0:0:0:
358,264,4206,1,0,0:0:0:0:
354,261,4207,1,0,0:0:0:0:
87,94,4208,1,0,0:0:0:0:
350,258,4209,1,0,0:0:0:0:
345,254,4210,1,0,0:0:0:0:
76,91,4211,1,0,0:0:0:0:
341,251,4212,1,0,0:0:0:0:
337,248,4213,1,0,0:0:0:0:
66,89,4214,1,0,0:0:0:0:
332,245,4215,1,0,0:0:0:0:
328,242,4216,1,0,0:0:0:0:
55,88,4217,1,0,0:0:0:0:
324,239,4218,1,0,0:0:0:0:
319,236,4219,1,0,0:0:0:0:
46,94,4220,1,0,0:0:0:0:
315,233,4221,1,0,0:0:0:0:
311,230,4222,1,0,0:0:0:0:
306,227,4224,1,0,0:0:0:0:
302,223,4225,1,0,0:0:0:0:
297,220,4227,1,0,0:0:0:0:
293,217,4228,1,0,0:0:0:0:
289,214,4230,1,0,0:0:0:0:
284,211,4231,1,0,0:0:0:0:
280,208,4233,1,0,0:0:0:0:
275,205,4234,1,0,0:0:0:0:
271,202,4236,1,0,0:0:0:0:
267,199,4237,1,0,0:0:0:0:
262,196,4239,1,0,0:0:0:0:
258,193,4240,1,0,0:0:0:0:
253,190,4242,1,0,0:0:0:0:
249,187,4243,1,0,0:0:0:0:
244,184,4245,1,0,0:0:0:0:
240,181,4246,1,0,0:0:0:0:
235,178,4248,1,0,0:0:0:0:
231,175,4249,1,0,0:0:0:0:
227,172,4251,1,0,0:0:0:0:
222,169,4252,1,0,0:0:0:0:
218,166,4254,1,0,0:0:0:0:
213,164,4255,1,0,0:0:0:0:
209,161,4257,1,0,0:0:0:0:
204,158,4258,1,0,0:0:0:0:
200,155,4260,1,0,0:0:0:0:
195,152,4261,1,0,0:0:0:0:
191,149,4263,1,0,0:0:0:0:
186,146,4264,1,0,0:0:0:0:
181,144,4266,1,0,0:0:0:0:
177,141,4267,1,0,0:0:0:0:
172,138,4269,1,0,0:0:0:0:
168,135,4270,1,0,0:0:0:0:
163,132,4272,1,0,0:0:0:0:
158,130,4273,1,0,0:0:0:0:
154,127,4275,1,0,0:0:0:0:
149,124,4276,1,0,0:0:0:0:
24,360,4277,1,0,0:0:0:0:
144,122,4278,1,0,0:0:0:0:
140,119,4279,1,0,0:0:0:0:
32,353,4280,1,0,0:0:0:0:
135,117,4281,1,0,0:0:0:0:
130,114,4282,1,0,0:0:0:0:
41,347,4283,1,0,0:0:0:0:
126,112,4284,1,0,0:0:0:0:
121,109,4285,1,0,0:0:0:0:
49,340,4286,1,0,0:0:0:0:
116,107,4287,1,0,0:0:0:0:
111,104,4288,1,0,0:0:0:0:
58,334,4289,1,0,0:0:0:0:
106,102,4290,1,0,0:0:0:0:
102,100,4291,1,0,0:0:0:0:
66,327,4292,1,0,0:0:0:0:
97,98,4293,1,0,0:0:0:0:
92,96,4294,1,0,0:0:0:0:
75,321,4295,1,0,0:0:0:0:
87,94,4296,1,0,0:0:0:0:
82,92,4297,1,0,0:0:0:0:
83,315,4298,1,0,0:0:0:0:
76,91,4299,1,0,0:0:0:0:
71,90,4300,1,0,0:0:0:0:
92,308,4301,1,0,0:0:0:0:
66,89,4302,1,0,0:0:0:0:
61,88,4303,1,0,0:0:0:0:
101,302,4304,1,0,0:0:0:0:
55,88,4305,1,0,0:0:0:0:
50,90,4306,1,0,0:0:0:0:
109,295,4307,1,0,0:0:0:0:
46,94,4308,1,0,0:0:0:0:
44,98,4309,1,0,0:0:0:0:
118,289,4310,1,0,0:0:0:0:
118,94,4311,1,0,0:0:0:0:
122,97,4312,1,0,0:0:0:0:
127,283,4313,1,0,0:0:0:0:
127,100,4314,1,0,0:0:0:0:
131,103,4315,1,0,0:0:0:0:
135,276,4316,1,0,0:0:0:0:
135,107,4317,1,0,0:0:0:0:
140,110,4318,1,0,0:0:0:0:
144,270,4319,1,0,0:0:0:0:
144,113,4320,1,0,0:0:0:0:
148,116,4321,1,0,0:0:0:0:
153,264,4322,1,0,0:0:0:0:
153,119,4323,1,0,0:0:0:0:
157,122,4324,1,0,0:0:0:0:
161,258,4325,1,0,0:0:0:0:
161,125,4326,1,0,0:0:0:0:
166,129,4327,1,0,0:0:0:0:
170,251,4328,1,0,0:0:0:0:
170,132,4329,1,0,0:0:0:0:
174,135,4330,1,0,0:0:0:0:
179,245,4331,1,0,0:0:0:0:
179,138,4332,1,0,0:0:0:0:
183,141,4333,1,0,0:0:0:0:
187,239,4334,1,0,0:0:0:0:
187,144,4335,1,0,0:0:0:0:
192,147,4336,1,0,0:0:0:0:
196,233,4337,1,0,0:0:0:0:
196,150,4338,1,0,0:0:0:0:
200,153,4339,1,0,0:0:0:0:
205,227,4340,1,0,0:0:0:0:
205,156,4341,1,0,0:0:0:0:
209,160,4342,1,0,0:0:0:0:
214,220,4343,1,0,0:0:0:0:
214,163,4344,1,0,0:0:0:0:
218,166,4345,1,0,0:0:0:0:
222,214,4346,1,0,0:0:0:0:
222,169,4347,1,0,0:0:0:0:
227,172,4348,1,0,0:0:0:0:
231,208,4349,1,0,0:0:0:0:
231,175,4350,1,0,0:0:0:0:
236,178,4351,1,0,0:0:0:0:
240,202,4352,1,0,0:0:0:0:
240,181,4353,1,0,0:0:0:0:
244,184,4354,1,0,0:0:0:0:
249,196,4355,1,0,0:0:0:0:
249,187,4356,1,0,0:0:0:0:
253,190,4357,1,0,0:0:0:0:
258,190,4358,1,0,0:0:0:0:
258,193,4359,1,0,0:0:0:0:
262,196,4360,1,0,0:0:0:0:
267,184,4361,1,0,0:0:0:0:
267,199,4362,1,0,0:0:0:0:
271,202,4363,1,0,0:0:0:0:
276,178,4364,1,0,0:0:0:0:
24,360,4365,1,0,0:0:0:0:
28,356,4366,1,0,0:0:0:0:
284,172,4367,1,0,0:0:0:0:
32,353,4368,1,0,0:0:0:0:
36,350,4369,1,0,0:0:0:0:
293,166,4370,1,0,0:0:0:0:
41,347,4371,1,0,0:0:0:0:
45,343,4372,1,0,0:0:0:0:
302,161,4373,1,0,0:0:0:0:
49,340,4374,1,0,0:0:0:0:
53,337,4375,1,0,0:0:0:0:
311,155,4376,1,0,0:0:0:0:
58,334,4377,1,0,0:0:0:0:
62,331,4378,1,0,0:0:0:0:
320,149,4379,1,0,0:0:0:0:
66,327,4380,1,0,0:0:0:0:
71,324,4381,1,0,0:0:0:0:
330,144,4382,1,0,0:0:0:0:
75,321,4383,1,0,0:0:0:0:
79,318,4384,1,0,0:0:0:0:
339,138,4385,1,0,0:0:0:0:
83,315,4386,1,0,0:0:0:0:
88,311,4387,1,0,0:0:0:0:
348,132,4388,1,0,0:0:0:0:
92,308,4389,1,0,0:0:0:0:
96,305,4390,1,0,0:0:0:0:
357,127,4391,1,0,0:0:0:0:
101,302,4392,1,0,0:0:0:0:
105,299,4393,1,0,0:0:0:0:
367,122,4394,1,0,0:0:0:0:
109,295,4395,1,0,0:0:0:0:
114,292,4396,1,0,0:0:0:0:
376,117,4397,1,0,0:0:0:0:
118,289,4398,1,0,0:0:0:0:
122,286,4399,1,0,0:0:0:0:
385,112,4400,1,0,0:0:0:0:
127,283,4401,1,0,0:0:0:0:
131,280,4402,1,0,0:0:0:0:
395,107,4403,1,0,0:0:0:0:
135,276,4404,1,0,0:0:0:0:
140,273,4405,1,0,0:0:0:0:
405,102,4406,1,0,0:0:0:0:
144,270,4407,1,0,0:0:0:0:
148,267,4408,1,0,0:0:0:0:
414,98,4409,1,0,0:0:0:0:
153,264,4410,1,0,0:0:0:0:
157,261,4411,1,0,0:0:0:0:
424,94,4412,1,0,0:0:0:0:
161,258,4413,1,0,0:0:0:0:
166,254,4414,1,0,0:0:0:0:
435,91,4415,1,0,0:0:0:0:
170,251,4416,1,0,0:0:0:0:
174,248,4417,1,0,0:0:0:0:
445,89,4418,1,0,0:0:0:0:
179,245,4419,1,0,0:0:0:0:
183,242,4420,1,0,0:0:0:0:
456,88,4421,1,0,0:0:0:0:
187,239,4422,1,0,0:0:0:0:
192,236,4423,1,0,0:0:0:0:
465,94,4424,1,0,0:0:0:0:
196,233,4425,1,0,0:0:0:0:
200,230,4426,1,0,0:0:0:0:
205,227,4428,1,0,0:0:0:0:
209,223,4429,1,0,0:0:0:0:
214,220,4431,1,0,0:0:0:0:
218,217,4432,1,0,0:0:0:0:
222,214,4434,1,0,0:0:0:0:
227,211,4435,1,0,0:0:0:0:
231,208,4437,1,0,0:0:0:0:
236,205,4438,1,0,0:0:0:0:
240,202,4440,1,0,0:0:0:0:
244,199,4441,1,0,0:0:0:0:
249,196,4443,1,0,0:0:0:0:
253,193,4444,1,0,0:0:0:0:
258,190,4446,1,0,0:0:0:0:
262,187,4447,1,0,0:0:0:0:
267,184,4449,1,0,0:0:0:0:
271,181,4450,1,0,0:0:0:0:
276,178,4452,1,0,0:0:0:0:
280,175,4453,1,0,0:0:0:0:
284,172,4455,1,0,0:0:0:0:
289,169,4456,1,0,0:0:0:0:
293,166,4458,1,0,0:0:0:0:
298,164,4459,1,0,0:0:0:0:
302,161,4461,1,0,0:0:0:0:
307,158,4462,1,0,0:0:0:0:
311,155,4464,1,0,0:0:0:0:
316,152,4465,1,0,0:0:0:0:
320,149,4467,1,0,0:0:0:0:
325,146,4468,1,0,0:0:0:0:
330,144,4470,1,0,0:0:0:0:
334,141,4471,1,0,0:0:0:0:
339,138,4473,1,0,0:0:0:0:
343,135,4474,1,0,0:0:0:0:
348,132,4476,1,0,0:0:0:0:
353,130,4477,1,0,0:0:0:0:
357,127,4479,1,0,0:0:0:0:
362,124,4480,1,0,0:0:0:0:
367,122,4482,1,0,0:0:0:0:
371,119,4483,1,0,0:0:0:0:
376,117,4485,1,0,0:0:0:0:
381,114,4486,1,0,0:0:0:0:
385,112,4488,1,0,0:0:0:0:
390,109,4489,1,0,0:0:0:0:
395,107,4491,1,0,0:0:0:0:
400,104,4492,1,0,0:0:0:0:
405,102,4494,1,0,0:0:0:0:
409,100,4495,1,0,0:0:0:0:
414,98,4497,1,0,0:0:0:0:
419,96,4498,1,0,0:0:0:0:
424,94,4500,1,0,0:0:0:0:
429,92,4501,1,0,0:0:0:0:
435,91,4503,1,0,0:0:0:0:
440,90,4504,1,0,0:0:0:0:
445,89,4506,1,0,0:0:0:0:
450,88,4507,1,0,0:0:0:0:
456,88,4509,1,0,0:0:0:0:
461,90,4510,1,0,0:0:0:0:
465,94,4512,1,0,0:0:0:0:
467,98,4513,1,0,0:0:0:0:
297,220,4515,1,0,0:0:0:0:
293,217,4516,1,0,0:0:0:0:
289,214,4518,1,0,0:0:0:0:
284,211,4519,1,0,0:0:0:0:
280,208,4521,1,0,0:0:0:0:
275,205,4522,1,0,0:0:0:0:
271,202,4524,1,0,0:0:0:0:
267,199,4525,1,0,0:0:0:0:
262,196,4527,1,0,0:0:0:0:
258,193,4528,1,0,0:0:0:0:
253,190,4530,1,0,0:0:0:0:
249,187,4531,1,0,0:0:0:0:
244,184,4533,1,0,0:0:0:0:
240,181,4534,1,0,0:0:0:0:
235,178,4536,1,0,0:0:0:0:
231,175,4537,1,0,0:0:0:0:
227,172,4539,1,0,0:0:0:0:
222,169,4540,1,0,0:0:0:0:
218,166,4542,1,0,0:0:0:0:
213,164,4543,1,0,0:0:0:0:
209,161,4545,1,0,0:0:0:0:
204,158,4546,1,0,0:0:0:0:
488,24,4547,1,0,0:0:0:0:
483,27,4548,1,0,0:0:0:0:
195,152,4549,1,0,0:0:0:0:
479,30,4550,1,0,0:0:0:0:
475,33,4551,1,0,0:0:0:0:
186,146,4552,1,0,0:0:0:0:
470,36,4553,1,0,0:0:0:0:
466,40,4554,1,0,0:0:0:0:
177,141,4555,1,0,0:0:0:0:
462,43,4556,1,0,0:0:0:0:
458,46,4557,1,0,0:0:0:0:
168,135,4558,1,0,0:0:0:0:
453,49,4559,1,0,0:0:0:0:
449,52,4560,1,0,0:0:0:0:
158,130,4561,1,0,0:0:0:0:
445,56,4562,1,0,0:0:0:0:
440,59,4563,1,0,0:0:0:0:
149,124,4564,1,0,0:0:0:0:
436,62,4565,1,0,0:0:0:0:
432,65,4566,1,0,0:0:0:0:
140,119,4567,1,0,0:0:0:0:
428,68,4568,1,0,0:0:0:0:
423,72,4569,1,0,0:0:0:0:
130,114,4570,1,0,0:0:0:0:
419,75,4571,1,0,0:0:0:0:
415,78,4572,1,0,0:0:0:0:
121,109,4573,1,0,0:0:0:0:
410,81,4574,1,0,0:0:0:0:
406,84,4575,1,0,0:0:0:0:
111,104,4576,1,0,0:0:0:0:
402,88,4577,1,0,0:0:0:0:
397,91,4578,1,0,0:0:0:0:
102,100,4579,1,0,0:0:0:0:
393,94,4580,1,0,0:0:0:0:
389,97,4581,1,0,0:0:0:0:
92,96,4582,1,0,0:0:0:0:
384,100,4583,1,0,0:0:0:0:
380,103,4584,1,0,0:0:0:0:
82,92,4585,1,0,0:0:0:0:
376,107,4586,1,0,0:0:0:0:
371,110,4587,1,0,0:0:0:0:
71,90,4588,1,0,0:0:0:0:
367,113,4589,1,0,0:0:0:0:
363,116,4590,1,0,0:0:0:0:
61,88,4591,1,0,0:0:0:0:
358,119,4592,1,0,0:0:0:0:
354,122,4593,1,0,0:0:0:0:
50,90,4594,1,0,0:0:0:0:
350,125,4595,1,0,0:0:0:0:
345,129,4596,1,0,0:0:0:0:
44,98,4597,1,0,0:0:0:0:
341,132,4598,1,0,0:0:0:0:
337,135,4599,1,0,0:0:0:0:
332,138,4601,1,0,0:0:0:0:
328,141,4602,1,0,0:0:0:0:
324,144,4604,1,0,0:0:0:0:
319,147,4605,1,0,0:0:0:0:
315,150,4607,1,0,0:0:0:0:
311,153,4608,1,0,0:0:0:0:
306,156,4610,1,0,0:0:0:0:
302,160,4611,1,0,0:0:0:0:
297,163,4613,1,0,0:0:0:0:
293,166,4614,1,0,0:0:0:0:
289,169,4616,1,0,0:0:0:0:
284,172,4617,1,0,0:0:0:0:
280,175,4619,1,0,0:0:0:0:
275,178,4620,1,0,0:0:0:0:
271,181,4622,1,0,0:0:0:0:
267,184,4623,1,0,0:0:0:0:
262,187,4625,1,0,0:0:0:0:
258,190,4626,1,0,0:0:0:0:
253,193,4628,1,0,0:0:0:0:
249,196,4629,1,0,0:0:0:0:
244,199,4631,1,0,0:0:0:0:
240,202,4632,1,0,0:0:0:0:
235,205,4634,1,0,0:0:0:0:
231,208,4635,1,0,0:0:0:0:
227,211,4637,1,0,0:0:0:0:
222,214,4638,1,0,0:0:0:0:
218,217,4640,1,0,0:0:0:0:
213,219,4641,1,0,0:0:0:0:
209,222,4643,1,0,0:0:0:0:
204,225,4644,1,0,0:0:0:0:
200,228,4646,1,0,0:0:0:0:
195,231,4647,1,0,0:0:0:0:
191,234,4649,1,0,0:0:0:0:
186,237,4650,1,0,0:0:0:0:
181,239,4652,1,0,0:0:0:0:
177,242,4653,1,0,0:0:0:0:
28,356,4654,1,0,0:0:0:0:
172,245,4655,1,0,0:0:0:0:
168,248,4656,1,0,0:0:0:0:
36,350,4657,1,0,0:0:0:0:
163,251,4658,1,0,0:0:0:0:
158,253,4659,1,0,0:0:0:0:
45,343,4660,1,0,0:0:0:0:
154,256,4661,1,0,0:0:0:0:
149,259,4662,1,0,0:0:0:0:
53,337,4663,1,0,0:0:0:0:
144,261,4664,1,0,0:0:0:0:
140,264,4665,1,0,0:0:0:0:
62,331,4666,1,0,0:0:0:0:
135,266,4667,1,0,0:0:0:0:
130,269,4668,1,0,0:0:0:0:
71,324,4669,1,0,0:0:0:0:
126,271,4670,1,0,0:0:0:0:
121,274,4671,1,0,0:0:0:0:
79,318,4672,1,0,0:0:0:0:
116,276,4673,1,0,0:0:0:0:
111,279,4674,1,0,0:0:0:0:
88,311,4675,1,0,0:0:0:0:
106,281,4676,1,0,0:0:0:0:
102,283,4677,1,0,0:0:0:0:
96,305,4678,1,0,0:0:0:0:
97,285,4679,1,0,0:0:0:0:
92,287,4680,1,0,0:0:0:0:
105,299,4681,1,0,0:0:0:0:
87,289,4682,1,0,0:0:0:0:
82,291,4683,1,0,0:0:0:0:
114,292,4684,1,0,0:0:0:0:
76,292,4685,1,0,0:0:0:0:
71,293,4686,1,0,0:0:0:0:
122,286,4687,1,0,0:0:0:0:
66,294,4688,1,0,0:0:0:0:
61,295,4689,1,0,0:0:0:0:
131,280,4690,1,0,0:0:0:0:
55,295,4691,1,0,0:0:0:0:
50,293,4692,1,0,0:0:0:0:
140,273,4693,1,0,0:0:0:0:
46,289,4694,1,0,0:0:0:0:
44,285,4695,1,0,0:0:0:0:
148,267,4696,1,0,0:0:0:0:
153,264,4698,1,0,0:0:0:0:
157,261,4699,1,0,0:0:0:0:
161,258,4701,1,0,0:0:0:0:
166,254,4702,1,0,0:0:0:0:
170,251,4704,1,0,0:0:0:0:
174,248,4705,1,0,0:0:0:0:
179,245,4707,1,0,0:0:0:0:
183,242,4708,1,0,0:0:0:0:
187,239,4710,1,0,0:0:0:0:
192,236,4711,1,0,0:0:0:0:
196,233,4713,1,0,0:0:0:0:
200,230,4714,1,0,0:0:0:0:
205,227,4716,1,0,0:0:0:0:
209,223,4717,1,0,0:0:0:0:
214,220,4719,1,0,0:0:0:0:
218,217,4720,1,0,0:0:0:0:
222,214,4722,1,0,0:0:0:0:
227,211,4723,1,0,0:0:0:0:
231,208,4725,1,0,0:0:0:0:
236,205,4726,1,0,0:0:0:0:
240,202,4728,1,0,0:0:0:0:
244,199,4729,1,0,0:0:0:0:
249,196,4731,1,0,0:0:0:0:
253,193,4732,1,0,0:0:0:0:
258,190,4734,1,0,0:0:0:0:
262,187,4735,1,0,0:0:0:0:
267,184,4737,1,0,0:0:0:0:
271,181,4738,1,0,0:0:0:0:
276,178,4740,1,0,0:0:0:0:
280,175,4741,1,0,0:0:0:0:
284,172,4743,1,0,0:0:0:0:
289,169,4744,1,0,0:0:0:0:
293,166,4746,1,0,0:0:0:0:
298,164,4747,1,0,0:0:0:0:
302,161,4749,1,0,0:0:0:0:
307,158,4750,1,0,0:0:0:0:
24,24,4751,1,0,0:0:0:0:
28,27,4752,1,0,0:0:0:0:
316,152,4753,1,0,0:0:0:0:
32,30,4754,1,0,0:0:0:0:
36,33,4755,1,0,0:0:0:0:
325,146,4756,1,0,0:0:0:0:
41,36,4757,1,0,0:0:0:0:
45,40,4758,1,0,0:0:0:0:
334,141,4759,1,0,0:0:0:0:
49,43,4760,1,0,0:0:0:0:
53,46,4761,1,0,0:0:0:0:
343,135,4762,1,0,0:0:0:0:
58,49,4763,1,0,0:0:0:0:
62,52,4764,1,0,0:0:0:0:
353,130,4765,1,0,0:0:0:0:
66,56,4766,1,0,0:0:0:0:
71,59,4767,1,0,0:0:0:0:
362,124,4768,1,0,0:0:0:0:
75,62,4769,1,0,0:0:0:0:
79,65,4770,1,0,0:0:0:0:
371,119,4771,1,0,0:0:0:0:
83,68,4772,1,0,0:0:0:0:
88,72,4773,1,0,0:0:0:0:
381,114,4774,1,0,0:0:0:0:
92,75,4775,1,0,0:0:0:0:
96,78,4776,1,0,0:0:0:0:
390,109,4777,1,0,0:0:0:0:
101,81,4778,1,0,0:0:0:0:
105,84,4779,1,0,0:0:0:0:
400,104,4780,1,0,0:0:0:0:
109,88,4781,1,0,0:0:0:0:
114,91,4782,1,0,0:0:0:0:
409,100,4783,1,0,0:0:0:0:
118,94,4784,1,0,0:0:0:0:
122,97,4785,1,0,0:0:0:0:
419,96,4786,1,0,0:0:0:0:
127,100,4787,1,0,0:0:0:0:
131,103,4788,1,0,0:0:0:0:
429,92,4789,1,0,0:0:0:0:
135,107,4790,1,0,0:0:0:0:
140,110,4791,1,0,0:0:0:0:
440,90,4792,1,0,0:0:0:0:
144,113,4793,1,0,0:0:0:0:
148,116,4794,1,0,0:0:0:0:
450,88,4795,1,0,0:0:0:0:
153,119,4796,1,0,0:0:0:0:
157,122,4797,1,0,0:0:0:0:
461,90,4798,1,0,0:0:0:0:
161,125,4799,1,0,0:0:0:0:
166,129,4800,1,0,0:0:0:0:
467,98,4801,1,0,0:0:0:0:
170,132,4802,1,0,0:0:0:0:
174,135,4803,1,0,0:0:0:0:
179,138,4805,1,0,0:0:0:0:
183,141,4806,1,0,0:0:0:0:
187,144,4808,1,0,0:0:0:0:
192,147,4809,1,0,0:0:0:0:
196,150,4811,1,0,0:0:0:0:
200,153,4812,1,0,0:0:0:0:
205,156,4814,1,0,0:0:0:0:
209,160,4815,1,0,0:0:0:0:
214,163,4817,1,0,0:0:0:0:
218,166,4818,1,0,0:0:0:0:
222,169,4820,1,0,0:0:0:0:
227,172,4821,1,0,0:0:0:0:
231,175,4823,1,0,0:0:0:0:
236,178,4824,1,0,0:0:0:0:
240,181,4826,1,0,0:0:0:0:
244,184,4827,1,0,0:0:0:0:
249,187,4829,1,0,0:0:0:0:
253,190,4830,1,0,0:0:0:0:
258,193,4832,1,0,0:0:0:0:
262,196,4833,1,0,0:0:0:0:
267,199,4835,1,0,0:0:0:0:
271,202,4836,1,0,0:0:0:0:
276,205,4838,1,0,0:0:0:0:
280,208,4839,1,0,0:0:0:0:
284,211,4841,1,0,0:0:0:0:
289,214,4842,1,0,0:0:0:0:
293,217,4844,1,0,0:0:0:0:
298,219,4845,1,0,0:0:0:0:
302,222,4847,1,0,0:0:0:0:
307,225,4848,1,0,0:0:0:0:
311,228,4850,1,0,0:0:0:0:
316,231,4851,1,0,0:0:0:0:
320,234,4853,1,0,0:0:0:0:
325,237,4854,1,0,0:0:0:0:
330,239,4856,1,0,0:0:0:0:
334,242,4857,1,0,0:0:0:0:
339,245,4859,1,0,0:0:0:0:
343,248,4860,1,0,0:0:0:0:
348,251,4862,1,0,0:0:0:0:
353,253,4863,1,0,0:0:0:0:
357,256,4865,1,0,0:0:0:0:
362,259,4866,1,0,0:0:0:0:
367,261,4868,1,0,0:0:0:0:
371,264,4869,1,0,0:0:0:0:
376,266,4871,1,0,0:0:0:0:
381,269,4872,1,0,0:0:0:0:
385,271,4874,1,0,0:0:0:0:
390,274,4875,1,0,0:0:0:0:
395,276,4877,1,0,0:0:0:0:
400,279,4878,1,0,0:0:0:0:
405,281,4880,1,0,0:0:0:0:
409,283,4881,1,0,0:0:0:0:
414,285,4883,1,0,0:0:0:0:
419,287,4884,1,0,0:0:0:0:
424,289,4886,1,0,0:0:0:0:
429,291,4887,1,0,0:0:0:0:
435,292,4889,1,0,0:0:0:0:
440,293,4890,1,0,0:0:0:0:
445,294,4892,1,0,0:0:0:0:
450,295,4893,1,0,0:0:0:0:
456,295,4895,1,0,0:0:0:0:
461,293,4896,1,0,0:0:0:0:
465,289,4898,1,0,0:0:0:0:
467,285,4899,1,0,0:0:0:0:
483,27,4900,1,0,0:0:0:0:
479,30,4902,1,0,0:0:0:0:
475,33,4903,1,0,0:0:0:0:
470,36,4905,1,0,0:0:0:0:
466,40,4906,1,0,0:0:0:0:
462,43,4908,1,0,0:0:0:0:
458,46,4909,1,0,0:0:0:0:
453,49,4911,1,0,0:0:0:0:
449,52,4912,1,0,0:0:0:0:
445,56,4914,1,0,0:0:0:0:
440,59,4915,1,0,0:0:0:0:
436,62,4917,1,0,0:0:0:0:
432,65,4918,1,0,0:0:0:0:
428,68,4920,1,0,0:0:0:0:
423,72,4921,1,0,0:0:0:0:
488,360,4922,1,0,0:0:0:0:
488,24,4923,1,0,0:0:0:0:
483,27,4924,1,0,0:0:0:0:
479,353,4925,1,0,0:0:0:0:
479,30,4926,1,0,0:0:0:0:
475,33,4927,1,0,0:0:0:0:
470,347,4928,1,0,0:0:0:0:
470,36,4929,1,0,0:0:0:0:
466,40,4930,1,0,0:0:0:0:
462,340,4931,1,0,0:0:0:0:
462,43,4932,1,0,0:0:0:0:
458,46,4933,1,0,0:0:0:0:
453,334,4934,1,0,0:0:0:0:
453,49,4935,1,0,0:0:0:0:
449,52,4936,1,0,0:0:0:0:
445,327,4937,1,0,0:0:0:0:
445,56,4938,1,0,0:0:0:0:
440,59,4939,1,0,0:0:0:0:
436,321,4940,1,0,0:0:0:0:
436,62,4941,1,0,0:0:0:0:
432,65,4942,1,0,0:0:0:0:
428,315,4943,1,0,0:0:0:0:
428,68,4944,1,0,0:0:0:0:
423,72,4945,1,0,0:0:0:0:
419,308,4946,1,0,0:0:0:0:
419,75,4947,1,0,0:0:0:0:
415,78,4948,1,0,0:0:0:0:
410,302,4949,1,0,0:0:0:0:
410,81,4950,1,0,0:0:0:0:
406,84,4951,1,0,0:0:0:0:
402,295,4952,1,0,0:0:0:0:
402,88,4953,1,0,0:0:0:0:
397,91,4954,1,0,0:0:0:0:
393,289,4955,1,0,0:0:0:0:
393,94,4956,1,0,0:0:0:0:
389,97,4957,1,0,0:0:0:0:
384,283,4958,1,0,0:0:0:0:
384,100,4959,1,0,0:0:0:0:
380,103,4960,1,0,0:0:0:0:
376,276,4961,1,0,0:0:0:0:
376,107,4962,1,0,0:0:0:0:
371,110,4963,1,0,0:0:0:0:
367,270,4964,1,0,0:0:0:0:
367,113,4965,1,0,0:0:0:0:
363,116,4966,1,0,0:0:0:0:
358,264,4967,1,0,0:0:0:0:
358,119,4968,1,0,0:0:0:0:
354,122,4969,1,0,0:0:0:0:
350,258,4970,1,0,0:0:0:0:
350,125,4971,1,0,0:0:0:0:
345,129,4972,1,0,0:0:0:0:
341,251,4973,1,0,0:0:0:0:
341,132,4974,1,0,0:0:0:0:
337,135,4975,1,0,0:0:0:0:
332,245,4976,1,0,0:0:0:0:
332,138,4977,1,0,0:0:0:0:
328,141,4978,1,0,0:0:0:0:
324,239,4979,1,0,0:0:0:0:
324,144,4980,1,0,0:0:0:0:
319,147,4981,1,0,0:0:0:0:
315,233,4982,1,0,0:0:0:0:
315,150,4983,1,0,0:0:0:0:
311,153,4984,1,0,0:0:0:0:
306,227,4985,1,0,0:0:0:0:
306,156,4986,1,0,0:0:0:0:
302,160,4987,1,0,0:0:0:0:
297,220,4988,1,0,0:0:0:0:
297,163,4989,1,0,0:0:0:0:
293,166,4990,1,0,0:0:0:0:
289,214,4991,1,0,0:0:0:0:
289,169,4992,1,0,0:0:0:0:
284,172,4993,1,0,0:0:0:0:
280,208,4994,1,0,0:0:0:0:
280,175,4995,1,0,0:0:0:0:
275,178,4996,1,0,0:0:0:0:
271,202,4997,1,0,0:0:0:0:
271,181,4998,1,0,0:0:0:0:
267,184,4999,1,0,0:0:0:0:
262,196,5000,1,0,0:0:0:0:
262,187,5001,1,0,0:0:0:0:
258,190,5002,1,0,0:0:0:0:
253,190,5003,1,0,0:0:0:0:
253,193,5004,1,0,0:0:0:0:
249,196,5005,1,0,0:0:0:0:
244,184,5006,1,0,0:0:0:0:
244,199,5007,1,0,0:0:0:0:
240,202,5008,1,0,0:0:0:0:
235,178,5009,1,0,0:0:0:0:
235,205,5010,1,0,0:0:0:0:
231,208,5011,1,0,0:0:0:0:
227,172,5012,1,0,0:0:0:0:
227,211,5013,1,0,0:0:0:0:
222,214,5014,1,0,0:0:0:0:
218,166,5015,1,0,0:0:0:0:
218,217,5016,1,0,0:0:0:0:
213,219,5017,1,0,0:0:0:0:
209,161,5018,1,0,0:0:0:0:
209,222,5019,1,0,0:0:0:0:
204,225,5020,1,0,0:0:0:0:
200,155,5021,1,0,0:0:0:0:
200,228,5022,1,0,0:0:0:0:
195,231,5023,1,0,0:0:0:0:
191,149,5024,1,0,0:0:0:0:
191,234,5025,1,0,0:0:0:0:
186,237,5026,1,0,0:0:0:0:
181,144,5027,1,0,0:0:0:0:
181,239,5028,1,0,0:0:0:0:
177,242,5029,1,0,0:0:0:0:
172,138,5030,1,0,0:0:0:0:
172,245,5031,1,0,0:0:0:0:
168,248,5032,1,0,0:0:0:0:
163,132,5033,1,0,0:0:0:0:
163,251,5034,1,0,0:0:0:0:
158,253,5035,1,0,0:0:0:0:
154,127,5036,1,0,0:0:0:0:
154,256,5037,1,0,0:0:0:0:
149,259,5038,1,0,0:0:0:0:
144,122,5039,1,0,0:0:0:0:
144,261,5040,1,0,0:0:0:0:
140,264,5041,1,0,0:0:0:0:
135,117,5042,1,0,0:0:0:0:
135,266,5043,1,0,0:0:0:0:
130,269,5044,1,0,0:0:0:0:
126,112,5045,1,0,0:0:0:0:
126,271,5046,1,0,0:0:0:0:
121,274,5047,1,0,0:0:0:0:
116,107,5048,1,0,0:0:0:0:
116,276,5049,1,0,0:0:0:0:
111,279,5050,1,0,0:0:0:0:
106,102,5051,1,0,0:0:0:0:
106,281,5052,1,0,0:0:0:0:
102,283,5053,1,0,0:0:0:0:
97,98,5054,1,0,0:0:0:0:
97,285,5055,1,0,0:0:0:0:
92,287,5056,1,0,0:0:0:0:
87,94,5057,1,0,0:0:0:0:
87,289,5058,1,0,0:0:0:0:
82,291,5059,1,0,0:0:0:0:
76,91,5060,1,0,0:0:0:0:
76,292,5061,1,0,0:0:0:0:
71,293,5062,1,0,0:0:0:0:
66,89,5063,1,0,0:0:0:0:
66,294,5064,1,0,0:0:0:0:
61,295,5065,1,0,0:0:0:0:
55,88,5066,1,0,0:0:0:0:
55,295,5067,1,0,0:0:0:0:
50,293,5068,1,0,0:0:0:0:
46,94,5069,1,0,0:0:0:0:
46,289,5070,1,0,0:0:0:0:
44,285,5071,1,0,0:0:0:0:
24,24,5103,1,0,0:0:0:0:
28,27,5104,1,0,0:0:0:0:
32,30,5106,1,0,0:0:0:0:
36,33,5107,1,0,0:0:0:0:
41,36,5109,1,0,0:0:0:0:
45,40,5110,1,0,0:0:0:0:
49,43,5112,1,0,0:0:0:0:
53,46,5113,1,0,0:0:0:0:
58,49,5115,1,0,0:0:0:0:
62,52,5116,1,0,0:0:0:0:
66,56,5118,1,0,0:0:0:0:
71,59,5119,1,0,0:0:0:0:
75,62,5121,1,0,0:0:0:0:
79,65,5122,1,0,0:0:0:0:
83,68,5124,1,0,0:0:0:0:
88,72,5125,1,0,0:0:0:0:
24,360,5126,1,0,0:0:0:0:
24,24,5127,1,0,0:0:0:0:
28,27,5128,1,0,0:0:0:0:
32,353,5129,1,0,0:0:0:0:
32,30,5130,1,0,0:0:0:0:
36,33,5131,1,0,0:0:0:0:
41,347,5132,1,0,0:0:0:0:
41,36,5133,1,0,0:0:0:0:
45,40,5134,1,0,0:0:0:0:
49,340,5135,1,0,0:0:0:0:
49,43,5136,1,0,0:0:0:0:
53,46,5137,1,0,0:0:0:0:
58,334,5138,1,0,0:0:0:0:
58,49,5139,1,0,0:0:0:0:
62,52,5140,1,0,0:0:0:0:
66,327,5141,1,0,0:0:0:0:
66,56,5142,1,0,0:0:0:0:
71,59,5143,1,0,0:0:0:0:
75,321,5144,1,0,0:0:0:0:
75,62,5145,1,0,0:0:0:0:
79,65,5146,1,0,0:0:0:0:
83,315,5147,1,0,0:0:0:0:
83,68,5148,1,0,0:0:0:0:
88,72,5149,1,0,0:0:0:0:
92,308,5150,1,0,0:0:0:0:
92,75,5151,1,0,0:0:0:0:
96,78,5152,1,0,0:0:0:0:
101,302,5153,1,0,0:0:0:0:
101,81,5154,1,0,0:0:0:0:
105,84,5155,1,0,0:0:0:0:
109,295,5156,1,0,0:0:0:0:
109,88,5157,1,0,0:0:0:0:
114,91,5158,1,0,0:0:0:0:
118,289,5159,1,0,0:0:0:0:
118,94,5160,1,0,0:0:0:0:
122,97,5161,1,0,0:0:0:0:
127,283,5162,1,0,0:0:0:0:
127,100,5163,1,0,0:0:0:0:
131,103,5164,1,0,0:0:0:0:
135,276,5165,1,0,0:0:0:0:
135,107,5166,1,0,0:0:0:0:
140,110,5167,1,0,0:0:0:0:
144,270,5168,1,0,0:0:0:0:
144,113,5169,1,0,0:0:0:0:
148,116,5170,1,0,0:0:0:0:
153,264,5171,1,0,0:0:0:0:
153,119,5172,1,0,0:0:0:0:
157,122,5173,1,0,0:0:0:0:
161,258,5174,1,0,0:0:0:0:
161,125,5175,1,0,0:0:0:0:
166,129,5176,1,0,0:0:0:0:
170,251,5177,1,0,0:0:0:0:
170,132,5178,1,0,0:0:0:0:
174,135,5179,1,0,0:0:0:0:
179,245,5180,1,0,0:0:0:0:
179,138,5181,1,0,0:0:0:0:
183,141,5182,1,0,0:0:0:0:
187,239,5183,1,0,0:0:0:0:
187,144,5184,1,0,0:0:0:0:
192,147,5185,1,0,0:0:0:0:
196,233,5186,1,0,0:0:0:0:
196,150,5187,1,0,0:0:0:0:
200,153,5188,1,0,0:0:0:0:
205,227,5189,1,0,0:0:0:0:
205,156,5190,1,0,0:0:0:0:
209,160,5191,1,0,0:0:0:0:
214,220,5192,1,0,0:0:0:0:
214,163,5193,1,0,0:0:0:0:
218,166,5194,1,0,0:0:0:0:
222,214,5195,1,0,0:0:0:0:
222,169,5196,1,0,0:0:0:0:
227,172,5197,1,0,0:0:0:0:
231,208,5198,1,0,0:0:0:0:
231,175,5199,1,0,0:0:0:0:
236,178,5200,1,0,0:0:0:0:
240,202,5201,1,0,0:0:0:0:
240,181,5202,1,0,0:0:0:0:
244,184,5203,1,0,0:0:0:0:
249,196,5204,1,0,0:0:0:0:
249,187,5205,1,0,0:0:0:0:
253,190,5206,1,0,0:0:0:0:
258,190,5207,1,0,0:0:0:0:
258,193,5208,1,0,0:0:0:0:
262,196,5209,1,0,0:0:0:0:
267,184,5210,1,0,0:0:0:0:
267,199,5211,1,0,0:0:0:0:
271,202,5212,1,0,0:0:0:0:
276,178,5213,1,0,0:0:0:0:
276,205,5214,1,0,0:0:0:0:
280,208,5215,1,0,0:0:0:0:
284,172,5216,1,0,0:0:0:0:
284,211,5217,1,0,0:0:0:0:
289,214,5218,1,0,0:0:0:0:
293,166,5219,1,0,0:0:0:0:
293,217,5220,1,0,0:0:0:0:
298,219,5221,1,0,0:0:0:0:
302,161,5222,1,0,0:0:0:0:
302,222,5223,1,0,0:0:0:0:
307,225,5224,1,0,0:0:0:0:
311,155,5225,1,0,0:0:0:0:
311,228,5226,1,0,0:0:0:0:
316,231,5227,1,0,0:0:0:0:
320,149,5228,1,0,0:0:0:0:
320,234,5229,1,0,0:0:0:0:
325,237,5230,1,0,0:0:0:0:
330,144,5231,1,0,0:0:0:0:
488,24,5232,1,0,0:0:0:0:
483,27,5233,1,0,0:0:0:0:
339,138,5234,1,0,0:0:0:0:
479,30,5235,1,0,0:0:0:0:
475,33,5236,1,0,0:0:0:0:
348,132,5237,1,0,0:0:0:0:
470,36,5238,1,0,0:0:0:0:
466,40,5239,1,0,0:0:0:0:
357,127,5240,1,0,0:0:0:0:
462,43,5241,1,0,0:0:0:0:
458,46,5242,1,0,0:0:0:0:
367,122,5243,1,0,0:0:0:0:
453,49,5244,1,0,0:0:0:0:
449,52,5245,1,0,0:0:0:0:
376,117,5246,1,0,0:0:0:0:
445,56,5247,1,0,0:0:0:0:
440,59,5248,1,0,0:0:0:0:
385,112,5249,1,0,0:0:0:0:
436,62,5250,1,0,0:0:0:0:
432,65,5251,1,0,0:0:0:0:
395,107,5252,1,0,0:0:0:0:
428,68,5253,1,0,0:0:0:0:
423,72,5254,1,0,0:0:0:0:
405,102,5255,1,0,0:0:0:0:
419,75,5256,1,0,0:0:0:0:
415,78,5257,1,0,0:0:0:0:
414,98,5258,1,0,0:0:0:0:
410,81,5259,1,0,0:0:0:0:
406,84,5260,1,0,0:0:0:0:
424,94,5261,1,0,0:0:0:0:
402,88,5262,1,0,0:0:0:0:
397,91,5263,1,0,0:0:0:0:
435,91,5264,1,0,0:0:0:0:
393,94,5265,1,0,0:0:0:0:
389,97,5266,1,0,0:0:0:0:
445,89,5267,1,0,0:0:0:0:
384,100,5268,1,0,0:0:0:0:
380,103,5269,1,0,0:0:0:0:
456,88,5270,1,0,0:0:0:0:
376,107,5271,1,0,0:0:0:0:
371,110,5272,1,0,0:0:0:0:
465,94,5273,1,0,0:0:0:0:
367,113,5274,1,0,0:0:0:0:
363,116,5275,1,0,0:0:0:0:
358,119,5277,1,0,0:0:0:0:
354,122,5278,1,0,0:0:0:0:
350,125,5280,1,0,0:0:0:0:
345,129,5281,1,0,0:0:0:0:
341,132,5283,1,0,0:0:0:0:
337,135,5284,1,0,0:0:0:0:
332,138,5286,1,0,0:0:0:0:
328,141,5287,1,0,0:0:0:0:
324,144,5289,1,0,0:0:0:0:
319,147,5290,1,0,0:0:0:0:
315,150,5292,1,0,0:0:0:0:
311,153,5293,1,0,0:0:0:0:
306,156,5295,1,0,0:0:0:0:
302,160,5296,1,0,0:0:0:0:
297,163,5298,1,0,0:0:0:0:
293,166,5299,1,0,0:0:0:0:
289,169,5301,1,0,0:0:0:0:
284,172,5302,1,0,0:0:0:0:
280,175,5304,1,0,0:0:0:0:
275,178,5305,1,0,0:0:0:0:
271,181,5307,1,0,0:0:0:0:
267,184,5308,1,0,0:0:0:0:
262,187,5310,1,0,0:0:0:0:
258,190,5311,1,0,0:0:0:0:
253,193,5313,1,0,0:0:0:0:
249,196,5314,1,0,0:0:0:0:
244,199,5316,1,0,0:0:0:0:
240,202,5317,1,0,0:0:0:0:
235,205,5319,1,0,0:0:0:0:
231,208,5320,1,0,0:0:0:0:
227,211,5322,1,0,0:0:0:0:
222,214,5323,1,0,0:0:0:0:
218,217,5325,1,0,0:0:0:0:
213,219,5326,1,0,0:0:0:0:
209,222,5328,1,0,0:0:0:0:
204,225,5329,1,0,0:0:0:0:
200,228,5331,1,0,0:0:0:0:
195,231,5332,1,0,0:0:0:0:
191,234,5334,1,0,0:0:0:0:
186,237,5335,1,0,0:0:0:0:
181,239,5337,1,0,0:0:0:0:
177,242,5338,1,0,0:0:0:0:
172,245,5340,1,0,0:0:0:0:
168,248,5341,1,0,0:0:0:0:
163,251,5343,1,0,0:0:0:0:
158,253,5344,1,0,0:0:0:0:
154,256,5346,1,0,0:0:0:0:
149,259,5347,1,0,0:0:0:0:
144,261,5349,1,0,0:0:0:0:
140,264,5350,1,0,0:0:0:0:
135,266,5352,1,0,0:0:0:0:
130,269,5353,1,0,0:0:0:0:
126,271,5355,1,0,0:0:0:0:
121,274,5356,1,0,0:0:0:0:
116,276,5358,1,0,0:0:0:0:
111,279,5359,1,0,0:0:0:0:
106,281,5361,1,0,0:0:0:0:
102,283,5362,1,0,0:0:0:0:
97,285,5364,1,0,0:0:0:0:
92,287,5365,1,0,0:0:0:0:
87,289,5367,1,0,0:0:0:0:
82,291,5368,1,0,0:0:0:0:
76,292,5370,1,0,0:0:0:0:
71,293,5371,1,0,0:0:0:0:
66,294,5373,1,0,0:0:0:0:
61,295,5374,1,0,0:0:0:0:
55,295,5376,1,0,0:0:0:0:
50,293,5377,1,0,0:0:0:0:
46,289,5379,1,0,0:0:0:0:
44,285,5380,1,0,0:0:0:0:
244,184,5382,1,0,0:0:0:0:
240,181,5383,1,0,0:0:0:0:
235,178,5385,1,0,0:0:0:0:
231,175,5386,1,0,0:0:0:0:
227,172,5388,1,0,0:0:0:0:
222,169,5389,1,0,0:0:0:0:
218,166,5391,1,0,0:0:0:0:
213,164,5392,1,0,0:0:0:0:
209,161,5394,1,0,0:0:0:0:
204,158,5395,1,0,0:0:0:0:
200,155,5397,1,0,0:0:0:0:
195,152,5398,1,0,0:0:0:0:
191,149,5400,1,0,0:0:0:0:
186,146,5401,1,0,0:0:0:0:
181,144,5403,1,0,0:0:0:0:
177,141,5404,1,0,0:0:0:0:
172,138,5406,1,0,0:0:0:0:
168,135,5407,1,0,0:0:0:0:
163,132,5409,1,0,0:0:0:0:
158,130,5410,1,0,0:0:0:0:
154,127,5412,1,0,0:0:0:0:
149,124,5413,1,0,0:0:0:0:
144,122,5415,1,0,0:0:0:0:
140,119,5416,1,0,0:0:0:0:
135,117,5418,1,0,0:0:0:0:
130,114,5419,1,0,0:0:0:0:
126,112,5421,1,0,0:0:0:0:
121,109,5422,1,0,0:0:0:0:
116,107,5424,1,0,0:0:0:0:
111,104,5425,1,0,0:0:0:0:
106,102,5427,1,0,0:0:0:0:
102,100,5428,1,0,0:0:0:0:
97,98,5430,1,0,0:0:0:0:
92,96,5431,1,0,0:0:0:0:
87,94,5433,1,0,0:0:0:0:
82,92,5434,1,0,0:0:0:0:
24,24,5436,1,0,0:0:0:0:
28,27,5437,1,0,0:0:0:0:
32,30,5439,1,0,0:0:0:0:
36,33,5440,1,0,0:0:0:0:
41,36,5442,1,0,0:0:0:0:
45,40,5443,1,0,0:0:0:0:
49,43,5445,1,0,0:0:0:0:
53,46,5446,1,0,0:0:0:0:
58,49,5448,1,0,0:0:0:0:
62,52,5449,1,0,0:0:0:0:
66,56,5451,1,0,0:0:0:0:
71,59,5452,1,0,0:0:0:0:
75,62,5454,1,0,0:0:0:0:
79,65,5455,1,0,0:0:0:0:
83,68,5457,1,0,0:0:0:0:
88,72,5458,1,0,0:0:0:0:
92,75,5460,1,0,0:0:0:0:
96,78,5461,1,0,0:0:0:0:
101,81,5463,1,0,0:0:0:0:
105,84,5464,1,0,0:0:0:0:
109,88,5466,1,0,0:0:0:0:
114,91,5467,1,0,0:0:0:0:
118,94,5469,1,0,0:0:0:0:
122,97,5470,1,0,0:0:0:0:
127,100,5472,1,0,0:0:0:0:
131,103,5473,1,0,0:0:0:0:
135,107,5475,1,0,0:0:0:0:
140,110,5476,1,0,0:0:0:0:
144,113,5478,1,0,0:0:0:0:
148,116,5479,1,0,0:0:0:0:
153,119,5481,1,0,0:0:0:0:
157,122,5482,1,0,0:0:0:0:
161,125,5484,1,0,0:0:0:0:
166,129,5485,1,0,0:0:0:0:
170,132,5487,1,0,0:0:0:0:
174,135,5488,1,0,0:0:0:0:
179,138,5490,1,0,0:0:0:0:
183,141,5491,1,0,0:0:0:0:
187,144,5493,1,0,0:0:0:0:
192,147,5494,1,0,0:0:0:0:
196,150,5496,1,0,0:0:0:0:
200,153,5497,1,0,0:0:0:0:
205,156,5499,1,0,0:0:0:0:
209,160,5500,1,0,0:0:0:0:
214,163,5502,1,0,0:0:0:0:
218,166,5503,1,0,0:0:0:0:
222,169,5505,1,0,0:0:0:0:
227,172,5506,1,0,0:0:0:0:
231,175,5508,1,0,0:0:0:0:
236,178,5509,1,0,0:0:0:0:
240,181,5511,1,0,0:0:0:0:
244,184,5512,1,0,0:0:0:0:
249,187,5514,1,0,0:0:0:0:
253,190,5515,1,0,0:0:0:0:
258,193,5517,1,0,0:0:0:0:
262,196,5518,1,0,0:0:0:0:
267,199,5520,1,0,0:0:0:0:
271,202,5521,1,0,0:0:0:0:
276,205,5523,1,0,0:0:0:0:
280,208,5524,1,0,0:0:0:0:
284,211,5526,1,0,0:0:0:0:
289,214,5527,1,0,0:0:0:0:
293,217,5529,1,0,0:0:0:0:
298,219,5530,1,0,0:0:0:0:
302,222,5532,1,0,0:0:0:0:
307,225,5533,1,0,0:0:0:0:
311,228,5535,1,0,0:0:0:0:
316,231,5536,1,0,0:0:0:0:
320,234,5538,1,0,0:0:0:0:
325,237,5539,1,0,0:0:0:0:
330,239,5541,1,0,0:0:0:0:
334,242,5542,1,0,0:0:0:0:
339,245,5544,1,0,0:0:0:0:
343,248,5545,1,0,0:0:0:0:
348,251,5547,1,0,0:0:0:0:
353,253,5548,1,0,0:0:0:0:
357,256,5550,1,0,0:0:0:0:
362,259,5551,1,0,0:0:0:0:
367,261,5553,1,0,0:0:0:0:
371,264,5554,1,0,0:0:0:0:
376,266,5556,1,0,0:0:0:0:
381,269,5557,1,0,0:0:0:0:
385,271,5559,1,0,0:0:0:0:
390,274,5560,1,0,0:0:0:0:
395,276,5562,1,0,0:0:0:0:
400,279,5563,1,0,0:0:0:0:
405,281,5565,1,0,0:0:0:0:
409,283,5566,1,0,0:0:0:0:
414,285,5568,1,0,0:0:0:0:
419,287,5569,1,0,0:0:0:0:
424,289,5571,1,0,0:0:0:0:
429,291,5572,1,0,0:0:0:0:
435,292,5574,1,0,0:0:0:0:
440,293,5575,1,0,0:0:0:0:
445,294,5577,1,0,0:0:0:0:
450,295,5578,1,0,0:0:0:0:
456,295,5580,1,0,0:0:0:0:
461,293,5581,1,0,0:0:0:0:
465,289,5583,1,0,0:0:0:0:
467,285,5584,1,0,0:0:0:0:
267,184,5586,1,0,0:0:0:0:
271,181,5587,1,0,0:0:0:0:
276,178,5589,1,0,0:0:0:0:
280,175,5590,1,0,0:0:0:0:
284,172,5592,1,0,0:0:0:0:
289,169,5593,1,0,0:0:0:0:
293,166,5595,1,0,0:0:0:0:
298,164,5596,1,0,0:0:0:0:
302,161,5598,1,0,0:0:0:0:
307,158,5599,1,0,0:0:0:0:
311,155,5601,1,0,0:0:0:0:
316,152,5602,1,0,0:0:0:0:
320,149,5604,1,0,0:0:0:0:
325,146,5605,1,0,0:0:0:0:
488,360,5607,1,0,0:0:0:0:
483,356,5608,1,0,0:0:0:0:
479,353,5610,1,0,0:0:0:0:
475,350,5611,1,0,0:0:0:0:
470,347,5613,1,0,0:0:0:0:
466,343,5614,1,0,0:0:0:0:
462,340,5616,1,0,0:0:0:0:
458,337,5617,1,0,0:0:0:0:
453,334,5619,1,0,0:0:0:0:
449,331,5620,1,0,0:0:0:0:
445,327,5622,1,0,0:0:0:0:
440,324,5623,1,0,0:0:0:0:
436,321,5625,1,0,0:0:0:0:
432,318,5626,1,0,0:0:0:0:
428,315,5628,1,0,0:0:0:0:
423,311,5629,1,0,0:0:0:0:
419,308,5631,1,0,0:0:0:0:
415,305,5632,1,0,0:0:0:0:
410,302,5634,1,0,0:0:0:0:
406,299,5635,1,0,0:0:0:0:
402,295,5637,1,0,0:0:0:0:
397,292,5638,1,0,0:0:0:0:
393,289,5640,1,0,0:0:0:0:
389,286,5641,1,0,0:0:0:0:
384,283,5643,1,0,0:0:0:0:
380,280,5644,1,0,0:0:0:0:
376,276,5646,1,0,0:0:0:0:
371,273,5647,1,0,0:0:0:0:
367,270,5649,1,0,0:0:0:0:
363,267,5650,1,0,0:0:0:0:
358,264,5652,1,0,0:0:0:0:
354,261,5653,1,0,0:0:0:0:
350,258,5655,1,0,0:0:0:0:
345,254,5656,1,0,0:0:0:0:
341,251,5658,1,0,0:0:0:0:
337,248,5659,1,0,0:0:0:0:
332,245,5661,1,0,0:0:0:0:
328,242,5662,1,0,0:0:0:0:
324,239,5664,1,0,0:0:0:0:
319,236,5665,1,0,0:0:0:0:
315,233,5667,1,0,0:0:0:0:
311,230,5668,1,0,0:0:0:0:
306,227,5670,1,0,0:0:0:0:
302,223,5671,1,0,0:0:0:0:
297,220,5673,1,0,0:0:0:0:
293,217,5674,1,0,0:0:0:0:
289,214,5676,1,0,0:0:0:0:
284,211,5677,1,0,0:0:0:0:
280,208,5679,1,0,0:0:0:0:
275,205,5680,1,0,0:0:0:0:
271,202,5682,1,0,0:0:0:0:
267,199,5683,1,0,0:0:0:0:
262,196,5685,1,0,0:0:0:0:
258,193,5686,1,0,0:0:0:0:
253,190,5688,1,0,0:0:0:0:
249,187,5689,1,0,0:0:0:0:
244,184,5691,1,0,0:0:0:0:
240,181,5692,1,0,0:0:0:0:
235,178,5694,1,0,0:0:0:0:
231,175,5695,1,0,0:0:0:0:
227,172,5697,1,0,0:0:0:0:
222,169,5698,1,0,0:0:0:0:
218,166,5700,1,0,0:0:0:0:
213,164,5701,1,0,0:0:0:0:
209,161,5703,1,0,0:0:0:0:
204,158,5704,1,0,0:0:0:0:
200,155,5706,1,0,0:0:0:0:
195,152,5707,1,0,0:0:0:0:
191,149,5709,1,0,0:0:0:0:
186,146,5710,1,0,0:0:0:0:
181,144,5712,1,0,0:0:0:0:
177,141,5713,1,0,0:0:0:0:
172,138,5715,1,0,0:0:0:0:
168,135,5716,1,0,0:0:0:0:
163,132,5718,1,0,0:0:0:0:
158,130,5719,1,0,0:0:0:0:
154,127,5721,1,0,0:0:0:0:
149,124,5722,1,0,0:0:0:0:
144,122,5724,1,0,0:0:0:0:
140,119,5725,1,0,0:0:0:0:
135,117,5727,1,0,0:0:0:0:
130,114,5728,1,0,0:0:0:0:
126,112,5730,1,0,0:0:0:0:
121,109,5731,1,0,0:0:0:0:
116,107,5733,1,0,0:0:0:0:
111,104,5734,1,0,0:0:0:0:
106,102,5736,1,0,0:0:0:0:
102,100,5737,1,0,0:0:0:0:
97,98,5739,1,0,0:0:0:0:
92,96,5740,1,0,0:0:0:0:
87,94,5742,1,0,0:0:0:0:
82,92,5743,1,0,0:0:0:0:
76,91,5745,1,0,0:0:0:0:
71,90,5746,1,0,0:0:0:0:
66,89,5748,1,0,0:0:0:0:
61,88,5749,1,0,0:0:0:0:
55,88,5751,1,0,0:0:0:0:
50,90,5752,1,0,0:0:0:0:
46,94,5754,1,0,0:0:0:0:
44,98,5755,1,0,0:0:0:0:
462,43,5757,1,0,0:0:0:0:
458,46,5758,1,0,0:0:0:0:
453,49,5760,1,0,0:0:0:0:
449,52,5761,1,0,0:0:0:0:
445,56,5763,1,0,0:0:0:0:
440,59,5764,1,0,0:0:0:0:
436,62,5766,1,0,0:0:0:0:
432,65,5767,1,0,0:0:0:0:
428,68,5769,1,0,0:0:0:0:
423,72,5770,1,0,0:0:0:0:
419,75,5772,1,0,0:0:0:0:
415,78,5773,1,0,0:0:0:0:
410,81,5775,1,0,0:0:0:0:
406,84,5776,1,0,0:0:0:0:
402,88,5778,1,0,0:0:0:0:
397,91,5779,1,0,0:0:0:0:
393,94,5781,1,0,0:0:0:0:
389,97,5782,1,0,0:0:0:0:
384,100,5784,1,0,0:0:0:0:
380,103,5785,1,0,0:0:0:0:
376,107,5787,1,0,0:0:0:0:
371,110,5788,1,0,0:0:0:0:
367,113,5790,1,0,0:0:0:0:
363,116,5791,1,0,0:0:0:0:
358,119,5793,1,0,0:0:0:0:
354,122,5794,1,0,0:0:0:0:
350,125,5796,1,0,0:0:0:0:
345,129,5797,1,0,0:0:0:0:
341,132,5799,1,0,0:0:0:0:
337,135,5800,1,0,0:0:0:0:
332,138,5802,1,0,0:0:0:0:
328,141,5803,1,0,0:0:0:0:
324,144,5805,1,0,0:0:0:0:
319,147,5806,1,0,0:0:0:0:
315,150,5808,1,0,0:0:0:0:
311,153,5809,1,0,0:0:0:0:
24,360,5811,1,0,0:0:0:0:
28,356,5812,1,0,0:0:0:0:
32,353,5814,1,0,0:0:0:0:
36,350,5815,1,0,0:0:0:0:
41,347,5817,1,0,0:0:0:0:
45,343,5818,1,0,0:0:0:0:
49,340,5820,1,0,0:0:0:0:
53,337,5821,1,0,0:0:0:0:
58,334,5823,1,0,0:0:0:0:
62,331,5824,1,0,0:0:0:0:
66,327,5826,1,0,0:0:0:0:
71,324,5827,1,0,0:0:0:0:
75,321,5829,1,0,0:0:0:0:
79,318,5830,1,0,0:0:0:0:
83,315,5832,1,0,0:0:0:0:
88,311,5833,1,0,0:0:0:0:
92,308,5835,1,0,0:0:0:0:
96,305,5836,1,0,0:0:0:0:
101,302,5838,1,0,0:0:0:0:
105,299,5839,1,0,0:0:0:0:
109,295,5841,1,0,0:0:0:0:
114,292,5842,1,0,0:0:0:0:
118,289,5844,1,0,0:0:0:0:
122,286,5845,1,0,0:0:0:0:
127,283,5847,1,0,0:0:0:0:
131,280,5848,1,0,0:0:0:0:
135,276,5850,1,0,0:0:0:0:
140,273,5851,1,0,0:0:0:0:
144,270,5853,1,0,0:0:0:0:
148,267,5854,1,0,0:0:0:0:
153,264,5856,1,0,0:0:0:0:
157,261,5857,1,0,0:0:0:0:
161,258,5859,1,0,0:0:0:0:
166,254,5860,1,0,0:0:0:0:
170,251,5862,1,0,0:0:0:0:
174,248,5863,1,0,0:0:0:0:
179,245,5865,1,0,0:0:0:0:
183,242,5866,1,0,0:0:0:0:
187,239,5868,1,0,0:0:0:0:
192,236,5869,1,0,0:0:0:0:
196,233,5871,1,0,0:0:0:0:
200,230,5872,1,0,0:0:0:0:
205,227,5874,1,0,0:0:0:0:
209,223,5875,1,0,0:0:0:0:
214,220,5877,1,0,0:0:0:0:
218,217,5878,1,0,0:0:0:0:
222,214,5880,1,0,0:0:0:0:
227,211,5881,1,0,0:0:0:0:
231,208,5883,1,0,0:0:0:0:
236,205,5884,1,0,0:0:0:0:
240,202,5886,1,0,0:0:0:0:
244,199,5887,1,0,0:0:0:0:
249,196,5889,1,0,0:0:0:0:
253,193,5890,1,0,0:0:0:0:
258,190,5892,1,0,0:0:0:0:
262,187,5893,1,0,0:0:0:0:
267,184,5895,1,0,0:0:0:0:
271,181,5896,1,0,0:0:0:0:
276,178,5898,1,0,0:0:0:0:
280,175,5899,1,0,0:0:0:0:
284,172,5901,1,0,0:0:0:0:
289,169,5902,1,0,0:0:0:0:
293,166,5904,1,0,0:0:0:0:
298,164,5905,1,0,0:0:0:0:
302,161,5907,1,0,0:0:0:0:
307,158,5908,1,0,0:0:0:0:
311,155,5910,1,0,0:0:0:0:
316,152,5911,1,0,0:0:0:0:
320,149,5913,1,0,0:0:0:0:
325,146,5914,1,0,0:0:0:0:
330,144,5916,1,0,0:0:0:0:
334,141,5917,1,0,0:0:0:0:
339,138,5919,1,0,0:0:0:0:
343,135,5920,1,0,0:0:0:0:
348,132,5922,1,0,0:0:0:0:
353,130,5923,1,0,0:0:0:0:
357,127,5925,1,0,0:0:0:0:
362,124,5926,1,0,0:0:0:0:
367,122,5928,1,0,0:0:0:0:
371,119,5929,1,0,0:0:0:0:
376,117,5931,1,0,0:0:0:0:
381,114,5932,1,0,0:0:0:0:
385,112,5934,1,0,0:0:0:0:
390,109,5935,1,0,0:0:0:0:
395,107,5937,1,0,0:0:0:0:
400,104,5938,1,0,0:0:0:0:
405,102,5940,1,0,0:0:0:0:
409,100,5941,1,0,0:0:0:0:
414,98,5943,1,0,0:0:0:0:
419,96,5944,1,0,0:0:0:0:
424,94,5946,1,0,0:0:0:0:
429,92,5947,1,0,0:0:0:0:
435,91,5949,1,0,0:0:0:0:
440,90,5950,1,0,0:0:0:0:
445,89,5952,1,0,0:0:0:0:
450,88,5953,1,0,0:0:0:0:
456,88,5955,1,0,0:0:0:0:
461,90,5956,1,0,0:0:0:0:
465,94,5958,1,0,0:0:0:0:
467,98,5959,1,0,0:0:0:0:
49,43,5961,1,0,0:0:0:0:
53,46,5962,1,0,0:0:0:0:
58,49,5964,1,0,0:0:0:0:
62,52,5965,1,0,0:0:0:0:
66,56,5967,1,0,0:0:0:0:
71,59,5968,1,0,0:0:0:0:
75,62,5970,1,0,0:0:0:0:
79,65,5971,1,0,0:0:0:0:
83,68,5973,1,0,0:0:0:0:
88,72,5974,1,0,0:0:0:0:
92,75,5976,1,0,0:0:0:0:
96,78,5977,1,0,0:0:0:0:
101,81,5979,1,0,0:0:0:0:
105,84,5980,1,0,0:0:0:0:
109,88,5982,1,0,0:0:0:0:
114,91,5983,1,0,0:0:0:0:
118,94,5985,1,0,0:0:0:0:
122,97,5986,1,0,0:0:0:0:
127,100,5988,1,0,0:0:0:0:
131,103,5989,1,0,0:0:0:0:
135,107,5991,1,0,0:0:0:0:
140,110,5992,1,0,0:0:0:0:
488,24,5993,1,0,0:0:0:0:
483,27,5994,1,0,0:0:0:0:
148,116,5995,1,0,0:0:0:0:
479,30,5996,1,0,0:0:0:0:
475,33,5997,1,0,0:0:0:0:
157,122,5998,1,0,0:0:0:0:
470,36,5999,1,0,0:0:0:0:
466,40,6000,1,0,0:0:0:0:
166,129,6001,1,0,0:0:0:0:
462,43,6002,1,0,0:0:0:0:
458,46,6003,1,0,0:0:0:0:
174,135,6004,1,0,0:0:0:0:
453,49,6005,1,0,0:0:0:0:
449,52,6006,1,0,0:0:0:0:
183,141,6007,1,0,0:0:0:0:
445,56,6008,1,0,0:0:0:0:
440,59,6009,1,0,0:0:0:0:
192,147,6010,1,0,0:0:0:0:
436,62,6011,1,0,0:0:0:0:
432,65,6012,1,0,0:0:0:0:
200,153,6013,1,0,0:0:0:0:
428,68,6014,1,0,0:0:0:0:
423,72,6015,1,0,0:0:0:0:
209,160,6016,1,0,0:0:0:0:
419,75,6017,1,0,0:0:0:0:
415,78,6018,1,0,0:0:0:0:
218,166,6019,1,0,0:0:0:0:
410,81,6020,1,0,0:0:0:0:
406,84,6021,1,0,0:0:0:0:
227,172,6022,1,0,0:0:0:0:
402,88,6023,1,0,0:0:0:0:
397,91,6024,1,0,0:0:0:0:
236,178,6025,1,0,0:0:0:0:
393,94,6026,1,0,0:0:0:0:
389,97,6027,1,0,0:0:0:0:
244,184,6028,1,0,0:0:0:0:
384,100,6029,1,0,0:0:0:0:
380,103,6030,1,0,0:0:0:0:
253,190,6031,1,0,0:0:0:0:
376,107,6032,1,0,0:0:0:0:
371,110,6033,1,0,0:0:0:0:
262,196,6034,1,0,0:0:0:0:
367,113,6035,1,0,0:0:0:0:
363,116,6036,1,0,0:0:0:0:
271,202,6037,1,0,0:0:0:0:
358,119,6038,1,0,0:0:0:0:
354,122,6039,1,0,0:0:0:0:
280,208,6040,1,0,0:0:0:0:
350,125,6041,1,0,0:0:0:0:
345,129,6042,1,0,0:0:0:0:
289,214,6043,1,0,0:0:0:0:
341,132,6044,1,0,0:0:0:0:
337,135,6045,1,0,0:0:0:0:
298,219,6046,1,0,0:0:0:0:
332,138,6047,1,0,0:0:0:0:
328,141,6048,1,0,0:0:0:0:
307,225,6049,1,0,0:0:0:0:
324,144,6050,1,0,0:0:0:0:
319,147,6051,1,0,0:0:0:0:
316,231,6052,1,0,0:0:0:0:
315,150,6053,1,0,0:0:0:0:
311,153,6054,1,0,0:0:0:0:
325,237,6055,1,0,0:0:0:0:
306,156,6056,1,0,0:0:0:0:
302,160,6057,1,0,0:0:0:0:
334,242,6058,1,0,0:0:0:0:
297,163,6059,1,0,0:0:0:0:
293,166,6060,1,0,0:0:0:0:
343,248,6061,1,0,0:0:0:0:
289,169,6062,1,0,0:0:0:0:
284,172,6063,1,0,0:0:0:0:
353,253,6064,1,0,0:0:0:0:
280,175,6065,1,0,0:0:0:0:
275,178,6066,1,0,0:0:0:0:
362,259,6067,1,0,0:0:0:0:
271,181,6068,1,0,0:0:0:0:
267,184,6069,1,0,0:0:0:0:
371,264,6070,1,0,0:0:0:0:
262,187,6071,1,0,0:0:0:0:
258,190,6072,1,0,0:0:0:0:
381,269,6073,1,0,0:0:0:0:
253,193,6074,1,0,0:0:0:0:
249,196,6075,1,0,0:0:0:0:
390,274,6076,1,0,0:0:0:0:
244,199,6077,1,0,0:0:0:0:
240,202,6078,1,0,0:0:0:0:
400,279,6079,1,0,0:0:0:0:
235,205,6080,1,0,0:0:0:0:
231,208,6081,1,0,0:0:0:0:
409,283,6082,1,0,0:0:0:0:
227,211,6083,1,0,0:0:0:0:
222,214,6084,1,0,0:0:0:0:
419,287,6085,1,0,0:0:0:0:
218,217,6086,1,0,0:0:0:0:
213,219,6087,1,0,0:0:0:0:
429,291,6088,1,0,0:0:0:0:
209,222,6089,1,0,0:0:0:0:
204,225,6090,1,0,0:0:0:0:
440,293,6091,1,0,0:0:0:0:
200,228,6092,1,0,0:0:0:0:
195,231,6093,1,0,0:0:0:0:
450,295,6094,1,0,0:0:0:0:
191,234,6095,1,0,0:0:0:0:
186,237,6096,1,0,0:0:0:0:
461,293,6097,1,0,0:0:0:0:
181,239,6098,1,0,0:0:0:0:
177,242,6099,1,0,0:0:0:0:
467,285,6100,1,0,0:0:0:0:
172,245,6101,1,0,0:0:0:0:
168,248,6102,1,0,0:0:0:0:
163,251,6104,1,0,0:0:0:0:
158,253,6105,1,0,0:0:0:0:
154,256,6107,1,0,0:0:0:0:
149,259,6108,1,0,0:0:0:0:
144,261,6110,1,0,0:0:0:0:
140,264,6111,1,0,0:0:0:0:
135,266,6113,1,0,0:0:0:0:
130,269,6114,1,0,0:0:0:0:
126,271,6116,1,0,0:0:0:0:
121,274,6117,1,0,0:0:0:0:
116,276,6119,1,0,0:0:0:0:
111,279,6120,1,0,0:0:0:0:
106,281,6122,1,0,0:0:0:0:
102,283,6123,1,0,0:0:0:0:
483,356,6124,1,0,0:0:0:0:
97,285,6125,1,0,0:0:0:0:
92,287,6126,1,0,0:0:0:0:
475,350,6127,1,0,0:0:0:0:
87,289,6128,1,0,0:0:0:0:
82,291,6129,1,0,0:0:0:0:
466,343,6130,1,0,0:0:0:0:
76,292,6131,1,0,0:0:0:0:
71,293,6132,1,0,0:0:0:0:
458,337,6133,1,0,0:0:0:0:
66,294,6134,1,0,0:0:0:0:
61,295,6135,1,0,0:0:0:0:
449,331,6136,1,0,0:0:0:0:
55,295,6137,1,0,0:0:0:0:
50,293,6138,1,0,0:0:0:0:
440,324,6139,1,0,0:0:0:0:
46,289,6140,1,0,0:0:0:0:
44,285,6141,1,0,0:0:0:0:
432,318,6142,1,0,0:0:0:0:
428,315,6144,1,0,0:0:0:0:
423,311,6145,1,0,0:0:0:0:
419,308,6147,1,0,0:0:0:0:
415,305,6148,1,0,0:0:0:0:
410,302,6150,1,0,0:0:0:0:
406,299,6151,1,0,0:0:0:0:
402,295,6153,1,0,0:0:0:0:
397,292,6154,1,0,0:0:0:0:
393,289,6156,1,0,0:0:0:0:
389,286,6157,1,0,0:0:0:0:
384,283,6159,1,0,0:0:0:0:
380,280,6160,1,0,0:0:0:0:
376,276,6162,1,0,0:0:0:0:
371,273,6163,1,0,0:0:0:0:
367,270,6165,1,0,0:0:0:0:
363,267,6166,1,0,0:0:0:0:
358,264,6168,1,0,0:0:0:0:
354,261,6169,1,0,0:0:0:0:
350,258,6171,1,0,0:0:0:0:
345,254,6172,1,0,0:0:0:0:
341,251,6174,1,0,0:0:0:0:
337,248,6175,1,0,0:0:0:0:
332,245,6177,1,0,0:0:0:0:
328,242,6178,1,0,0:0:0:0:
324,239,6180,1,0,0:0:0:0:
319,236,6181,1,0,0:0:0:0:
315,233,6183,1,0,0:0:0:0:
311,230,6184,1,0,0:0:0:0:
306,227,6186,1,0,0:0:0:0:
302,223,6187,1,0,0:0:0:0:
297,220,6189,1,0,0:0:0:0:
293,217,6190,1,0,0:0:0:0:
289,214,6192,1,0,0:0:0:0:
284,211,6193,1,0,0:0:0:0:
280,208,6195,1,0,0:0:0:0:
275,205,6196,1,0,0:0:0:0:
24,24,6197,1,0,0:0:0:0:
28,27,6198,1,0,0:0:0:0:
267,199,6199,1,0,0:0:0:0:
32,30,6200,1,0,0:0:0:0:
36,33,6201,1,0,0:0:0:0:
258,193,6202,1,0,0:0:0:0:
41,36,6203,1,0,0:0:0:0:
45,40,6204,1,0,0:0:0:0:
249,187,6205,1,0,0:0:0:0:
49,43,6206,1,0,0:0:0:0:
53,46,6207,1,0,0:0:0:0:
240,181,6208,1,0,0:0:0:0:
58,49,6209,1,0,0:0:0:0:
62,52,6210,1,0,0:0:0:0:
231,175,6211,1,0,0:0:0:0:
66,56,6212,1,0,0:0:0:0:
71,59,6213,1,0,0:0:0:0:
222,169,6214,1,0,0:0:0:0:
75,62,6215,1,0,0:0:0:0:
79,65,6216,1,0,0:0:0:0:
213,164,6217,1,0,0:0:0:0:
83,68,6218,1,0,0:0:0:0:
88,72,6219,1,0,0:0:0:0:
204,158,6220,1,0,0:0:0:0:
92,75,6221,1,0,0:0:0:0:
96,78,6222,1,0,0:0:0:0:
195,152,6223,1,0,0:0:0:0:
101,81,6224,1,0,0:0:0:0:
105,84,6225,1,0,0:0:0:0:
186,146,6226,1,0,0:0:0:0:
109,88,6227,1,0,0:0:0:0:
114,91,6228,1,0,0:0:0:0:
177,141,6229,1,0,0:0:0:0:
118,94,6230,1,0,0:0:0:0:
122,97,6231,1,0,0:0:0:0:
168,135,6232,1,0,0:0:0:0:
127,100,6233,1,0,0:0:0:0:
131,103,6234,1,0,0:0:0:0:
158,130,6235,1,0,0:0:0:0:
135,107,6236,1,0,0:0:0:0:
140,110,6237,1,0,0:0:0:0:
149,124,6238,1,0,0:0:0:0:
144,113,6239,1,0,0:0:0:0:
148,116,6240,1,0,0:0:0:0:
140,119,6241,1,0,0:0:0:0:
153,119,6242,1,0,0:0:0:0:
157,122,6243,1,0,0:0:0:0:
130,114,6244,1,0,0:0:0:0:
161,125,6245,1,0,0:0:0:0:
166,129,6246,1,0,0:0:0:0:
121,109,6247,1,0,0:0:0:0:
170,132,6248,1,0,0:0:0:0:
174,135,6249,1,0,0:0:0:0:
111,104,6250,1,0,0:0:0:0:
179,138,6251,1,0,0:0:0:0:
183,141,6252,1,0,0:0:0:0:
102,100,6253,1,0,0:0:0:0:
187,144,6254,1,0,0:0:0:0:
192,147,6255,1,0,0:0:0:0:
92,96,6256,1,0,0:0:0:0:
196,150,6257,1,0,0:0:0:0:
200,153,6258,1,0,0:0:0:0:
82,92,6259,1,0,0:0:0:0:
205,156,6260,1,0,0:0:0:0:
209,160,6261,1,0,0:0:0:0:
71,90,6262,1,0,0:0:0:0:
214,163,6263,1,0,0:0:0:0:
218,166,6264,1,0,0:0:0:0:
61,88,6265,1,0,0:0:0:0:
222,169,6266,1,0,0:0:0:0:
227,172,6267,1,0,0:0:0:0:
50,90,6268,1,0,0:0:0:0:
231,175,6269,1,0,0:0:0:0:
236,178,6270,1,0,0:0:0:0:
44,98,6271,1,0,0:0:0:0:
240,181,6272,1,0,0:0:0:0:
244,184,6273,1,0,0:0:0:0:
249,187,6275,1,0,0:0:0:0:
253,190,6276,1,0,0:0:0:0:
258,193,6278,1,0,0:0:0:0:
262,196,6279,1,0,0:0:0:0:
267,199,6281,1,0,0:0:0:0:
271,202,6282,1,0,0:0:0:0:
276,205,6284,1,0,0:0:0:0:
280,208,6285,1,0,0:0:0:0:
284,211,6287,1,0,0:0:0:0:
289,214,6288,1,0,0:0:0:0:
293,217,6290,1,0,0:0:0:0:
298,219,6291,1,0,0:0:0:0:
302,222,6293,1,0,0:0:0:0:
307,225,6294,1,0,0:0:0:0:
311,228,6296,1,0,0:0:0:0:
316,231,6297,1,0,0:0:0:0:
320,234,6299,1,0,0:0:0:0:
325,237,6300,1,0,0:0:0:0:
330,239,6302,1,0,0:0:0:0:
334,242,6303,1,0,0:0:0:0:
339,245,6305,1,0,0:0:0:0:
343,248,6306,1,0,0:0:0:0:
348,251,6308,1,0,0:0:0:0:
353,253,6309,1,0,0:0:0:0:
357,256,6311,1,0,0:0:0:0:
362,259,6312,1,0,0:0:0:0:
367,261,6314,1,0,0:0:0:0:
371,264,6315,1,0,0:0:0:0:
376,266,6317,1,0,0:0:0:0:
381,269,6318,1,0,0:0:0:0:
385,271,6320,1,0,0:0:0:0:
390,274,6321,1,0,0:0:0:0:
395,276,6323,1,0,0:0:0:0:
400,279,6324,1,0,0:0:0:0:
405,281,6326,1,0,0:0:0:0:
409,283,6327,1,0,0:0:0:0:
28,356,6328,1,0,0:0:0:0:
414,285,6329,1,0,0:0:0:0:
419,287,6330,1,0,0:0:0:0:
36,350,6331,1,0,0:0:0:0:
424,289,6332,1,0,0:0:0:0:
429,291,6333,1,0,0:0:0:0:
45,343,6334,1,0,0:0:0:0:
435,292,6335,1,0,0:0:0:0:
440,293,6336,1,0,0:0:0:0:
53,337,6337,1,0,0:0:0:0:
445,294,6338,1,0,0:0:0:0:
450,295,6339,1,0,0:0:0:0:
62,331,6340,1,0,0:0:0:0:
456,295,6341,1,0,0:0:0:0:
461,293,6342,1,0,0:0:0:0:
71,324,6343,1,0,0:0:0:0:
465,289,6344,1,0,0:0:0:0:
467,285,6345,1,0,0:0:0:0:
79,318,6346,1,0,0:0:0:0:
83,315,6348,1,0,0:0:0:0:
88,311,6349,1,0,0:0:0:0:
92,308,6351,1,0,0:0:0:0:
96,305,6352,1,0,0:0:0:0:
101,302,6354,1,0,0:0:0:0:
105,299,6355,1,0,0:0:0:0:
109,295,6357,1,0,0:0:0:0:
114,292,6358,1,0,0:0:0:0:
118,289,6360,1,0,0:0:0:0:
122,286,6361,1,0,0:0:0:0:
127,283,6363,1,0,0:0:0:0:
131,280,6364,1,0,0:0:0:0:
135,276,6366,1,0,0:0:0:0:
140,273,6367,1,0,0:0:0:0:
488,360,6368,1,0,0:0:0:0:
488,24,6369,1,0,0:0:0:0:
483,27,6370,1,0,0:0:0:0:
479,353,6371,1,0,0:0:0:0:
479,30,6372,1,0,0:0:0:0:
475,33,6373,1,0,0:0:0:0:
470,347,6374,1,0,0:0:0:0:
470,36,6375,1,0,0:0:0:0:
466,40,6376,1,0,0:0:0:0:
462,340,6377,1,0,0:0:0:0:
462,43,6378,1,0,0:0:0:0:
458,46,6379,1,0,0:0:0:0:
453,334,6380,1,0,0:0:0:0:
453,49,6381,1,0,0:0:0:0:
449,52,6382,1,0,0:0:0:0:
445,327,6383,1,0,0:0:0:0:
445,56,6384,1,0,0:0:0:0:
440,59,6385,1,0,0:0:0:0:
436,321,6386,1,0,0:0:0:0:
436,62,6387,1,0,0:0:0:0:
432,65,6388,1,0,0:0:0:0:
428,315,6389,1,0,0:0:0:0:
428,68,6390,1,0,0:0:0:0:
423,72,6391,1,0,0:0:0:0:
419,308,6392,1,0,0:0:0:0:
419,75,6393,1,0,0:0:0:0:
415,78,6394,1,0,0:0:0:0:
410,302,6395,1,0,0:0:0:0:
410,81,6396,1,0,0:0:0:0:
406,84,6397,1,0,0:0:0:0:
402,295,6398,1,0,0:0:0:0:
402,88,6399,1,0,0:0:0:0:
397,91,6400,1,0,0:0:0:0:
393,289,6401,1,0,0:0:0:0:
393,94,6402,1,0,0:0:0:0:
389,97,6403,1,0,0:0:0:0:
384,283,6404,1,0,0:0:0:0:
384,100,6405,1,0,0:0:0:0:
380,103,6406,1,0,0:0:0:0:
376,276,6407,1,0,0:0:0:0:
376,107,6408,1,0,0:0:0:0:
371,110,6409,1,0,0:0:0:0:
367,270,6410,1,0,0:0:0:0:
367,113,6411,1,0,0:0:0:0:
363,116,6412,1,0,0:0:0:0:
358,264,6413,1,0,0:0:0:0:
358,119,6414,1,0,0:0:0:0:
354,122,6415,1,0,0:0:0:0:
350,258,6416,1,0,0:0:0:0:
350,125,6417,1,0,0:0:0:0:
345,129,6418,1,0,0:0:0:0:
341,251,6419,1,0,0:0:0:0:
341,132,6420,1,0,0:0:0:0:
337,135,6421,1,0,0:0:0:0:
332,245,6422,1,0,0:0:0:0:
332,138,6423,1,0,0:0:0:0:
328,141,6424,1,0,0:0:0:0:
324,239,6425,1,0,0:0:0:0:
324,144,6426,1,0,0:0:0:0:
319,147,6427,1,0,0:0:0:0:
315,233,6428,1,0,0:0:0:0:
315,150,6429,1,0,0:0:0:0:
311,153,6430,1,0,0:0:0:0:
306,227,6431,1,0,0:0:0:0:
306,156,6432,1,0,0:0:0:0:
302,160,6433,1,0,0:0:0:0:
297,220,6434,1,0,0:0:0:0:
297,163,6435,1,0,0:0:0:0:
293,166,6436,1,0,0:0:0:0:
289,214,6437,1,0,0:0:0:0:
289,169,6438,1,0,0:0:0:0:
284,172,6439,1,0,0:0:0:0:
280,208,6440,1,0,0:0:0:0:
280,175,6441,1,0,0:0:0:0:
275,178,6442,1,0,0:0:0:0:
271,202,6443,1,0,0:0:0:0:
271,181,6444,1,0,0:0:0:0:
267,184,6445,1,0,0:0:0:0:
262,196,6446,1,0,0:0:0:0:
262,187,6447,1,0,0:0:0:0:
258,190,6448,1,0,0:0:0:0:
253,190,6449,1,0,0:0:0:0:
253,193,6450,1,0,0:0:0:0:
249,196,6451,1,0,0:0:0:0:
244,184,6452,1,0,0:0:0:0:
244,199,6453,1,0,0:0:0:0:
240,202,6454,1,0,0:0:0:0:
235,178,6455,1,0,0:0:0:0:
235,205,6456,1,0,0:0:0:0:
231,208,6457,1,0,0:0:0:0:
227,172,6458,1,0,0:0:0:0:
227,211,6459,1,0,0:0:0:0:
222,214,6460,1,0,0:0:0:0:
218,166,6461,1,0,0:0:0:0:
218,217,6462,1,0,0:0:0:0:
213,219,6463,1,0,0:0:0:0:
209,161,6464,1,0,0:0:0:0:
209,222,6465,1,0,0:0:0:0:
204,225,6466,1,0,0:0:0:0:
200,155,6467,1,0,0:0:0:0:
200,228,6468,1,0,0:0:0:0:
195,231,6469,1,0,0:0:0:0:
191,149,6470,1,0,0:0:0:0:
191,234,6471,1,0,0:0:0:0:
186,237,6472,1,0,0:0:0:0:
181,144,6473,1,0,0:0:0:0:
181,239,6474,1,0,0:0:0:0:
177,242,6475,1,0,0:0:0:0:
172,138,6476,1,0,0:0:0:0:
172,245,6477,1,0,0:0:0:0:
168,248,6478,1,0,0:0:0:0:
163,132,6479,1,0,0:0:0:0:
163,251,6480,1,0,0:0:0:0:
158,253,6481,1,0,0:0:0:0:
154,127,6482,1,0,0:0:0:0:
154,256,6483,1,0,0:0:0:0:
149,259,6484,1,0,0:0:0:0:
144,122,6485,1,0,0:0:0:0:
144,261,6486,1,0,0:0:0:0:
140,264,6487,1,0,0:0:0:0:
135,117,6488,1,0,0:0:0:0:
135,266,6489,1,0,0:0:0:0:
130,269,6490,1,0,0:0:0:0:
126,112,6491,1,0,0:0:0:0:
126,271,6492,1,0,0:0:0:0:
121,274,6493,1,0,0:0:0:0:
116,107,6494,1,0,0:0:0:0:
116,276,6495,1,0,0:0:0:0:
111,279,6496,1,0,0:0:0:0:
106,102,6497,1,0,0:0:0:0:
106,281,6498,1,0,0:0:0:0:
102,283,6499,1,0,0:0:0:0:
97,98,6500,1,0,0:0:0:0:
97,285,6501,1,0,0:0:0:0:
92,287,6502,1,0,0:0:0:0:
87,94,6503,1,0,0:0:0:0:
87,289,6504,1,0,0:0:0:0:
82,291,6505,1,0,0:0:0:0:
76,91,6506,1,0,0:0:0:0:
76,292,6507,1,0,0:0:0:0:
71,293,6508,1,0,0:0:0:0:
66,89,6509,1,0,0:0:0:0:
66,294,6510,1,0,0:0:0:0:
61,295,6511,1,0,0:0:0:0:
55,88,6512,1,0,0:0:0:0:
55,295,6513,1,0,0:0:0:0:
50,293,6514,1,0,0:0:0:0:
46,94,6515,1,0,0:0:0:0:
46,289,6516,1,0,0:0:0:0:
44,285,6517,1,0,0:0:0:0:
24,360,6572,1,0,0:0:0:0:
24,24,6573,1,0,0:0:0:0:
28,27,6574,1,0,0:0:0:0:
32,353,6575,1,0,0:0:0:0:
32,30,6576,1,0,0:0:0:0:
36,33,6577,1,0,0:0:0:0:
41,347,6578,1,0,0:0:0:0:
41,36,6579,1,0,0:0:0:0:
45,40,6580,1,0,0:0:0:0:
49,340,6581,1,0,0:0:0:0:
49,43,6582,1,0,0:0:0:0:
53,46,6583,1,0,0:0:0:0:
58,334,6584,1,0,0:0:0:0:
58,49,6585,1,0,0:0:0:0:
62,52,6586,1,0,0:0:0:0:
66,327,6587,1,0,0:0:0:0:
66,56,6588,1,0,0:0:0:0:
71,59,6589,1,0,0:0:0:0:
75,321,6590,1,0,0:0:0:0:
75,62,6591,1,0,0:0:0:0:
79,65,6592,1,0,0:0:0:0:
83,315,6593,1,0,0:0:0:0:
83,68,6594,1,0,0:0:0:0:
88,72,6595,1,0,0:0:0:0:
92,308,6596,1,0,0:0:0:0:
92,75,6597,1,0,0:0:0:0:
96,78,6598,1,0,0:0:0:0:
101,302,6599,1,0,0:0:0:0:
101,81,6600,1,0,0:0:0:0:
105,84,6601,1,0,0:0:0:0:
109,295,6602,1,0,0:0:0:0:
109,88,6603,1,0,0:0:0:0:
114,91,6604,1,0,0:0:0:0:
118,289,6605,1,0,0:0:0:0:
118,94,6606,1,0,0:0:0:0:
122,97,6607,1,0,0:0:0:0:
127,283,6608,1,0,0:0:0:0:
127,100,6609,1,0,0:0:0:0:
131,103,6610,1,0,0:0:0:0:
135,276,6611,1,0,0:0:0:0:
135,107,6612,1,0,0:0:0:0:
140,110,6613,1,0,0:0:0:0:
144,270,6614,1,0,0:0:0:0:
144,113,6615,1,0,0:0:0:0:
148,116,6616,1,0,0:0:0:0:
153,264,6617,1,0,0:0:0:0:
153,119,6618,1,0,0:0:0:0:
157,122,6619,1,0,0:0:0:0:
161,258,6620,1,0,0:0:0:0:
161,125,6621,1,0,0:0:0:0:
166,129,6622,1,0,0:0:0:0:
170,251,6623,1,0,0:0:0:0:
170,132,6624,1,0,0:0:0:0:
174,135,6625,1,0,0:0:0:0:
179,245,6626,1,0,0:0:0:0:
179,138,6627,1,0,0:0:0:0:
183,141,6628,1,0,0:0:0:0:
187,239,6629,1,0,0:0:0:0:
187,144,6630,1,0,0:0:0:0:
192,147,6631,1,0,0:0:0:0:
196,233,6632,1,0,0:0:0:0:
196,150,6633,1,0,0:0:0:0:
200,153,6634,1,0,0:0:0:0:
205,227,6635,1,0,0:0:0:0:
205,156,6636,1,0,0:0:0:0:
209,160,6637,1,0,0:0:0:0:
214,220,6638,1,0,0:0:0:0:
214,163,6639,1,0,0:0:0:0:
218,166,6640,1,0,0:0:0:0:
222,214,6641,1,0,0:0:0:0:
222,169,6642,1,0,0:0:0:0:
227,172,6643,1,0,0:0:0:0:
231,208,6644,1,0,0:0:0:0:
231,175,6645,1,0,0:0:0:0:
236,178,6646,1,0,0:0:0:0:
240,202,6647,1,0,0:0:0:0:
240,181,6648,1,0,0:0:0:0:
244,184,6649,1,0,0:0:0:0:
249,196,6650,1,0,0:0:0:0:
249,187,6651,1,0,0:0:0:0:
253,190,6652,1,0,0:0:0:0:
258,190,6653,1,0,0:0:0:0:
258,193,6654,1,0,0:0:0:0:
262,196,6655,1,0,0:0:0:0:
267,184,6656,1,0,0:0:0:0:
267,199,6657,1,0,0:0:0:0:
271,202,6658,1,0,0:0:0:0:
276,178,6659,1,0,0:0:0:0:
276,205,6660,1,0,0:0:0:0:
280,208,6661,1,0,0:0:0:0:
284,172,6662,1,0,0:0:0:0:
284,211,6663,1,0,0:0:0:0:
289,214,6664,1,0,0:0:0:0:
293,166,6665,1,0,0:0:0:0:
293,217,6666,1,0,0:0:0:0:
298,219,6667,1,0,0:0:0:0:
302,161,6668,1,0,0:0:0:0:
302,222,6669,1,0,0:0:0:0:
307,225,6670,1,0,0:0:0:0:
311,155,6671,1,0,0:0:0:0:
311,228,6672,1,0,0:0:0:0:
316,231,6673,1,0,0:0:0:0:
320,149,6674,1,0,0:0:0:0:
320,234,6675,1,0,0:0:0:0:
325,237,6676,1,0,0:0:0:0:
330,144,6677,1,0,0:0:0:0:
330,239,6678,1,0,0:0:0:0:
334,242,6679,1,0,0:0:0:0:
339,138,6680,1,0,0:0:0:0:
339,245,6681,1,0,0:0:0:0:
343,248,6682,1,0,0:0:0:0:
348,132,6683,1,0,0:0:0:0:
348,251,6684,1,0,0:0:0:0:
353,253,6685,1,0,0:0:0:0:
357,127,6686,1,0,0:0:0:0:
357,256,6687,1,0,0:0:0:0:
362,259,6688,1,0,0:0:0:0:
367,122,6689,1,0,0:0:0:0:
367,261,6690,1,0,0:0:0:0:
371,264,6691,1,0,0:0:0:0:
376,117,6692,1,0,0:0:0:0:
376,266,6693,1,0,0:0:0:0:
381,269,6694,1,0,0:0:0:0:
385,112,6695,1,0,0:0:0:0:
385,271,6696,1,0,0:0:0:0:
390,274,6697,1,0,0:0:0:0:
395,107,6698,1,0,0:0:0:0:
395,276,6699,1,0,0:0:0:0:
400,279,6700,1,0,0:0:0:0:
405,102,6701,1,0,0:0:0:0:
405,281,6702,1,0,0:0:0:0:
409,283,6703,1,0,0:0:0:0:
414,98,6704,1,0,0:0:0:0:
414,285,6705,1,0,0:0:0:0:
419,287,6706,1,0,0:0:0:0:
424,94,6707,1,0,0:0:0:0:
424,289,6708,1,0,0:0:0:0:
429,291,6709,1,0,0:0:0:0:
435,91,6710,1,0,0:0:0:0:
435,292,6711,1,0,0:0:0:0:
440,293,6712,1,0,0:0:0:0:
445,89,6713,1,0,0:0:0:0:
445,294,6714,1,0,0:0:0:0:
450,295,6715,1,0,0:0:0:0:
456,88,6716,1,0,0:0:0:0:
456,295,6717,1,0,0:0:0:0:
461,293,6718,1,0,0:0:0:0:
465,94,6719,1,0,0:0:0:0:
465,289,6720,1,0,0:0:0:0:
467,285,6721,1,0,0:0:0:0:
488,360,6744,1,0,0:0:0:0:
483,356,6745,1,0,0:0:0:0:
479,353,6747,1,0,0:0:0:0:
475,350,6748,1,0,0:0:0:0:
470,347,6750,1,0,0:0:0:0:
466,343,6751,1,0,0:0:0:0:
462,340,6753,1,0,0:0:0:0:
458,337,6754,1,0,0:0:0:0:
453,334,6756,1,0,0:0:0:0:
449,331,6757,1,0,0:0:0:0:
445,327,6759,1,0,0:0:0:0:
440,324,6760,1,0,0:0:0:0:
436,321,6762,1,0,0:0:0:0:
432,318,6763,1,0,0:0:0:0:
428,315,6765,1,0,0:0:0:0:
423,311,6766,1,0,0:0:0:0:
419,308,6768,1,0,0:0:0:0:
415,305,6769,1,0,0:0:0:0:
410,302,6771,1,0,0:0:0:0:
406,299,6772,1,0,0:0:0:0:
402,295,6774,1,0,0:0:0:0:
397,292,6775,1,0,0:0:0:0:
393,289,6777,1,0,0:0:0:0:
389,286,6778,1,0,0:0:0:0:
384,283,6780,1,0,0:0:0:0:
380,280,6781,1,0,0:0:0:0:
376,276,6783,1,0,0:0:0:0:
371,273,6784,1,0,0:0:0:0:
367,270,6786,1,0,0:0:0:0:
363,267,6787,1,0,0:0:0:0:
358,264,6789,1,0,0:0:0:0:
354,261,6790,1,0,0:0:0:0:
350,258,6792,1,0,0:0:0:0:
345,254,6793,1,0,0:0:0:0:
341,251,6795,1,0,0:0:0:0:
337,248,6796,1,0,0:0:0:0:
332,245,6798,1,0,0:0:0:0:
328,242,6799,1,0,0:0:0:0:
324,239,6801,1,0,0:0:0:0:
319,236,6802,1,0,0:0:0:0:
315,233,6804,1,0,0:0:0:0:
311,230,6805,1,0,0:0:0:0:
306,227,6807,1,0,0:0:0:0:
302,223,6808,1,0,0:0:0:0:
297,220,6810,1,0,0:0:0:0:
293,217,6811,1,0,0:0:0:0:
289,214,6813,1,0,0:0:0:0:
284,211,6814,1,0,0:0:0:0:
280,208,6816,1,0,0:0:0:0:
275,205,6817,1,0,0:0:0:0:
271,202,6819,1,0,0:0:0:0:
267,199,6820,1,0,0:0:0:0:
262,196,6822,1,0,0:0:0:0:
258,193,6823,1,0,0:0:0:0:
253,190,6825,1,0,0:0:0:0:
249,187,6826,1,0,0:0:0:0:
244,184,6828,1,0,0:0:0:0:
240,181,6829,1,0,0:0:0:0:
235,178,6831,1,0,0:0:0:0:
231,175,6832,1,0,0:0:0:0:
227,172,6834,1,0,0:0:0:0:
222,169,6835,1,0,0:0:0:0:
218,166,6837,1,0,0:0:0:0:
213,164,6838,1,0,0:0:0:0:
209,161,6840,1,0,0:0:0:0:
204,158,6841,1,0,0:0:0:0:
200,155,6843,1,0,0:0:0:0:
195,152,6844,1,0,0:0:0:0:
191,149,6846,1,0,0:0:0:0:
186,146,6847,1,0,0:0:0:0:
181,144,6849,1,0,0:0:0:0:
177,141,6850,1,0,0:0:0:0:
172,138,6852,1,0,0:0:0:0:
168,135,6853,1,0,0:0:0:0:
163,132,6855,1,0,0:0:0:0:
158,130,6856,1,0,0:0:0:0:
154,127,6858,1,0,0:0:0:0:
149,124,6859,1,0,0:0:0:0:
144,122,6861,1,0,0:0:0:0:
140,119,6862,1,0,0:0:0:0:
135,117,6864,1,0,0:0:0:0:
130,114,6865,1,0,0:0:0:0:
126,112,6867,1,0,0:0:0:0:
121,109,6868,1,0,0:0:0:0:
116,107,6870,1,0,0:0:0:0:
111,104,6871,1,0,0:0:0:0:
106,102,6873,1,0,0:0:0:0:
102,100,6874,1,0,0:0:0:0:
97,98,6876,1,0,0:0:0:0:
92,96,6877,1,0,0:0:0:0:
87,94,6879,1,0,0:0:0:0:
82,92,6880,1,0,0:0:0:0:
76,91,6882,1,0,0:0:0:0:
71,90,6883,1,0,0:0:0:0:
66,89,6885,1,0,0:0:0:0:
61,88,6886,1,0,0:0:0:0:
55,88,6888,1,0,0:0:0:0:
50,90,6889,1,0,0:0:0:0:
46,94,6891,1,0,0:0:0:0:
44,98,6892,1,0,0:0:0:0:
488,24,6894,1,0,0:0:0:0:
483,27,6895,1,0,0:0:0:0:
479,30,6897,1,0,0:0:0:0:
475,33,6898,1,0,0:0:0:0:
470,36,6900,1,0,0:0:0:0:
466,40,6901,1,0,0:0:0:0:
462,43,6903,1,0,0:0:0:0:
458,46,6904,1,0,0:0:0:0:
453,49,6906,1,0,0:0:0:0:
449,52,6907,1,0,0:0:0:0:
445,56,6909,1,0,0:0:0:0:
440,59,6910,1,0,0:0:0:0:
436,62,6912,1,0,0:0:0:0:
432,65,6913,1,0,0:0:0:0:
428,68,6915,1,0,0:0:0:0:
423,72,6916,1,0,0:0:0:0:
419,75,6918,1,0,0:0:0:0:
415,78,6919,1,0,0:0:0:0:
410,81,6921,1,0,0:0:0:0:
406,84,6922,1,0,0:0:0:0:
402,88,6924,1,0,0:0:0:0:
397,91,6925,1,0,0:0:0:0:
393,94,6927,1,0,0:0:0:0:
389,97,6928,1,0,0:0:0:0:
384,100,6930,1,0,0:0:0:0:
380,103,6931,1,0,0:0:0:0:
376,107,6933,1,0,0:0:0:0:
371,110,6934,1,0,0:0:0:0:
367,113,6936,1,0,0:0:0:0:
363,116,6937,1,0,0:0:0:0:
358,119,6939,1,0,0:0:0:0:
354,122,6940,1,0,0:0:0:0:
350,125,6942,1,0,0:0:0:0:
345,129,6943,1,0,0:0:0:0:
341,132,6945,1,0,0:0:0:0:
337,135,6946,1,0,0:0:0:0:
332,138,6948,1,0,0:0:0:0:
328,141,6949,1,0,0:0:0:0:
324,144,6951,1,0,0:0:0:0:
319,147,6952,1,0,0:0:0:0:
315,150,6954,1,0,0:0:0:0:
311,153,6955,1,0,0:0:0:0:
306,156,6957,1,0,0:0:0:0:
302,160,6958,1,0,0:0:0:0:
297,163,6960,1,0,0:0:0:0:
293,166,6961,1,0,0:0:0:0:
289,169,6963,1,0,0:0:0:0:
284,172,6964,1,0,0:0:0:0:
280,175,6966,1,0,0:0:0:0:
275,178,6967,1,0,0:0:0:0:
271,181,6969,1,0,0:0:0:0:
267,184,6970,1,0,0:0:0:0:
262,187,6972,1,0,0:0:0:0:
258,190,6973,1,0,0:0:0:0:
253,193,6975,1,0,0:0:0:0:
249,196,6976,1,0,0:0:0:0:
244,199,6978,1,0,0:0:0:0:
240,202,6979,1,0,0:0:0:0:
235,205,6981,1,0,0:0:0:0:
231,208,6982,1,0,0:0:0:0:
227,211,6984,1,0,0:0:0:0:
222,214,6985,1,0,0:0:0:0:
218,217,6987,1,0,0:0:0:0:
213,219,6988,1,0,0:0:0:0:
209,222,6990,1,0,0:0:0:0:
204,225,6991,1,0,0:0:0:0:
200,228,6993,1,0,0:0:0:0:
195,231,6994,1,0,0:0:0:0:
191,234,6996,1,0,0:0:0:0:
186,237,6997,1,0,0:0:0:0:
181,239,6999,1,0,0:0:0:0:
177,242,7000,1,0,0:0:0:0:
172,245,7002,1,0,0:0:0:0:
168,248,7003,1,0,0:0:0:0:
163,251,7005,1,0,0:0:0:0:
158,253,7006,1,0,0:0:0:0:
154,256,7008,1,0,0:0:0:0:
149,259,7009,1,0,0:0:0:0:
144,261,7011,1,0,0:0:0:0:
140,264,7012,1,0,0:0:0:0:
135,266,7014,1,0,0:0:0:0:
130,269,7015,1,0,0:0:0:0:
126,271,7017,1,0,0:0:0:0:
121,274,7018,1,0,0:0:0:0:
116,276,7020,1,0,0:0:0:0:
111,279,7021,1,0,0:0:0:0:
106,281,7023,1,0,0:0:0:0:
102,283,7024,1,0,0:0:0:0:
97,285,7026,1,0,0:0:0:0:
92,287,7027,1,0,0:0:0:0:
87,289,7029,1,0,0:0:0:0:
82,291,7030,1,0,0:0:0:0:
76,292,7032,1,0,0:0:0:0:
71,293,7033,1,0,0:0:0:0:
66,294,7035,1,0,0:0:0:0:
61,295,7036,1,0,0:0:0:0:
55,295,7038,1,0,0:0:0:0:
50,293,7039,1,0,0:0:0:0:
46,289,7041,1,0,0:0:0:0:
44,285,7042,1,0,0:0:0:0:
302,161,7044,1,0,0:0:0:0:
307,158,7045,1,0,0:0:0:0:
311,155,7047,1,0,0:0:0:0:
316,152,7048,1,0,0:0:0:0:
320,149,7050,1,0,0:0:0:0:
325,146,7051,1,0,0:0:0:0:
330,144,7053,1,0,0:0:0:0:
334,141,7054,1,0,0:0:0:0:
339,138,7056,1,0,0:0:0:0:
343,135,7057,1,0,0:0:0:0:
348,132,7059,1,0,0:0:0:0:
353,130,7060,1,0,0:0:0:0:
357,127,7062,1,0,0:0:0:0:
362,124,7063,1,0,0:0:0:0:
367,122,7065,1,0,0:0:0:0:
371,119,7066,1,0,0:0:0:0:
376,117,7068,1,0,0:0:0:0:
381,114,7069,1,0,0:0:0:0:
385,112,7071,1,0,0:0:0:0:
390,109,7072,1,0,0:0:0:0:
395,107,7074,1,0,0:0:0:0:
400,104,7075,1,0,0:0:0:0:
405,102,7077,1,0,0:0:0:0:
409,100,7078,1,0,0:0:0:0:
414,98,7080,1,0,0:0:0:0:
419,96,7081,1,0,0:0:0:0:
424,94,7083,1,0,0:0:0:0:
429,92,7084,1,0,0:0:0:0:
435,91,7086,1,0,0:0:0:0:
440,90,7087,1,0,0:0:0:0:
445,89,7089,1,0,0:0:0:0:
450,88,7090,1,0,0:0:0:0:
456,88,7092,1,0,0:0:0:0:
461,90,7093,1,0,0:0:0:0:
465,94,7095,1,0,0:0:0:0:
467,98,7096,1,0,0:0:0:0:
24,24,7098,1,0,0:0:0:0:
28,27,7099,1,0,0:0:0:0:
32,30,7101,1,0,0:0:0:0:
36,33,7102,1,0,0:0:0:0:
41,36,7104,1,0,0:0:0:0:
45,40,7105,1,0,0:0:0:0:
49,43,7107,1,0,0:0:0:0:
53,46,7108,1,0,0:0:0:0:
58,49,7110,1,0,0:0:0:0:
62,52,7111,1,0,0:0:0:0:
66,56,7113,1,0,0:0:0:0:
71,59,7114,1,0,0:0:0:0:
75,62,7116,1,0,0:0:0:0:
79,65,7117,1,0,0:0:0:0:
83,68,7119,1,0,0:0:0:0:
88,72,7120,1,0,0:0:0:0:
92,75,7122,1,0,0:0:0:0:
96,78,7123,1,0,0:0:0:0:
101,81,7125,1,0,0:0:0:0:
105,84,7126,1,0,0:0:0:0:
109,88,7128,1,0,0:0:0:0:
114,91,7129,1,0,0:0:0:0:
118,94,7131,1,0,0:0:0:0:
122,97,7132,1,0,0:0:0:0:
127,100,7134,1,0,0:0:0:0:
131,103,7135,1,0,0:0:0:0:
135,107,7137,1,0,0:0:0:0:
140,110,7138,1,0,0:0:0:0:
144,113,7140,1,0,0:0:0:0:
148,116,7141,1,0,0:0:0:0:
153,119,7143,1,0,0:0:0:0:
157,122,7144,1,0,0:0:0:0:
161,125,7146,1,0,0:0:0:0:
166,129,7147,1,0,0:0:0:0:
170,132,7149,1,0,0:0:0:0:
174,135,7150,1,0,0:0:0:0:
179,138,7152,1,0,0:0:0:0:
183,141,7153,1,0,0:0:0:0:
187,144,7155,1,0,0:0:0:0:
192,147,7156,1,0,0:0:0:0:
196,150,7158,1,0,0:0:0:0:
200,153,7159,1,0,0:0:0:0:
205,156,7161,1,0,0:0:0:0:
209,160,7162,1,0,0:0:0:0:
214,163,7164,1,0,0:0:0:0:
218,166,7165,1,0,0:0:0:0:
222,169,7167,1,0,0:0:0:0:
227,172,7168,1,0,0:0:0:0:
231,175,7170,1,0,0:0:0:0:
236,178,7171,1,0,0:0:0:0:
240,181,7173,1,0,0:0:0:0:
244,184,7174,1,0,0:0:0:0:
249,187,7176,1,0,0:0:0:0:
253,190,7177,1,0,0:0:0:0:
258,193,7179,1,0,0:0:0:0:
262,196,7180,1,0,0:0:0:0:
267,199,7182,1,0,0:0:0:0:
271,202,7183,1,0,0:0:0:0:
276,205,7185,1,0,0:0:0:0:
280,208,7186,1,0,0:0:0:0:
284,211,7188,1,0,0:0:0:0:
289,214,7189,1,0,0:0:0:0:
293,217,7191,1,0,0:0:0:0:
298,219,7192,1,0,0:0:0:0:
302,222,7194,1,0,0:0:0:0:
307,225,7195,1,0,0:0:0:0:
311,228,7197,1,0,0:0:0:0:
316,231,7198,1,0,0:0:0:0:
320,234,7200,1,0,0:0:0:0:
325,237,7201,1,0,0:0:0:0:
330,239,7203,1,0,0:0:0:0:
334,242,7204,1,0,0:0:0:0:
339,245,7206,1,0,0:0:0:0:
343,248,7207,1,0,0:0:0:0:
348,251,7209,1,0,0:0:0:0:
353,253,7210,1,0,0:0:0:0:
357,256,7212,1,0,0:0:0:0:
362,259,7213,1,0,0:0:0:0:
367,261,7215,1,0,0:0:0:0:
371,264,7216,1,0,0:0:0:0:
376,266,7218,1,0,0:0:0:0:
381,269,7219,1,0,0:0:0:0:
385,271,7221,1,0,0:0:0:0:
390,274,7222,1,0,0:0:0:0:
395,276,7224,1,0,0:0:0:0:
400,279,7225,1,0,0:0:0:0:
405,281,7227,1,0,0:0:0:0:
409,283,7228,1,0,0:0:0:0:
414,285,7230,1,0,0:0:0:0:
419,287,7231,1,0,0:0:0:0:
424,289,7233,1,0,0:0:0:0:
429,291,7234,1,0,0:0:0:0:
435,292,7236,1,0,0:0:0:0:
440,293,7237,1,0,0:0:0:0:
445,294,7239,1,0,0:0:0:0:
450,295,7240,1,0,0:0:0:0:
456,295,7242,1,0,0:0:0:0:
461,293,7243,1,0,0:0:0:0:
465,289,7245,1,0,0:0:0:0:
467,285,7246,1,0,0:0:0:0:
332,138,7248,1,0,0:0:0:0:
328,141,7249,1,0,0:0:0:0:
324,144,7251,1,0,0:0:0:0:
319,147,7252,1,0,0:0:0:0:
315,150,7254,1,0,0:0:0:0:
311,153,7255,1,0,0:0:0:0:
306,156,7257,1,0,0:0:0:0:
302,160,7258,1,0,0:0:0:0:
297,163,7260,1,0,0:0:0:0:
293,166,7261,1,0,0:0:0:0:
289,169,7263,1,0,0:0:0:0:
284,172,7264,1,0,0:0:0:0:
280,175,7266,1,0,0:0:0:0:
275,178,7267,1,0,0:0:0:0:
488,360,7269,1,0,0:0:0:0:
483,356,7270,1,0,0:0:0:0:
479,353,7272,1,0,0:0:0:0:
475,350,7273,1,0,0:0:0:0:
470,347,7275,1,0,0:0:0:0:
466,343,7276,1,0,0:0:0:0:
462,340,7278,1,0,0:0:0:0:
458,337,7279,1,0,0:0:0:0:
453,334,7281,1,0,0:0:0:0:
449,331,7282,1,0,0:0:0:0:
445,327,7284,1,0,0:0:0:0:
440,324,7285,1,0,0:0:0:0:
436,321,7287,1,0,0:0:0:0:
432,318,7288,1,0,0:0:0:0:
428,315,7290,1,0,0:0:0:0:
423,311,7291,1,0,0:0:0:0:
419,308,7293,1,0,0:0:0:0:
415,305,7294,1,0,0:0:0:0:
410,302,7296,1,0,0:0:0:0:
406,299,7297,1,0,0:0:0:0:
402,295,7299,1,0,0:0:0:0:
397,292,7300,1,0,0:0:0:0:
393,289,7302,1,0,0:0:0:0:
389,286,7303,1,0,0:0:0:0:
384,283,7305,1,0,0:0:0:0:
380,280,7306,1,0,0:0:0:0:
376,276,7308,1,0,0:0:0:0:
371,273,7309,1,0,0:0:0:0:
367,270,7311,1,0,0:0:0:0:
363,267,7312,1,0,0:0:0:0:
358,264,7314,1,0,0:0:0:0:
354,261,7315,1,0,0:0:0:0:
350,258,7317,1,0,0:0:0:0:
345,254,7318,1,0,0:0:0:0:
341,251,7320,1,0,0:0:0:0:
337,248,7321,1,0,0:0:0:0:
332,245,7323,1,0,0:0:0:0:
328,242,7324,1,0,0:0:0:0:
324,239,7326,1,0,0:0:0:0:
319,236,7327,1,0,0:0:0:0:
315,233,7329,1,0,0:0:0:0:
311,230,7330,1,0,0:0:0:0:
306,227,7332,1,0,0:0:0:0:
302,223,7333,1,0,0:0:0:0:
297,220,7335,1,0,0:0:0:0:
293,217,7336,1,0,0:0:0:0:
289,214,7338,1,0,0:0:0:0:
284,211,7339,1,0,0:0:0:0:
280,208,7341,1,0,0:0:0:0:
275,205,7342,1,0,0:0:0:0:
271,202,7344,1,0,0:0:0:0:
267,199,7345,1,0,0:0:0:0:
262,196,7347,1,0,0:0:0:0:
258,193,7348,1,0,0:0:0:0:
253,190,7350,1,0,0:0:0:0:
249,187,7351,1,0,0:0:0:0:
244,184,7353,1,0,0:0:0:0:
240,181,7354,1,0,0:0:0:0:
235,178,7356,1,0,0:0:0:0:
231,175,7357,1,0,0:0:0:0:
227,172,7359,1,0,0:0:0:0:
222,169,7360,1,0,0:0:0:0:
218,166,7362,1,0,0:0:0:0:
213,164,7363,1,0,0:0:0:0:
209,161,7365,1,0,0:0:0:0:
204,158,7366,1,0,0:0:0:0:
200,155,7368,1,0,0:0:0:0:
195,152,7369,1,0,0:0:0:0:
191,149,7371,1,0,0:0:0:0:
186,146,7372,1,0,0:0:0:0:
181,144,7374,1,0,0:0:0:0:
177,141,7375,1,0,0:0:0:0:
172,138,7377,1,0,0:0:0:0:
168,135,7378,1,0,0:0:0:0:
163,132,7380,1,0,0:0:0:0:
158,130,7381,1,0,0:0:0:0:
154,127,7383,1,0,0:0:0:0:
149,124,7384,1,0,0:0:0:0:
144,122,7386,1,0,0:0:0:0:
140,119,7387,1,0,0:0:0:0:
135,117,7389,1,0,0:0:0:0:
130,114,7390,1,0,0:0:0:0:
126,112,7392,1,0,0:0:0:0:
121,109,7393,1,0,0:0:0:0:
116,107,7395,1,0,0:0:0:0:
111,104,7396,1,0,0:0:0:0:
106,102,7398,1,0,0:0:0:0:
102,100,7399,1,0,0:0:0:0:
97,98,7401,1,0,0:0:0:0:
92,96,7402,1,0,0:0:0:0:
87,94,7404,1,0,0:0:0:0:
82,92,7405,1,0,0:0:0:0:
76,91,7407,1,0,0:0:0:0:
71,90,7408,1,0,0:0:0:0:
66,89,7410,1,0,0:0:0:0:
61,88,7411,1,0,0:0:0:0:
55,88,7413,1,0,0:0:0:0:
50,90,7414,1,0,0:0:0:0:
46,94,7416,1,0,0:0:0:0:
44,98,7417,1,0,0:0:0:0:
83,68,7419,1,0,0:0:0:0:
88,72,7420,1,0,0:0:0:0:
92,75,7422,1,0,0:0:0:0:
96,78,7423,1,0,0:0:0:0:
101,81,7425,1,0,0:0:0:0:
105,84,7426,1,0,0:0:0:0:
109,88,7428,1,0,0:0:0:0:
114,91,7429,1,0,0:0:0:0:
118,94,7431,1,0,0:0:0:0:
122,97,7432,1,0,0:0:0:0:
127,100,7434,1,0,0:0:0:0:
131,103,7435,1,0,0:0:0:0:
135,107,7437,1,0,0:0:0:0:
140,110,7438,1,0,0:0:0:0:
144,113,7440,1,0,0:0:0:0:
148,116,7441,1,0,0:0:0:0:
153,119,7443,1,0,0:0:0:0:
157,122,7444,1,0,0:0:0:0:
161,125,7446,1,0,0:0:0:0:
166,129,7447,1,0,0:0:0:0:
170,132,7449,1,0,0:0:0:0:
174,135,7450,1,0,0:0:0:0:
179,138,7452,1,0,0:0:0:0:
183,141,7453,1,0,0:0:0:0:
187,144,7455,1,0,0:0:0:0:
192,147,7456,1,0,0:0:0:0:
196,150,7458,1,0,0:0:0:0:
200,153,7459,1,0,0:0:0:0:
205,156,7461,1,0,0:0:0:0:
209,160,7462,1,0,0:0:0:0:
214,163,7464,1,0,0:0:0:0:
218,166,7465,1,0,0:0:0:0:
222,169,7467,1,0,0:0:0:0:
227,172,7468,1,0,0:0:0:0:
231,175,7470,1,0,0:0:0:0:
236,178,7471,1,0,0:0:0:0:
24,360,7473,1,0,0:0:0:0:
28,356,7474,1,0,0:0:0:0:
32,353,7476,1,0,0:0:0:0:
36,350,7477,1,0,0:0:0:0:
41,347,7479,1,0,0:0:0:0:
45,343,7480,1,0,0:0:0:0:
49,340,7482,1,0,0:0:0:0:
53,337,7483,1,0,0:0:0:0:
58,334,7485,1,0,0:0:0:0:
62,331,7486,1,0,0:0:0:0:
66,327,7488,1,0,0:0:0:0:
71,324,7489,1,0,0:0:0:0:
75,321,7491,1,0,0:0:0:0:
79,318,7492,1,0,0:0:0:0:
83,315,7494,1,0,0:0:0:0:
88,311,7495,1,0,0:0:0:0:
92,308,7497,1,0,0:0:0:0:
96,305,7498,1,0,0:0:0:0:
101,302,7500,1,0,0:0:0:0:
105,299,7501,1,0,0:0:0:0:
109,295,7503,1,0,0:0:0:0:
114,292,7504,1,0,0:0:0:0:
118,289,7506,1,0,0:0:0:0:
122,286,7507,1,0,0:0:0:0:
127,283,7509,1,0,0:0:0:0:
131,280,7510,1,0,0:0:0:0:
135,276,7512,1,0,0:0:0:0:
140,273,7513,1,0,0:0:0:0:
144,270,7515,1,0,0:0:0:0:
148,267,7516,1,0,0:0:0:0:
153,264,7518,1,0,0:0:0:0:
157,261,7519,1,0,0:0:0:0:
161,258,7521,1,0,0:0:0:0:
166,254,7522,1,0,0:0:0:0:
170,251,7524,1,0,0:0:0:0:
174,248,7525,1,0,0:0:0:0:
179,245,7527,1,0,0:0:0:0:
183,242,7528,1,0,0:0:0:0:
187,239,7530,1,0,0:0:0:0:
192,236,7531,1,0,0:0:0:0:
196,233,7533,1,0,0:0:0:0:
200,230,7534,1,0,0:0:0:0:
205,227,7536,1,0,0:0:0:0:
209,223,7537,1,0,0:0:0:0:
214,220,7539,1,0,0:0:0:0:
218,217,7540,1,0,0:0:0:0:
222,214,7542,1,0,0:0:0:0:
227,211,7543,1,0,0:0:0:0:
231,208,7545,1,0,0:0:0:0:
236,205,7546,1,0,0:0:0:0:
240,202,7548,1,0,0:0:0:0:
244,199,7549,1,0,0:0:0:0:
249,196,7551,1,0,0:0:0:0:
253,193,7552,1,0,0:0:0:0:
258,190,7554,1,0,0:0:0:0:
262,187,7555,1,0,0:0:0:0:
267,184,7557,1,0,0:0:0:0:
271,181,7558,1,0,0:0:0:0:
276,178,7560,1,0,0:0:0:0:
280,175,7561,1,0,0:0:0:0:
284,172,7563,1,0,0:0:0:0:
289,169,7564,1,0,0:0:0:0:
293,166,7566,1,0,0:0:0:0:
298,164,7567,1,0,0:0:0:0:
302,161,7569,1,0,0:0:0:0:
307,158,7570,1,0,0:0:0:0:
311,155,7572,1,0,0:0:0:0:
316,152,7573,1,0,0:0:0:0:
320,149,7575,1,0,0:0:0:0:
325,146,7576,1,0,0:0:0:0:
330,144,7578,1,0,0:0:0:0:
334,141,7579,1,0,0:0:0:0:
339,138,7581,1,0,0:0:0:0:
343,135,7582,1,0,0:0:0:0:
348,132,7584,1,0,0:0:0:0:
353,130,7585,1,0,0:0:0:0:
357,127,7587,1,0,0:0:0:0:
362,124,7588,1,0,0:0:0:0:
367,122,7590,1,0,0:0:0:0:
371,119,7591,1,0,0:0:0:0:
376,117,7593,1,0,0:0:0:0:
381,114,7594,1,0,0:0:0:0:
385,112,7596,1,0,0:0:0:0:
390,109,7597,1,0,0:0:0:0:
395,107,7599,1,0,0:0:0:0:
400,104,7600,1,0,0:0:0:0:
405,102,7602,1,0,0:0:0:0:
409,100,7603,1,0,0:0:0:0:
414,98,7605,1,0,0:0:0:0:
419,96,7606,1,0,0:0:0:0:
424,94,7608,1,0,0:0:0:0:
429,92,7609,1,0,0:0:0:0:
435,91,7611,1,0,0:0:0:0:
440,90,7612,1,0,0:0:0:0:
445,89,7614,1,0,0:0:0:0:
450,88,7615,1,0,0:0:0:0:
456,88,7617,1,0,0:0:0:0:
461,90,7618,1,0,0:0:0:0:
465,94,7620,1,0,0:0:0:0:
467,98,7621,1,0,0:0:0:0:
332,245,7623,1,0,0:0:0:0:
328,242,7624,1,0,0:0:0:0:
324,239,7626,1,0,0:0:0:0:
319,236,7627,1,0,0:0:0:0:
315,233,7629,1,0,0:0:0:0:
311,230,7630,1,0,0:0:0:0:
306,227,7632,1,0,0:0:0:0:
302,223,7633,1,0,0:0:0:0:
297,220,7635,1,0,0:0:0:0:
293,217,7636,1,0,0:0:0:0:
289,214,7638,1,0,0:0:0:0:
284,211,7639,1,0,0:0:0:0:
280,208,7641,1,0,0:0:0:0:
275,205,7642,1,0,0:0:0:0:
271,202,7644,1,0,0:0:0:0:
267,199,7645,1,0,0:0:0:0:
262,196,7647,1,0,0:0:0:0:
258,193,7648,1,0,0:0:0:0:
253,190,7650,1,0,0:0:0:0:
249,187,7651,1,0,0:0:0:0:
244,184,7653,1,0,0:0:0:0:
240,181,7654,1,0,0:0:0:0:
488,24,7655,1,0,0:0:0:0:
483,27,7656,1,0,0:0:0:0:
231,175,7657,1,0,0:0:0:0:
479,30,7658,1,0,0:0:0:0:
475,33,7659,1,0,0:0:0:0:
222,169,7660,1,0,0:0:0:0:
470,36,7661,1,0,0:0:0:0:
466,40,7662,1,0,0:0:0:0:
213,164,7663,1,0,0:0:0:0:
462,43,7664,1,0,0:0:0:0:
458,46,7665,1,0,0:0:0:0:
204,158,7666,1,0,0:0:0:0:
453,49,7667,1,0,0:0:0:0:
449,52,7668,1,0,0:0:0:0:
195,152,7669,1,0,0:0:0:0:
445,56,7670,1,0,0:0:0:0:
440,59,7671,1,0,0:0:0:0:
186,146,7672,1,0,0:0:0:0:
436,62,7673,1,0,0:0:0:0:
432,65,7674,1,0,0:0:0:0:
177,141,7675,1,0,0:0:0:0:
428,68,7676,1,0,0:0:0:0:
423,72,7677,1,0,0:0:0:0:
168,135,7678,1,0,0:0:0:0:
419,75,7679,1,0,0:0:0:0:
415,78,7680,1,0,0:0:0:0:
158,130,7681,1,0,0:0:0:0:
410,81,7682,1,0,0:0:0:0:
406,84,7683,1,0,0:0:0:0:
149,124,7684,1,0,0:0:0:0:
402,88,7685,1,0,0:0:0:0:
397,91,7686,1,0,0:0:0:0:
140,119,7687,1,0,0:0:0:0:
393,94,7688,1,0,0:0:0:0:
389,97,7689,1,0,0:0:0:0:
130,114,7690,1,0,0:0:0:0:
384,100,7691,1,0,0:0:0:0:
380,103,7692,1,0,0:0:0:0:
121,109,7693,1,0,0:0:0:0:
376,107,7694,1,0,0:0:0:0:
371,110,7695,1,0,0:0:0:0:
111,104,7696,1,0,0:0:0:0:
367,113,7697,1,0,0:0:0:0:
363,116,7698,1,0,0:0:0:0:
102,100,7699,1,0,0:0:0:0:
358,119,7700,1,0,0:0:0:0:
354,122,7701,1,0,0:0:0:0:
92,96,7702,1,0,0:0:0:0:
350,125,7703,1,0,0:0:0:0:
345,129,7704,1,0,0:0:0:0:
82,92,7705,1,0,0:0:0:0:
341,132,7706,1,0,0:0:0:0:
337,135,7707,1,0,0:0:0:0:
71,90,7708,1,0,0:0:0:0:
332,138,7709,1,0,0:0:0:0:
328,141,7710,1,0,0:0:0:0:
61,88,7711,1,0,0:0:0:0:
324,144,7712,1,0,0:0:0:0:
319,147,7713,1,0,0:0:0:0:
50,90,7714,1,0,0:0:0:0:
315,150,7715,1,0,0:0:0:0:
311,153,7716,1,0,0:0:0:0:
44,98,7717,1,0,0:0:0:0:
306,156,7718,1,0,0:0:0:0:
302,160,7719,1,0,0:0:0:0:
297,163,7721,1,0,0:0:0:0:
293,166,7722,1,0,0:0:0:0:
289,169,7724,1,0,0:0:0:0:
284,172,7725,1,0,0:0:0:0:
280,175,7727,1,0,0:0:0:0:
275,178,7728,1,0,0:0:0:0:
271,181,7730,1,0,0:0:0:0:
267,184,7731,1,0,0:0:0:0:
262,187,7733,1,0,0:0:0:0:
258,190,7734,1,0,0:0:0:0:
253,193,7736,1,0,0:0:0:0:
249,196,7737,1,0,0:0:0:0:
244,199,7739,1,0,0:0:0:0:
240,202,7740,1,0,0:0:0:0:
235,205,7742,1,0,0:0:0:0:
231,208,7743,1,0,0:0:0:0:
227,211,7745,1,0,0:0:0:0:
222,214,7746,1,0,0:0:0:0:
218,217,7748,1,0,0:0:0:0:
213,219,7749,1,0,0:0:0:0:
209,222,7751,1,0,0:0:0:0:
204,225,7752,1,0,0:0:0:0:
200,228,7754,1,0,0:0:0:0:
195,231,7755,1,0,0:0:0:0:
191,234,7757,1,0,0:0:0:0:
186,237,7758,1,0,0:0:0:0:
181,239,7760,1,0,0:0:0:0:
177,242,7761,1,0,0:0:0:0:
172,245,7763,1,0,0:0:0:0:
168,248,7764,1,0,0:0:0:0:
163,251,7766,1,0,0:0:0:0:
158,253,7767,1,0,0:0:0:0:
154,256,7769,1,0,0:0:0:0:
149,259,7770,1,0,0:0:0:0:
144,261,7772,1,0,0:0:0:0:
140,264,7773,1,0,0:0:0:0:
28,356,7774,1,0,0:0:0:0:
135,266,7775,1,0,0:0:0:0:
130,269,7776,1,0,0:0:0:0:
36,350,7777,1,0,0:0:0:0:
126,271,7778,1,0,0:0:0:0:
121,274,7779,1,0,0:0:0:0:
45,343,7780,1,0,0:0:0:0:
116,276,7781,1,0,0:0:0:0:
111,279,7782,1,0,0:0:0:0:
53,337,7783,1,0,0:0:0:0:
106,281,7784,1,0,0:0:0:0:
102,283,7785,1,0,0:0:0:0:
62,331,7786,1,0,0:0:0:0:
97,285,7787,1,0,0:0:0:0:
92,287,7788,1,0,0:0:0:0:
71,324,7789,1,0,0:0:0:0:
87,289,7790,1,0,0:0:0:0:
82,291,7791,1,0,0:0:0:0:
79,318,7792,1,0,0:0:0:0:
76,292,7793,1,0,0:0:0:0:
71,293,7794,1,0,0:0:0:0:
88,311,7795,1,0,0:0:0:0:
66,294,7796,1,0,0:0:0:0:
61,295,7797,1,0,0:0:0:0:
96,305,7798,1,0,0:0:0:0:
55,295,7799,1,0,0:0:0:0:
50,293,7800,1,0,0:0:0:0:
105,299,7801,1,0,0:0:0:0:
46,289,7802,1,0,0:0:0:0:
44,285,7803,1,0,0:0:0:0:
114,292,7804,1,0,0:0:0:0:
118,289,7806,1,0,0:0:0:0:
122,286,7807,1,0,0:0:0:0:
127,283,7809,1,0,0:0:0:0:
131,280,7810,1,0,0:0:0:0:
135,276,7812,1,0,0:0:0:0:
140,273,7813,1,0,0:0:0:0:
144,270,7815,1,0,0:0:0:0:
148,267,7816,1,0,0:0:0:0:
153,264,7818,1,0,0:0:0:0:
157,261,7819,1,0,0:0:0:0:
161,258,7821,1,0,0:0:0:0:
166,254,7822,1,0,0:0:0:0:
170,251,7824,1,0,0:0:0:0:
174,248,7825,1,0,0:0:0:0:
179,245,7827,1,0,0:0:0:0:
183,242,7828,1,0,0:0:0:0:
187,239,7830,1,0,0:0:0:0:
192,236,7831,1,0,0:0:0:0:
196,233,7833,1,0,0:0:0:0:
200,230,7834,1,0,0:0:0:0:
205,227,7836,1,0,0:0:0:0:
209,223,7837,1,0,0:0:0:0:
214,220,7839,1,0,0:0:0:0:
218,217,7840,1,0,0:0:0:0:
222,214,7842,1,0,0:0:0:0:
227,211,7843,1,0,0:0:0:0:
231,208,7845,1,0,0:0:0:0:
236,205,7846,1,0,0:0:0:0:
240,202,7848,1,0,0:0:0:0:
244,199,7849,1,0,0:0:0:0:
249,196,7851,1,0,0:0:0:0:
253,193,7852,1,0,0:0:0:0:
258,190,7854,1,0,0:0:0:0:
262,187,7855,1,0,0:0:0:0:
267,184,7857,1,0,0:0:0:0:
271,181,7858,1,0,0:0:0:0:
24,24,7859,1,0,0:0:0:0:
28,27,7860,1,0,0:0:0:0:
280,175,7861,1,0,0:0:0:0:
32,30,7862,1,0,0:0:0:0:
36,33,7863,1,0,0:0:0:0:
289,169,7864,1,0,0:0:0:0:
41,36,7865,1,0,0:0:0:0:
45,40,7866,1,0,0:0:0:0:
298,164,7867,1,0,0:0:0:0:
49,43,7868,1,0,0:0:0:0:
53,46,7869,1,0,0:0:0:0:
307,158,7870,1,0,0:0:0:0:
58,49,7871,1,0,0:0:0:0:
62,52,7872,1,0,0:0:0:0:
316,152,7873,1,0,0:0:0:0:
66,56,7874,1,0,0:0:0:0:
71,59,7875,1,0,0:0:0:0:
325,146,7876,1,0,0:0:0:0:
75,62,7877,1,0,0:0:0:0:
79,65,7878,1,0,0:0:0:0:
334,141,7879,1,0,0:0:0:0:
83,68,7880,1,0,0:0:0:0:
88,72,7881,1,0,0:0:0:0:
343,135,7882,1,0,0:0:0:0:
92,75,7883,1,0,0:0:0:0:
96,78,7884,1,0,0:0:0:0:
353,130,7885,1,0,0:0:0:0:
101,81,7886,1,0,0:0:0:0:
105,84,7887,1,0,0:0:0:0:
362,124,7888,1,0,0:0:0:0:
109,88,7889,1,0,0:0:0:0:
114,91,7890,1,0,0:0:0:0:
371,119,7891,1,0,0:0:0:0:
118,94,7892,1,0,0:0:0:0:
122,97,7893,1,0,0:0:0:0:
381,114,7894,1,0,0:0:0:0:
127,100,7895,1,0,0:0:0:0:
131,103,7896,1,0,0:0:0:0:
390,109,7897,1,0,0:0:0:0:
135,107,7898,1,0,0:0:0:0:
140,110,7899,1,0,0:0:0:0:
400,104,7900,1,0,0:0:0:0:
144,113,7901,1,0,0:0:0:0:
148,116,7902,1,0,0:0:0:0:
409,100,7903,1,0,0:0:0:0:
153,119,7904,1,0,0:0:0:0:
157,122,7905,1,0,0:0:0:0:
419,96,7906,1,0,0:0:0:0:
161,125,7907,1,0,0:0:0:0:
166,129,7908,1,0,0:0:0:0:
429,92,7909,1,0,0:0:0:0:
170,132,7910,1,0,0:0:0:0:
174,135,7911,1,0,0:0:0:0:
440,90,7912,1,0,0:0:0:0:
179,138,7913,1,0,0:0:0:0:
183,141,7914,1,0,0:0:0:0:
450,88,7915,1,0,0:0:0:0:
187,144,7916,1,0,0:0:0:0:
192,147,7917,1,0,0:0:0:0:
461,90,7918,1,0,0:0:0:0:
196,150,7919,1,0,0:0:0:0:
200,153,7920,1,0,0:0:0:0:
467,98,7921,1,0,0:0:0:0:
205,156,7922,1,0,0:0:0:0:
209,160,7923,1,0,0:0:0:0:
214,163,7925,1,0,0:0:0:0:
218,166,7926,1,0,0:0:0:0:
222,169,7928,1,0,0:0:0:0:
227,172,7929,1,0,0:0:0:0:
231,175,7931,1,0,0:0:0:0:
236,178,7932,1,0,0:0:0:0:
240,181,7934,1,0,0:0:0:0:
244,184,7935,1,0,0:0:0:0:
249,187,7937,1,0,0:0:0:0:
253,190,7938,1,0,0:0:0:0:
258,193,7940,1,0,0:0:0:0:
262,196,7941,1,0,0:0:0:0:
267,199,7943,1,0,0:0:0:0:
271,202,7944,1,0,0:0:0:0:
276,205,7946,1,0,0:0:0:0:
280,208,7947,1,0,0:0:0:0:
284,211,7949,1,0,0:0:0:0:
289,214,7950,1,0,0:0:0:0:
293,217,7952,1,0,0:0:0:0:
298,219,7953,1,0,0:0:0:0:
302,222,7955,1,0,0:0:0:0:
307,225,7956,1,0,0:0:0:0:
311,228,7958,1,0,0:0:0:0:
316,231,7959,1,0,0:0:0:0:
320,234,7961,1,0,0:0:0:0:
325,237,7962,1,0,0:0:0:0:
330,239,7964,1,0,0:0:0:0:
334,242,7965,1,0,0:0:0:0:
339,245,7967,1,0,0:0:0:0:
343,248,7968,1,0,0:0:0:0:
348,251,7970,1,0,0:0:0:0:
353,253,7971,1,0,0:0:0:0:
357,256,7973,1,0,0:0:0:0:
362,259,7974,1,0,0:0:0:0:
367,261,7976,1,0,0:0:0:0:
371,264,7977,1,0,0:0:0:0:
376,266,7979,1,0,0:0:0:0:
381,269,7980,1,0,0:0:0:0:
385,271,7982,1,0,0:0:0:0:
390,274,7983,1,0,0:0:0:0:
395,276,7985,1,0,0:0:0:0:
400,279,7986,1,0,0:0:0:0:
405,281,7988,1,0,0:0:0:0:
409,283,7989,1,0,0:0:0:0:
414,285,7991,1,0,0:0:0:0:
419,287,7992,1,0,0:0:0:0:
424,289,7994,1,0,0:0:0:0:
429,291,7995,1,0,0:0:0:0:
435,292,7997,1,0,0:0:0:0:
440,293,7998,1,0,0:0:0:0:
445,294,8000,1,0,0:0:0:0:
450,295,8001,1,0,0:0:0:0:
456,295,8003,1,0,0:0:0:0:
461,293,8004,1,0,0:0:0:0:
465,289,8006,1,0,0:0:0:0:
467,285,8007,1,0,0:0:0:0:
488,360,8030,1,0,0:0:0:0:
488,24,8031,1,0,0:0:0:0:
483,27,8032,1,0,0:0:0:0:
479,353,8033,1,0,0:0:0:0:
479,30,8034,1,0,0:0:0:0:
475,33,8035,1,0,0:0:0:0:
470,347,8036,1,0,0:0:0:0:
470,36,8037,1,0,0:0:0:0:
466,40,8038,1,0,0:0:0:0:
462,340,8039,1,0,0:0:0:0:
462,43,8040,1,0,0:0:0:0:
458,46,8041,1,0,0:0:0:0:
453,334,8042,1,0,0:0:0:0:
453,49,8043,1,0,0:0:0:0:
449,52,8044,1,0,0:0:0:0:
445,327,8045,1,0,0:0:0:0:
445,56,8046,1,0,0:0:0:0:
440,59,8047,1,0,0:0:0:0:
436,321,8048,1,0,0:0:0:0:
436,62,8049,1,0,0:0:0:0:
432,65,8050,1,0,0:0:0:0:
428,315,8051,1,0,0:0:0:0:
428,68,8052,1,0,0:0:0:0:
423,72,8053,1,0,0:0:0:0:
419,308,8054,1,0,0:0:0:0:
419,75,8055,1,0,0:0:0:0:
415,78,8056,1,0,0:0:0:0:
410,302,8057,1,0,0:0:0:0:
410,81,8058,1,0,0:0:0:0:
406,84,8059,1,0,0:0:0:0:
402,295,8060,1,0,0:0:0:0:
402,88,8061,1,0,0:0:0:0:
397,91,8062,1,0,0:0:0:0:
393,289,8063,1,0,0:0:0:0:
393,94,8064,1,0,0:0:0:0:
389,97,8065,1,0,0:0:0:0:
384,283,8066,1,0,0:0:0:0:
384,100,8067,1,0,0:0:0:0:
380,103,8068,1,0,0:0:0:0:
376,276,8069,1,0,0:0:0:0:
376,107,8070,1,0,0:0:0:0:
371,110,8071,1,0,0:0:0:0:
367,270,8072,1,0,0:0:0:0:
367,113,8073,1,0,0:0:0:0:
363,116,8074,1,0,0:0:0:0:
358,264,8075,1,0,0:0:0:0:
358,119,8076,1,0,0:0:0:0:
354,122,8077,1,0,0:0:0:0:
350,258,8078,1,0,0:0:0:0:
350,125,8079,1,0,0:0:0:0:
345,129,8080,1,0,0:0:0:0:
341,251,8081,1,0,0:0:0:0:
341,132,8082,1,0,0:0:0:0:
337,135,8083,1,0,0:0:0:0:
332,245,8084,1,0,0:0:0:0:
332,138,8085,1,0,0:0:0:0:
328,141,8086,1,0,0:0:0:0:
324,239,8087,1,0,0:0:0:0:
324,144,8088,1,0,0:0:0:0:
319,147,8089,1,0,0:0:0:0:
315,233,8090,1,0,0:0:0:0:
315,150,8091,1,0,0:0:0:0:
311,153,8092,1,0,0:0:0:0:
306,227,8093,1,0,0:0:0:0:
306,156,8094,1,0,0:0:0:0:
302,160,8095,1,0,0:0:0:0:
297,220,8096,1,0,0:0:0:0:
297,163,8097,1,0,0:0:0:0:
293,166,8098,1,0,0:0:0:0:
289,214,8099,1,0,0:0:0:0:
289,169,8100,1,0,0:0:0:0:
284,172,8101,1,0,0:0:0:0:
280,208,8102,1,0,0:0:0:0:
280,175,8103,1,0,0:0:0:0:
275,178,8104,1,0,0:0:0:0:
271,202,8105,1,0,0:0:0:0:
271,181,8106,1,0,0:0:0:0:
267,184,8107,1,0,0:0:0:0:
262,196,8108,1,0,0:0:0:0:
262,187,8109,1,0,0:0:0:0:
258,190,8110,1,0,0:0:0:0:
253,190,8111,1,0,0:0:0:0:
253,193,8112,1,0,0:0:0:0:
249,196,8113,1,0,0:0:0:0:
244,184,8114,1,0,0:0:0:0:
244,199,8115,1,0,0:0:0:0:
240,202,8116,1,0,0:0:0:0:
235,178,8117,1,0,0:0:0:0:
235,205,8118,1,0,0:0:0:0:
231,208,8119,1,0,0:0:0:0:
227,172,8120,1,0,0:0:0:0:
227,211,8121,1,0,0:0:0:0:
222,214,8122,1,0,0:0:0:0:
218,166,8123,1,0,0:0:0:0:
218,217,8124,1,0,0:0:0:0:
213,219,8125,1,0,0:0:0:0:
209,161,8126,1,0,0:0:0:0:
209,222,8127,1,0,0:0:0:0:
204,225,8128,1,0,0:0:0:0:
200,155,8129,1,0,0:0:0:0:
200,228,8130,1,0,0:0:0:0:
195,231,8131,1,0,0:0:0:0:
191,149,8132,1,0,0:0:0:0:
191,234,8133,1,0,0:0:0:0:
186,237,8134,1,0,0:0:0:0:
181,144,8135,1,0,0:0:0:0:
181,239,8136,1,0,0:0:0:0:
177,242,8137,1,0,0:0:0:0:
172,138,8138,1,0,0:0:0:0:
172,245,8139,1,0,0:0:0:0:
168,248,8140,1,0,0:0:0:0:
163,132,8141,1,0,0:0:0:0:
163,251,8142,1,0,0:0:0:0:
158,253,8143,1,0,0:0:0:0:
154,127,8144,1,0,0:0:0:0:
154,256,8145,1,0,0:0:0:0:
149,259,8146,1,0,0:0:0:0:
144,122,8147,1,0,0:0:0:0:
144,261,8148,1,0,0:0:0:0:
140,264,8149,1,0,0:0:0:0:
135,117,8150,1,0,0:0:0:0:
135,266,8151,1,0,0:0:0:0:
130,269,8152,1,0,0:0:0:0:
126,112,8153,1,0,0:0:0:0:
126,271,8154,1,0,0:0:0:0:
121,274,8155,1,0,0:0:0:0:
116,107,8156,1,0,0:0:0:0:
116,276,8157,1,0,0:0:0:0:
111,279,8158,1,0,0:0:0:0:
106,102,8159,1,0,0:0:0:0:
106,281,8160,1,0,0:0:0:0:
102,283,8161,1,0,0:0:0:0:
97,98,8162,1,0,0:0:0:0:
97,285,8163,1,0,0:0:0:0:
92,287,8164,1,0,0:0:0:0:
87,94,8165,1,0,0:0:0:0:
87,289,8166,1,0,0:0:0:0:
82,291,8167,1,0,0:0:0:0:
76,91,8168,1,0,0:0:0:0:
76,292,8169,1,0,0:0:0:0:
71,293,8170,1,0,0:0:0:0:
66,89,8171,1,0,0:0:0:0:
66,294,8172,1,0,0:0:0:0:
61,295,8173,1,0,0:0:0:0:
55,88,8174,1,0,0:0:0:0:
55,295,8175,1,0,0:0:0:0:
50,293,8176,1,0,0:0:0:0:
46,94,8177,1,0,0:0:0:0:
46,289,8178,1,0,0:0:0:0:
44,285,8179,1,0,0:0:0:0:
24,360,8234,1,0,0:0:0:0:
24,24,8235,1,0,0:0:0:0:
28,27,8236,1,0,0:0:0:0:
32,353,8237,1,0,0:0:0:0:
32,30,8238,1,0,0:0:0:0:
36,33,8239,1,0,0:0:0:0:
41,347,8240,1,0,0:0:0:0:
41,36,8241,1,0,0:0:0:0:
45,40,8242,1,0,0:0:0:0:
49,340,8243,1,0,0:0:0:0:
49,43,8244,1,0,0:0:0:0:
53,46,8245,1,0,0:0:0:0:
58,334,8246,1,0,0:0:0:0:
58,49,8247,1,0,0:0:0:0:
62,52,8248,1,0,0:0:0:0:
66,327,8249,1,0,0:0:0:0:
66,56,8250,1,0,0:0:0:0:
71,59,8251,1,0,0:0:0:0:
75,321,8252,1,0,0:0:0:0:
75,62,8253,1,0,0:0:0:0:
79,65,8254,1,0,0:0:0:0:
83,315,8255,1,0,0:0:0:0:
83,68,8256,1,0,0:0:0:0:
88,72,8257,1,0,0:0:0:0:
92,308,8258,1,0,0:0:0:0:
92,75,8259,1,0,0:0:0:0:
96,78,8260,1,0,0:0:0:0:
101,302,8261,1,0,0:0:0:0:
101,81,8262,1,0,0:0:0:0:
105,84,8263,1,0,0:0:0:0:
109,295,8264,1,0,0:0:0:0:
109,88,8265,1,0,0:0:0:0:
114,91,8266,1,0,0:0:0:0:
118,289,8267,1,0,0:0:0:0:
118,94,8268,1,0,0:0:0:0:
122,97,8269,1,0,0:0:0:0:
127,283,8270,1,0,0:0:0:0:
127,100,8271,1,0,0:0:0:0:
131,103,8272,1,0,0:0:0:0:
135,276,8273,1,0,0:0:0:0:
135,107,8274,1,0,0:0:0:0:
140,110,8275,1,0,0:0:0:0:
144,270,8276,1,0,0:0:0:0:
144,113,8277,1,0,0:0:0:0:
148,116,8278,1,0,0:0:0:0:
153,264,8279,1,0,0:0:0:0:
153,119,8280,1,0,0:0:0:0:
157,122,8281,1,0,0:0:0:0:
161,258,8282,1,0,0:0:0:0:
161,125,8283,1,0,0:0:0:0:
166,129,8284,1,0,0:0:0:0:
170,251,8285,1,0,0:0:0:0:
170,132,8286,1,0,0:0:0:0:
174,135,8287,1,0,0:0:0:0:
179,245,8288,1,0,0:0:0:0:
179,138,8289,1,0,0:0:0:0:
183,141,8290,1,0,0:0:0:0:
187,239,8291,1,0,0:0:0:0:
187,144,8292,1,0,0:0:0:0:
192,147,8293,1,0,0:0:0:0:
196,233,8294,1,0,0:0:0:0:
196,150,8295,1,0,0:0:0:0:
200,153,8296,1,0,0:0:0:0:
205,227,8297,1,0,0:0:0:0:
205,156,8298,1,0,0:0:0:0:
209,160,8299,1,0,0:0:0:0:
214,220,8300,1,0,0:0:0:0:
214,163,8301,1,0,0:0:0:0:
218,166,8302,1,0,0:0:0:0:
222,214,8303,1,0,0:0:0:0:
222,169,8304,1,0,0:0:0:0:
227,172,8305,1,0,0:0:0:0:
231,208,8306,1,0,0:0:0:0:
231,175,8307,1,0,0:0:0:0:
236,178,8308,1,0,0:0:0:0:
240,202,8309,1,0,0:0:0:0:
240,181,8310,1,0,0:0:0:0:
244,184,8311,1,0,0:0:0:0:
249,196,8312,1,0,0:0:0:0:
249,187,8313,1,0,0:0:0:0:
253,190,8314,1,0,0:0:0:0:
258,190,8315,1,0,0:0:0:0:
258,193,8316,1,0,0:0:0:0:
262,196,8317,1,0,0:0:0:0:
267,184,8318,1,0,0:0:0:0:
267,199,8319,1,0,0:0:0:0:
271,202,8320,1,0,0:0:0:0:
276,178,8321,1,0,0:0:0:0:
276,205,8322,1,0,0:0:0:0:
280,208,8323,1,0,0:0:0:0:
284,172,8324,1,0,0:0:0:0:
284,211,8325,1,0,0:0:0:0:
289,214,8326,1,0,0:0:0:0:
293,166,8327,1,0,0:0:0:0:
293,217,8328,1,0,0:0:0:0:
298,219,8329,1,0,0:0:0:0:
302,161,8330,1,0,0:0:0:0:
302,222,8331,1,0,0:0:0:0:
307,225,8332,1,0,0:0:0:0:
311,155,8333,1,0,0:0:0:0:
311,228,8334,1,0,0:0:0:0:
316,231,8335,1,0,0:0:0:0:
320,149,8336,1,0,0:0:0:0:
320,234,8337,1,0,0:0:0:0:
325,237,8338,1,0,0:0:0:0:
330,144,8339,1,0,0:0:0:0:
330,239,8340,1,0,0:0:0:0:
334,242,8341,1,0,0:0:0:0:
339,138,8342,1,0,0:0:0:0:
339,245,8343,1,0,0:0:0:0:
343,248,8344,1,0,0:0:0:0:
348,132,8345,1,0,0:0:0:0:
348,251,8346,1,0,0:0:0:0:
353,253,8347,1,0,0:0:0:0:
357,127,8348,1,0,0:0:0:0:
357,256,8349,1,0,0:0:0:0:
362,259,8350,1,0,0:0:0:0:
367,122,8351,1,0,0:0:0:0:
367,261,8352,1,0,0:0:0:0:
371,264,8353,1,0,0:0:0:0:
376,117,8354,1,0,0:0:0:0:
376,266,8355,1,0,0:0:0:0:
381,269,8356,1,0,0:0:0:0:
385,112,8357,1,0,0:0:0:0:
385,271,8358,1,0,0:0:0:0:
390,274,8359,1,0,0:0:0:0:
395,107,8360,1,0,0:0:0:0:
395,276,8361,1,0,0:0:0:0:
400,279,8362,1,0,0:0:0:0:
405,102,8363,1,0,0:0:0:0:
405,281,8364,1,0,0:0:0:0:
409,283,8365,1,0,0:0:0:0:
414,98,8366,1,0,0:0:0:0:
414,285,8367,1,0,0:0:0:0:
419,287,8368,1,0,0:0:0:0:
424,94,8369,1,0,0:0:0:0:
424,289,8370,1,0,0:0:0:0:
429,291,8371,1,0,0:0:0:0:
435,91,8372,1,0,0:0:0:0:
435,292,8373,1,0,0:0:0:0:
440,293,8374,1,0,0:0:0:0:
445,89,8375,1,0,0:0:0:0:
445,294,8376,1,0,0:0:0:0:
450,295,8377,1,0,0:0:0:0:
456,88,8378,1,0,0:0:0:0:
456,295,8379,1,0,0:0:0:0:
461,293,8380,1,0,0:0:0:0:
465,94,8381,1,0,0:0:0:0:
465,289,8382,1,0,0:0:0:0:
467,285,8383,1,0,0:0:0:0:
488,24,8395,1,0,0:0:0:0:
483,27,8396,1,0,0:0:0:0:
479,30,8398,1,0,0:0:0:0:
475,33,8399,1,0,0:0:0:0:
470,36,8401,1,0,0:0:0:0:
466,40,8402,1,0,0:0:0:0:
462,43,8404,1,0,0:0:0:0:
458,46,8405,1,0,0:0:0:0:
488,360,8406,1,0,0:0:0:0:
453,49,8407,1,0,0:0:0:0:
449,52,8408,1,0,0:0:0:0:
479,353,8409,1,0,0:0:0:0:
445,56,8410,1,0,0:0:0:0:
440,59,8411,1,0,0:0:0:0:
470,347,8412,1,0,0:0:0:0:
436,62,8413,1,0,0:0:0:0:
432,65,8414,1,0,0:0:0:0:
462,340,8415,1,0,0:0:0:0:
428,68,8416,1,0,0:0:0:0:
423,72,8417,1,0,0:0:0:0:
453,334,8418,1,0,0:0:0:0:
419,75,8419,1,0,0:0:0:0:
415,78,8420,1,0,0:0:0:0:
445,327,8421,1,0,0:0:0:0:
410,81,8422,1,0,0:0:0:0:
406,84,8423,1,0,0:0:0:0:
436,321,8424,1,0,0:0:0:0:
402,88,8425,1,0,0:0:0:0:
397,91,8426,1,0,0:0:0:0:
428,315,8427,1,0,0:0:0:0:
393,94,8428,1,0,0:0:0:0:
389,97,8429,1,0,0:0:0:0:
419,308,8430,1,0,0:0:0:0:
384,100,8431,1,0,0:0:0:0:
380,103,8432,1,0,0:0:0:0:
410,302,8433,1,0,0:0:0:0:
376,107,8434,1,0,0:0:0:0:
371,110,8435,1,0,0:0:0:0:
402,295,8436,1,0,0:0:0:0:
367,113,8437,1,0,0:0:0:0:
363,116,8438,1,0,0:0:0:0:
393,289,8439,1,0,0:0:0:0:
358,119,8440,1,0,0:0:0:0:
354,122,8441,1,0,0:0:0:0:
384,283,8442,1,0,0:0:0:0:
350,125,8443,1,0,0:0:0:0:
345,129,8444,1,0,0:0:0:0:
376,276,8445,1,0,0:0:0:0:
341,132,8446,1,0,0:0:0:0:
337,135,8447,1,0,0:0:0:0:
367,270,8448,1,0,0:0:0:0:
332,138,8449,1,0,0:0:0:0:
328,141,8450,1,0,0:0:0:0:
358,264,8451,1,0,0:0:0:0:
324,144,8452,1,0,0:0:0:0:
319,147,8453,1,0,0:0:0:0:
350,258,8454,1,0,0:0:0:0:
315,150,8455,1,0,0:0:0:0:
311,153,8456,1,0,0:0:0:0:
341,251,8457,1,0,0:0:0:0:
306,156,8458,1,0,0:0:0:0:
302,160,8459,1,0,0:0:0:0:
332,245,8460,1,0,0:0:0:0:
297,163,8461,1,0,0:0:0:0:
293,166,8462,1,0,0:0:0:0:
324,239,8463,1,0,0:0:0:0:
289,169,8464,1,0,0:0:0:0:
284,172,8465,1,0,0:0:0:0:
315,233,8466,1,0,0:0:0:0:
280,175,8467,1,0,0:0:0:0:
275,178,8468,1,0,0:0:0:0:
306,227,8469,1,0,0:0:0:0:
271,181,8470,1,0,0:0:0:0:
267,184,8471,1,0,0:0:0:0:
297,220,8472,1,0,0:0:0:0:
262,187,8473,1,0,0:0:0:0:
258,190,8474,1,0,0:0:0:0:
289,214,8475,1,0,0:0:0:0:
253,193,8476,1,0,0:0:0:0:
249,196,8477,1,0,0:0:0:0:
280,208,8478,1,0,0:0:0:0:
244,199,8479,1,0,0:0:0:0:
240,202,8480,1,0,0:0:0:0:
271,202,8481,1,0,0:0:0:0:
235,205,8482,1,0,0:0:0:0:
231,208,8483,1,0,0:0:0:0:
262,196,8484,1,0,0:0:0:0:
227,211,8485,1,0,0:0:0:0:
222,214,8486,1,0,0:0:0:0:
253,190,8487,1,0,0:0:0:0:
218,217,8488,1,0,0:0:0:0:
213,219,8489,1,0,0:0:0:0:
244,184,8490,1,0,0:0:0:0:
209,222,8491,1,0,0:0:0:0:
204,225,8492,1,0,0:0:0:0:
235,178,8493,1,0,0:0:0:0:
200,228,8494,1,0,0:0:0:0:
195,231,8495,1,0,0:0:0:0:
227,172,8496,1,0,0:0:0:0:
191,234,8497,1,0,0:0:0:0:
186,237,8498,1,0,0:0:0:0:
218,166,8499,1,0,0:0:0:0:
181,239,8500,1,0,0:0:0:0:
177,242,8501,1,0,0:0:0:0:
209,161,8502,1,0,0:0:0:0:
172,245,8503,1,0,0:0:0:0:
168,248,8504,1,0,0:0:0:0:
200,155,8505,1,0,0:0:0:0:
163,251,8506,1,0,0:0:0:0:
158,253,8507,1,0,0:0:0:0:
191,149,8508,1,0,0:0:0:0:
154,256,8509,1,0,0:0:0:0:
149,259,8510,1,0,0:0:0:0:
181,144,8511,1,0,0:0:0:0:
144,261,8512,1,0,0:0:0:0:
140,264,8513,1,0,0:0:0:0:
172,138,8514,1,0,0:0:0:0:
135,266,8515,1,0,0:0:0:0:
130,269,8516,1,0,0:0:0:0:
163,132,8517,1,0,0:0:0:0:
126,271,8518,1,0,0:0:0:0:
121,274,8519,1,0,0:0:0:0:
154,127,8520,1,0,0:0:0:0:
116,276,8521,1,0,0:0:0:0:
111,279,8522,1,0,0:0:0:0:
144,122,8523,1,0,0:0:0:0:
106,281,8524,1,0,0:0:0:0:
102,283,8525,1,0,0:0:0:0:
135,117,8526,1,0,0:0:0:0:
97,285,8527,1,0,0:0:0:0:
92,287,8528,1,0,0:0:0:0:
126,112,8529,1,0,0:0:0:0:
87,289,8530,1,0,0:0:0:0:
82,291,8531,1,0,0:0:0:0:
116,107,8532,1,0,0:0:0:0:
76,292,8533,1,0,0:0:0:0:
71,293,8534,1,0,0:0:0:0:
106,102,8535,1,0,0:0:0:0:
66,294,8536,1,0,0:0:0:0:
61,295,8537,1,0,0:0:0:0:
97,98,8538,1,0,0:0:0:0:
55,295,8539,1,0,0:0:0:0:
50,293,8540,1,0,0:0:0:0:
87,94,8541,1,0,0:0:0:0:
46,289,8542,1,0,0:0:0:0:
44,285,8543,1,0,0:0:0:0:
76,91,8544,1,0,0:0:0:0:
71,90,8545,1,0,0:0:0:0:
66,89,8547,1,0,0:0:0:0:
61,88,8548,1,0,0:0:0:0:
55,88,8550,1,0,0:0:0:0:
50,90,8551,1,0,0:0:0:0:
46,94,8553,1,0,0:0:0:0:
44,98,8554,1,0,0:0:0:0:
24,24,8599,1,0,0:0:0:0:
28,27,8600,1,0,0:0:0:0:
32,30,8602,1,0,0:0:0:0:
36,33,8603,1,0,0:0:0:0:
41,36,8605,1,0,0:0:0:0:
45,40,8606,1,0,0:0:0:0:
49,43,8608,1,0,0:0:0:0:
53,46,8609,1,0,0:0:0:0:
24,360,8610,1,0,0:0:0:0:
58,49,8611,1,0,0:0:0:0:
62,52,8612,1,0,0:0:0:0:
32,353,8613,1,0,0:0:0:0:
66,56,8614,1,0,0:0:0:0:
71,59,8615,1,0,0:0:0:0:
41,347,8616,1,0,0:0:0:0:
75,62,8617,1,0,0:0:0:0:
79,65,8618,1,0,0:0:0:0:
49,340,8619,1,0,0:0:0:0:
83,68,8620,1,0,0:0:0:0:
88,72,8621,1,0,0:0:0:0:
58,334,8622,1,0,0:0:0:0:
92,75,8623,1,0,0:0:0:0:
96,78,8624,1,0,0:0:0:0:
66,327,8625,1,0,0:0:0:0:
101,81,8626,1,0,0:0:0:0:
105,84,8627,1,0,0:0:0:0:
75,321,8628,1,0,0:0:0:0:
109,88,8629,1,0,0:0:0:0:
114,91,8630,1,0,0:0:0:0:
83,315,8631,1,0,0:0:0:0:
118,94,8632,1,0,0:0:0:0:
122,97,8633,1,0,0:0:0:0:
92,308,8634,1,0,0:0:0:0:
127,100,8635,1,0,0:0:0:0:
131,103,8636,1,0,0:0:0:0:
101,302,8637,1,0,0:0:0:0:
135,107,8638,1,0,0:0:0:0:
140,110,8639,1,0,0:0:0:0:
109,295,8640,1,0,0:0:0:0:
144,113,8641,1,0,0:0:0:0:
148,116,8642,1,0,0:0:0:0:
118,289,8643,1,0,0:0:0:0:
153,119,8644,1,0,0:0:0:0:
157,122,8645,1,0,0:0:0:0:
127,283,8646,1,0,0:0:0:0:
161,125,8647,1,0,0:0:0:0:
166,129,8648,1,0,0:0:0:0:
135,276,8649,1,0,0:0:0:0:
170,132,8650,1,0,0:0:0:0:
174,135,8651,1,0,0:0:0:0:
144,270,8652,1,0,0:0:0:0:
179,138,8653,1,0,0:0:0:0:
183,141,8654,1,0,0:0:0:0:
153,264,8655,1,0,0:0:0:0:
187,144,8656,1,0,0:0:0:0:
192,147,8657,1,0,0:0:0:0:
161,258,8658,1,0,0:0:0:0:
196,150,8659,1,0,0:0:0:0:
200,153,8660,1,0,0:0:0:0:
170,251,8661,1,0,0:0:0:0:
205,156,8662,1,0,0:0:0:0:
209,160,8663,1,0,0:0:0:0:
179,245,8664,1,0,0:0:0:0:
214,163,8665,1,0,0:0:0:0:
218,166,8666,1,0,0:0:0:0:
187,239,8667,1,0,0:0:0:0:
222,169,8668,1,0,0:0:0:0:
227,172,8669,1,0,0:0:0:0:
196,233,8670,1,0,0:0:0:0:
231,175,8671,1,0,0:0:0:0:
236,178,8672,1,0,0:0:0:0:
205,227,8673,1,0,0:0:0:0:
240,181,8674,1,0,0:0:0:0:
244,184,8675,1,0,0:0:0:0:
214,220,8676,1,0,0:0:0:0:
249,187,8677,1,0,0:0:0:0:
253,190,8678,1,0,0:0:0:0:
222,214,8679,1,0,0:0:0:0:
258,193,8680,1,0,0:0:0:0:
262,196,8681,1,0,0:0:0:0:
231,208,8682,1,0,0:0:0:0:
267,199,8683,1,0,0:0:0:0:
271,202,8684,1,0,0:0:0:0:
240,202,8685,1,0,0:0:0:0:
276,205,8686,1,0,0:0:0:0:
280,208,8687,1,0,0:0:0:0:
249,196,8688,1,0,0:0:0:0:
284,211,8689,1,0,0:0:0:0:
289,214,8690,1,0,0:0:0:0:
258,190,8691,1,0,0:0:0:0:
293,217,8692,1,0,0:0:0:0:
298,219,8693,1,0,0:0:0:0:
267,184,8694,1,0,0:0:0:0:
302,222,8695,1,0,0:0:0:0:
307,225,8696,1,0,0:0:0:0:
276,178,8697,1,0,0:0:0:0:
311,228,8698,1,0,0:0:0:0:
316,231,8699,1,0,0:0:0:0:
284,172,8700,1,0,0:0:0:0:
320,234,8701,1,0,0:0:0:0:
325,237,8702,1,0,0:0:0:0:
293,166,8703,1,0,0:0:0:0:
330,239,8704,1,0,0:0:0:0:
334,242,8705,1,0,0:0:0:0:
302,161,8706,1,0,0:0:0:0:
339,245,8707,1,0,0:0:0:0:
343,248,8708,1,0,0:0:0:0:
311,155,8709,1,0,0:0:0:0:
348,251,8710,1,0,0:0:0:0:
353,253,8711,1,0,0:0:0:0:
320,149,8712,1,0,0:0:0:0:
357,256,8713,1,0,0:0:0:0:
362,259,8714,1,0,0:0:0:0:
330,144,8715,1,0,0:0:0:0:
367,261,8716,1,0,0:0:0:0:
371,264,8717,1,0,0:0:0:0:
339,138,8718,1,0,0:0:0:0:
376,266,8719,1,0,0:0:0:0:
381,269,8720,1,0,0:0:0:0:
348,132,8721,1,0,0:0:0:0:
385,271,8722,1,0,0:0:0:0:
390,274,8723,1,0,0:0:0:0:
357,127,8724,1,0,0:0:0:0:
395,276,8725,1,0,0:0:0:0:
400,279,8726,1,0,0:0:0:0:
367,122,8727,1,0,0:0:0:0:
405,281,8728,1,0,0:0:0:0:
409,283,8729,1,0,0:0:0:0:
376,117,8730,1,0,0:0:0:0:
414,285,8731,1,0,0:0:0:0:
419,287,8732,1,0,0:0:0:0:
385,112,8733,1,0,0:0:0:0:
424,289,8734,1,0,0:0:0:0:
429,291,8735,1,0,0:0:0:0:
395,107,8736,1,0,0:0:0:0:
435,292,8737,1,0,0:0:0:0:
440,293,8738,1,0,0:0:0:0:
405,102,8739,1,0,0:0:0:0:
445,294,8740,1,0,0:0:0:0:
450,295,8741,1,0,0:0:0:0:
414,98,8742,1,0,0:0:0:0:
456,295,8743,1,0,0:0:0:0:
461,293,8744,1,0,0:0:0:0:
424,94,8745,1,0,0:0:0:0:
465,289,8746,1,0,0:0:0:0:
467,285,8747,1,0,0:0:0:0:
435,91,8748,1,0,0:0:0:0:
440,90,8749,1,0,0:0:0:0:
445,89,8751,1,0,0:0:0:0:
450,88,8752,1,0,0:0:0:0:
456,88,8754,1,0,0:0:0:0:
461,90,8755,1,0,0:0:0:0:
465,94,8757,1,0,0:0:0:0:
467,98,8758,1,0,0:0:0:0:
488,360,8770,1,0,0:0:0:0:
483,356,8771,1,0,0:0:0:0:
479,353,8773,1,0,0:0:0:0:
475,350,8774,1,0,0:0:0:0:
470,347,8776,1,0,0:0:0:0:
466,343,8777,1,0,0:0:0:0:
462,340,8779,1,0,0:0:0:0:
458,337,8780,1,0,0:0:0:0:
453,334,8782,1,0,0:0:0:0:
449,331,8783,1,0,0:0:0:0:
445,327,8785,1,0,0:0:0:0:
440,324,8786,1,0,0:0:0:0:
436,321,8788,1,0,0:0:0:0:
432,318,8789,1,0,0:0:0:0:
428,315,8791,1,0,0:0:0:0:
423,311,8792,1,0,0:0:0:0:
419,308,8794,1,0,0:0:0:0:
415,305,8795,1,0,0:0:0:0:
410,302,8797,1,0,0:0:0:0:
406,299,8798,1,0,0:0:0:0:
402,295,8800,1,0,0:0:0:0:
397,292,8801,1,0,0:0:0:0:
393,289,8803,1,0,0:0:0:0:
389,286,8804,1,0,0:0:0:0:
384,283,8806,1,0,0:0:0:0:
380,280,8807,1,0,0:0:0:0:
376,276,8809,1,0,0:0:0:0:
371,273,8810,1,0,0:0:0:0:
367,270,8812,1,0,0:0:0:0:
363,267,8813,1,0,0:0:0:0:
358,264,8815,1,0,0:0:0:0:
354,261,8816,1,0,0:0:0:0:
350,258,8818,1,0,0:0:0:0:
345,254,8819,1,0,0:0:0:0:
341,251,8821,1,0,0:0:0:0:
337,248,8822,1,0,0:0:0:0:
332,245,8824,1,0,0:0:0:0:
328,242,8825,1,0,0:0:0:0:
324,239,8827,1,0,0:0:0:0:
319,236,8828,1,0,0:0:0:0:
315,233,8830,1,0,0:0:0:0:
311,230,8831,1,0,0:0:0:0:
306,227,8833,1,0,0:0:0:0:
302,223,8834,1,0,0:0:0:0:
297,220,8836,1,0,0:0:0:0:
293,217,8837,1,0,0:0:0:0:
289,214,8839,1,0,0:0:0:0:
284,211,8840,1,0,0:0:0:0:
280,208,8842,1,0,0:0:0:0:
275,205,8843,1,0,0:0:0:0:
271,202,8845,1,0,0:0:0:0:
267,199,8846,1,0,0:0:0:0:
262,196,8848,1,0,0:0:0:0:
258,193,8849,1,0,0:0:0:0:
253,190,8851,1,0,0:0:0:0:
249,187,8852,1,0,0:0:0:0:
244,184,8854,1,0,0:0:0:0:
240,181,8855,1,0,0:0:0:0:
488,24,8856,1,0,0:0:0:0:
235,178,8857,1,0,0:0:0:0:
231,175,8858,1,0,0:0:0:0:
479,30,8859,1,0,0:0:0:0:
227,172,8860,1,0,0:0:0:0:
222,169,8861,1,0,0:0:0:0:
470,36,8862,1,0,0:0:0:0:
218,166,8863,1,0,0:0:0:0:
213,164,8864,1,0,0:0:0:0:
462,43,8865,1,0,0:0:0:0:
209,161,8866,1,0,0:0:0:0:
204,158,8867,1,0,0:0:0:0:
453,49,8868,1,0,0:0:0:0:
200,155,8869,1,0,0:0:0:0:
195,152,8870,1,0,0:0:0:0:
445,56,8871,1,0,0:0:0:0:
191,149,8872,1,0,0:0:0:0:
186,146,8873,1,0,0:0:0:0:
436,62,8874,1,0,0:0:0:0:
181,144,8875,1,0,0:0:0:0:
177,141,8876,1,0,0:0:0:0:
428,68,8877,1,0,0:0:0:0:
172,138,8878,1,0,0:0:0:0:
168,135,8879,1,0,0:0:0:0:
419,75,8880,1,0,0:0:0:0:
163,132,8881,1,0,0:0:0:0:
158,130,8882,1,0,0:0:0:0:
410,81,8883,1,0,0:0:0:0:
154,127,8884,1,0,0:0:0:0:
149,124,8885,1,0,0:0:0:0:
402,88,8886,1,0,0:0:0:0:
144,122,8887,1,0,0:0:0:0:
140,119,8888,1,0,0:0:0:0:
393,94,8889,1,0,0:0:0:0:
135,117,8890,1,0,0:0:0:0:
130,114,8891,1,0,0:0:0:0:
384,100,8892,1,0,0:0:0:0:
126,112,8893,1,0,0:0:0:0:
121,109,8894,1,0,0:0:0:0:
376,107,8895,1,0,0:0:0:0:
116,107,8896,1,0,0:0:0:0:
111,104,8897,1,0,0:0:0:0:
367,113,8898,1,0,0:0:0:0:
106,102,8899,1,0,0:0:0:0:
102,100,8900,1,0,0:0:0:0:
358,119,8901,1,0,0:0:0:0:
97,98,8902,1,0,0:0:0:0:
92,96,8903,1,0,0:0:0:0:
350,125,8904,1,0,0:0:0:0:
87,94,8905,1,0,0:0:0:0:
82,92,8906,1,0,0:0:0:0:
341,132,8907,1,0,0:0:0:0:
76,91,8908,1,0,0:0:0:0:
71,90,8909,1,0,0:0:0:0:
332,138,8910,1,0,0:0:0:0:
66,89,8911,1,0,0:0:0:0:
61,88,8912,1,0,0:0:0:0:
324,144,8913,1,0,0:0:0:0:
55,88,8914,1,0,0:0:0:0:
50,90,8915,1,0,0:0:0:0:
315,150,8916,1,0,0:0:0:0:
46,94,8917,1,0,0:0:0:0:
44,98,8918,1,0,0:0:0:0:
306,156,8919,1,0,0:0:0:0:
302,160,8920,1,0,0:0:0:0:
297,163,8922,1,0,0:0:0:0:
293,166,8923,1,0,0:0:0:0:
289,169,8925,1,0,0:0:0:0:
284,172,8926,1,0,0:0:0:0:
280,175,8928,1,0,0:0:0:0:
275,178,8929,1,0,0:0:0:0:
271,181,8931,1,0,0:0:0:0:
267,184,8932,1,0,0:0:0:0:
262,187,8934,1,0,0:0:0:0:
258,190,8935,1,0,0:0:0:0:
253,193,8937,1,0,0:0:0:0:
249,196,8938,1,0,0:0:0:0:
244,199,8940,1,0,0:0:0:0:
240,202,8941,1,0,0:0:0:0:
235,205,8943,1,0,0:0:0:0:
231,208,8944,1,0,0:0:0:0:
227,211,8946,1,0,0:0:0:0:
222,214,8947,1,0,0:0:0:0:
218,217,8949,1,0,0:0:0:0:
213,219,8950,1,0,0:0:0:0:
209,222,8952,1,0,0:0:0:0:
204,225,8953,1,0,0:0:0:0:
200,228,8955,1,0,0:0:0:0:
195,231,8956,1,0,0:0:0:0:
191,234,8958,1,0,0:0:0:0:
186,237,8959,1,0,0:0:0:0:
181,239,8961,1,0,0:0:0:0:
177,242,8962,1,0,0:0:0:0:
172,245,8964,1,0,0:0:0:0:
168,248,8965,1,0,0:0:0:0:
163,251,8967,1,0,0:0:0:0:
158,253,8968,1,0,0:0:0:0:
154,256,8970,1,0,0:0:0:0:
149,259,8971,1,0,0:0:0:0:
144,261,8973,1,0,0:0:0:0:
24,360,8974,1,0,0:0:0:0:
28,356,8975,1,0,0:0:0:0:
135,266,8976,1,0,0:0:0:0:
32,353,8977,1,0,0:0:0:0:
36,350,8978,1,0,0:0:0:0:
126,271,8979,1,0,0:0:0:0:
41,347,8980,1,0,0:0:0:0:
45,343,8981,1,0,0:0:0:0:
116,276,8982,1,0,0:0:0:0:
49,340,8983,1,0,0:0:0:0:
53,337,8984,1,0,0:0:0:0:
106,281,8985,1,0,0:0:0:0:
58,334,8986,1,0,0:0:0:0:
62,331,8987,1,0,0:0:0:0:
97,285,8988,1,0,0:0:0:0:
66,327,8989,1,0,0:0:0:0:
71,324,8990,1,0,0:0:0:0:
87,289,8991,1,0,0:0:0:0:
75,321,8992,1,0,0:0:0:0:
79,318,8993,1,0,0:0:0:0:
76,292,8994,1,0,0:0:0:0:
83,315,8995,1,0,0:0:0:0:
88,311,8996,1,0,0:0:0:0:
66,294,8997,1,0,0:0:0:0:
92,308,8998,1,0,0:0:0:0:
96,305,8999,1,0,0:0:0:0:
55,295,9000,1,0,0:0:0:0:
101,302,9001,1,0,0:0:0:0:
105,299,9002,1,0,0:0:0:0:
46,289,9003,1,0,0:0:0:0:
109,295,9004,1,0,0:0:0:0:
114,292,9005,1,0,0:0:0:0:
118,289,9007,1,0,0:0:0:0:
122,286,9008,1,0,0:0:0:0:
127,283,9010,1,0,0:0:0:0:
131,280,9011,1,0,0:0:0:0:
135,276,9013,1,0,0:0:0:0:
140,273,9014,1,0,0:0:0:0:
144,270,9016,1,0,0:0:0:0:
148,267,9017,1,0,0:0:0:0:
153,264,9019,1,0,0:0:0:0:
157,261,9020,1,0,0:0:0:0:
161,258,9022,1,0,0:0:0:0:
166,254,9023,1,0,0:0:0:0:
170,251,9025,1,0,0:0:0:0:
174,248,9026,1,0,0:0:0:0:
179,245,9028,1,0,0:0:0:0:
183,242,9029,1,0,0:0:0:0:
187,239,9031,1,0,0:0:0:0:
192,236,9032,1,0,0:0:0:0:
196,233,9034,1,0,0:0:0:0:
200,230,9035,1,0,0:0:0:0:
205,227,9037,1,0,0:0:0:0:
209,223,9038,1,0,0:0:0:0:
214,220,9040,1,0,0:0:0:0:
218,217,9041,1,0,0:0:0:0:
222,214,9043,1,0,0:0:0:0:
227,211,9044,1,0,0:0:0:0:
231,208,9046,1,0,0:0:0:0:
236,205,9047,1,0,0:0:0:0:
240,202,9049,1,0,0:0:0:0:
244,199,9050,1,0,0:0:0:0:
249,196,9052,1,0,0:0:0:0:
253,193,9053,1,0,0:0:0:0:
258,190,9055,1,0,0:0:0:0:
262,187,9056,1,0,0:0:0:0:
267,184,9058,1,0,0:0:0:0:
271,181,9059,1,0,0:0:0:0:
24,24,9060,1,0,0:0:0:0:
276,178,9061,1,0,0:0:0:0:
280,175,9062,1,0,0:0:0:0:
32,30,9063,1,0,0:0:0:0:
284,172,9064,1,0,0:0:0:0:
289,169,9065,1,0,0:0:0:0:
41,36,9066,1,0,0:0:0:0:
293,166,9067,1,0,0:0:0:0:
298,164,9068,1,0,0:0:0:0:
49,43,9069,1,0,0:0:0:0:
302,161,9070,1,0,0:0:0:0:
307,158,9071,1,0,0:0:0:0:
58,49,9072,1,0,0:0:0:0:
311,155,9073,1,0,0:0:0:0:
316,152,9074,1,0,0:0:0:0:
66,56,9075,1,0,0:0:0:0:
320,149,9076,1,0,0:0:0:0:
325,146,9077,1,0,0:0:0:0:
75,62,9078,1,0,0:0:0:0:
330,144,9079,1,0,0:0:0:0:
334,141,9080,1,0,0:0:0:0:
83,68,9081,1,0,0:0:0:0:
339,138,9082,1,0,0:0:0:0:
343,135,9083,1,0,0:0:0:0:
92,75,9084,1,0,0:0:0:0:
348,132,9085,1,0,0:0:0:0:
353,130,9086,1,0,0:0:0:0:
101,81,9087,1,0,0:0:0:0:
357,127,9088,1,0,0:0:0:0:
362,124,9089,1,0,0:0:0:0:
109,88,9090,1,0,0:0:0:0:
367,122,9091,1,0,0:0:0:0:
371,119,9092,1,0,0:0:0:0:
118,94,9093,1,0,0:0:0:0:
376,117,9094,1,0,0:0:0:0:
381,114,9095,1,0,0:0:0:0:
127,100,9096,1,0,0:0:0:0:
385,112,9097,1,0,0:0:0:0:
390,109,9098,1,0,0:0:0:0:
135,107,9099,1,0,0:0:0:0:
395,107,9100,1,0,0:0:0:0:
400,104,9101,1,0,0:0:0:0:
144,113,9102,1,0,0:0:0:0:
405,102,9103,1,0,0:0:0:0:
409,100,9104,1,0,0:0:0:0:
153,119,9105,1,0,0:0:0:0:
414,98,9106,1,0,0:0:0:0:
419,96,9107,1,0,0:0:0:0:
161,125,9108,1,0,0:0:0:0:
424,94,9109,1,0,0:0:0:0:
429,92,9110,1,0,0:0:0:0:
170,132,9111,1,0,0:0:0:0:
435,91,9112,1,0,0:0:0:0:
440,90,9113,1,0,0:0:0:0:
179,138,9114,1,0,0:0:0:0:
445,89,9115,1,0,0:0:0:0:
450,88,9116,1,0,0:0:0:0:
187,144,9117,1,0,0:0:0:0:
456,88,9118,1,0,0:0:0:0:
461,90,9119,1,0,0:0:0:0:
196,150,9120,1,0,0:0:0:0:
465,94,9121,1,0,0:0:0:0:
467,98,9122,1,0,0:0:0:0:
205,156,9123,1,0,0:0:0:0:
209,160,9124,1,0,0:0:0:0:
214,163,9126,1,0,0:0:0:0:
218,166,9127,1,0,0:0:0:0:
222,169,9129,1,0,0:0:0:0:
227,172,9130,1,0,0:0:0:0:
231,175,9132,1,0,0:0:0:0:
236,178,9133,1,0,0:0:0:0:
240,181,9135,1,0,0:0:0:0:
244,184,9136,1,0,0:0:0:0:
249,187,9138,1,0,0:0:0:0:
253,190,9139,1,0,0:0:0:0:
258,193,9141,1,0,0:0:0:0:
262,196,9142,1,0,0:0:0:0:
267,199,9144,1,0,0:0:0:0:
271,202,9145,1,0,0:0:0:0:
276,205,9147,1,0,0:0:0:0:
280,208,9148,1,0,0:0:0:0:
284,211,9150,1,0,0:0:0:0:
289,214,9151,1,0,0:0:0:0:
293,217,9153,1,0,0:0:0:0:
298,219,9154,1,0,0:0:0:0:
488,24,9156,1,0,0:0:0:0:
483,27,9157,1,0,0:0:0:0:
479,30,9159,1,0,0:0:0:0:
475,33,9160,1,0,0:0:0:0:
470,36,9162,1,0,0:0:0:0:
466,40,9163,1,0,0:0:0:0:
462,43,9165,1,0,0:0:0:0:
458,46,9166,1,0,0:0:0:0:
453,49,9168,1,0,0:0:0:0:
449,52,9169,1,0,0:0:0:0:
445,56,9171,1,0,0:0:0:0:
440,59,9172,1,0,0:0:0:0:
436,62,9174,1,0,0:0:0:0:
432,65,9175,1,0,0:0:0:0:
428,68,9177,1,0,0:0:0:0:
423,72,9178,1,0,0:0:0:0:
419,75,9180,1,0,0:0:0:0:
415,78,9181,1,0,0:0:0:0:
410,81,9183,1,0,0:0:0:0:
406,84,9184,1,0,0:0:0:0:
402,88,9186,1,0,0:0:0:0:
397,91,9187,1,0,0:0:0:0:
393,94,9189,1,0,0:0:0:0:
389,97,9190,1,0,0:0:0:0:
384,100,9192,1,0,0:0:0:0:
380,103,9193,1,0,0:0:0:0:
376,107,9195,1,0,0:0:0:0:
371,110,9196,1,0,0:0:0:0:
367,113,9198,1,0,0:0:0:0:
363,116,9199,1,0,0:0:0:0:
358,119,9201,1,0,0:0:0:0:
354,122,9202,1,0,0:0:0:0:
350,125,9204,1,0,0:0:0:0:
345,129,9205,1,0,0:0:0:0:
341,132,9207,1,0,0:0:0:0:
337,135,9208,1,0,0:0:0:0:
332,138,9210,1,0,0:0:0:0:
328,141,9211,1,0,0:0:0:0:
324,144,9213,1,0,0:0:0:0:
319,147,9214,1,0,0:0:0:0:
315,150,9216,1,0,0:0:0:0:
311,153,9217,1,0,0:0:0:0:
306,156,9219,1,0,0:0:0:0:
302,160,9220,1,0,0:0:0:0:
297,163,9222,1,0,0:0:0:0:
293,166,9223,1,0,0:0:0:0:
289,169,9225,1,0,0:0:0:0:
284,172,9226,1,0,0:0:0:0:
280,175,9228,1,0,0:0:0:0:
275,178,9229,1,0,0:0:0:0:
271,181,9231,1,0,0:0:0:0:
267,184,9232,1,0,0:0:0:0:
262,187,9234,1,0,0:0:0:0:
258,190,9235,1,0,0:0:0:0:
253,193,9237,1,0,0:0:0:0:
249,196,9238,1,0,0:0:0:0:
244,199,9240,1,0,0:0:0:0:
240,202,9241,1,0,0:0:0:0:
235,205,9243,1,0,0:0:0:0:
231,208,9244,1,0,0:0:0:0:
227,211,9246,1,0,0:0:0:0:
222,214,9247,1,0,0:0:0:0:
218,217,9249,1,0,0:0:0:0:
213,219,9250,1,0,0:0:0:0:
209,222,9252,1,0,0:0:0:0:
204,225,9253,1,0,0:0:0:0:
200,228,9255,1,0,0:0:0:0:
195,231,9256,1,0,0:0:0:0:
191,234,9258,1,0,0:0:0:0:
186,237,9259,1,0,0:0:0:0:
181,239,9261,1,0,0:0:0:0:
177,242,9262,1,0,0:0:0:0:
172,245,9264,1,0,0:0:0:0:
168,248,9265,1,0,0:0:0:0:
163,251,9267,1,0,0:0:0:0:
158,253,9268,1,0,0:0:0:0:
154,256,9270,1,0,0:0:0:0:
149,259,9271,1,0,0:0:0:0:
144,261,9273,1,0,0:0:0:0:
140,264,9274,1,0,0:0:0:0:
135,266,9276,1,0,0:0:0:0:
130,269,9277,1,0,0:0:0:0:
126,271,9279,1,0,0:0:0:0:
121,274,9280,1,0,0:0:0:0:
116,276,9282,1,0,0:0:0:0:
111,279,9283,1,0,0:0:0:0:
106,281,9285,1,0,0:0:0:0:
102,283,9286,1,0,0:0:0:0:
97,285,9288,1,0,0:0:0:0:
92,287,9289,1,0,0:0:0:0:
87,289,9291,1,0,0:0:0:0:
82,291,9292,1,0,0:0:0:0:
76,292,9294,1,0,0:0:0:0:
71,293,9295,1,0,0:0:0:0:
66,294,9297,1,0,0:0:0:0:
61,295,9298,1,0,0:0:0:0:
55,295,9300,1,0,0:0:0:0:
50,293,9301,1,0,0:0:0:0:
46,289,9303,1,0,0:0:0:0:
44,285,9304,1,0,0:0:0:0:
271,202,9306,1,0,0:0:0:0:
267,199,9307,1,0,0:0:0:0:
262,196,9309,1,0,0:0:0:0:
258,193,9310,1,0,0:0:0:0:
253,190,9312,1,0,0:0:0:0:
249,187,9313,1,0,0:0:0:0:
244,184,9315,1,0,0:0:0:0:
240,181,9316,1,0,0:0:0:0:
235,178,9318,1,0,0:0:0:0:
231,175,9319,1,0,0:0:0:0:
227,172,9321,1,0,0:0:0:0:
222,169,9322,1,0,0:0:0:0:
218,166,9324,1,0,0:0:0:0:
213,164,9325,1,0,0:0:0:0:
209,161,9327,1,0,0:0:0:0:
204,158,9328,1,0,0:0:0:0:
200,155,9330,1,0,0:0:0:0:
195,152,9331,1,0,0:0:0:0:
191,149,9333,1,0,0:0:0:0:
186,146,9334,1,0,0:0:0:0:
181,144,9336,1,0,0:0:0:0:
177,141,9337,1,0,0:0:0:0:
172,138,9339,1,0,0:0:0:0:
168,135,9340,1,0,0:0:0:0:
163,132,9342,1,0,0:0:0:0:
158,130,9343,1,0,0:0:0:0:
154,127,9345,1,0,0:0:0:0:
149,124,9346,1,0,0:0:0:0:
144,122,9348,1,0,0:0:0:0:
140,119,9349,1,0,0:0:0:0:
135,117,9351,1,0,0:0:0:0:
130,114,9352,1,0,0:0:0:0:
126,112,9354,1,0,0:0:0:0:
121,109,9355,1,0,0:0:0:0:
116,107,9357,1,0,0:0:0:0:
111,104,9358,1,0,0:0:0:0:
24,24,9360,1,0,0:0:0:0:
28,27,9361,1,0,0:0:0:0:
32,30,9363,1,0,0:0:0:0:
36,33,9364,1,0,0:0:0:0:
41,36,9366,1,0,0:0:0:0:
45,40,9367,1,0,0:0:0:0:
49,43,9369,1,0,0:0:0:0:
53,46,9370,1,0,0:0:0:0:
58,49,9372,1,0,0:0:0:0:
62,52,9373,1,0,0:0:0:0:
66,56,9375,1,0,0:0:0:0:
71,59,9376,1,0,0:0:0:0:
75,62,9378,1,0,0:0:0:0:
79,65,9379,1,0,0:0:0:0:
83,68,9381,1,0,0:0:0:0:
88,72,9382,1,0,0:0:0:0:
92,75,9384,1,0,0:0:0:0:
96,78,9385,1,0,0:0:0:0:
101,81,9387,1,0,0:0:0:0:
105,84,9388,1,0,0:0:0:0:
109,88,9390,1,0,0:0:0:0:
114,91,9391,1,0,0:0:0:0:
118,94,9393,1,0,0:0:0:0:
122,97,9394,1,0,0:0:0:0:
127,100,9396,1,0,0:0:0:0:
131,103,9397,1,0,0:0:0:0:
135,107,9399,1,0,0:0:0:0:
140,110,9400,1,0,0:0:0:0:
144,113,9402,1,0,0:0:0:0:
148,116,9403,1,0,0:0:0:0:
153,119,9405,1,0,0:0:0:0:
157,122,9406,1,0,0:0:0:0:
161,125,9408,1,0,0:0:0:0:
166,129,9409,1,0,0:0:0:0:
170,132,9411,1,0,0:0:0:0:
174,135,9412,1,0,0:0:0:0:
179,138,9414,1,0,0:0:0:0:
183,141,9415,1,0,0:0:0:0:
187,144,9417,1,0,0:0:0:0:
192,147,9418,1,0,0:0:0:0:
196,150,9420,1,0,0:0:0:0:
200,153,9421,1,0,0:0:0:0:
205,156,9423,1,0,0:0:0:0:
209,160,9424,1,0,0:0:0:0:
214,163,9426,1,0,0:0:0:0:
218,166,9427,1,0,0:0:0:0:
222,169,9429,1,0,0:0:0:0:
227,172,9430,1,0,0:0:0:0:
231,175,9432,1,0,0:0:0:0:
236,178,9433,1,0,0:0:0:0:
240,181,9435,1,0,0:0:0:0:
244,184,9436,1,0,0:0:0:0:
249,187,9438,1,0,0:0:0:0:
253,190,9439,1,0,0:0:0:0:
258,193,9441,1,0,0:0:0:0:
262,196,9442,1,0,0:0:0:0:
267,199,9444,1,0,0:0:0:0:
271,202,9445,1,0,0:0:0:0:
276,205,9447,1,0,0:0:0:0:
280,208,9448,1,0,0:0:0:0:
284,211,9450,1,0,0:0:0:0:
289,214,9451,1,0,0:0:0:0:
293,217,9453,1,0,0:0:0:0:
298,219,9454,1,0,0:0:0:0:
302,222,9456,1,0,0:0:0:0:
307,225,9457,1,0,0:0:0:0:
311,228,9459,1,0,0:0:0:0:
316,231,9460,1,0,0:0:0:0:
320,234,9462,1,0,0:0:0:0:
325,237,9463,1,0,0:0:0:0:
330,239,9465,1,0,0:0:0:0:
334,242,9466,1,0,0:0:0:0:
339,245,9468,1,0,0:0:0:0:
343,248,9469,1,0,0:0:0:0:
348,251,9471,1,0,0:0:0:0:
353,253,9472,1,0,0:0:0:0:
357,256,9474,1,0,0:0:0:0:
362,259,9475,1,0,0:0:0:0:
367,261,9477,1,0,0:0:0:0:
488,24,9478,1,0,0:0:0:0:
483,27,9479,1,0,0:0:0:0:
376,266,9480,1,0,0:0:0:0:
479,30,9481,1,0,0:0:0:0:
475,33,9482,1,0,0:0:0:0:
385,271,9483,1,0,0:0:0:0:
470,36,9484,1,0,0:0:0:0:
466,40,9485,1,0,0:0:0:0:
395,276,9486,1,0,0:0:0:0:
462,43,9487,1,0,0:0:0:0:
458,46,9488,1,0,0:0:0:0:
405,281,9489,1,0,0:0:0:0:
453,49,9490,1,0,0:0:0:0:
449,52,9491,1,0,0:0:0:0:
414,285,9492,1,0,0:0:0:0:
445,56,9493,1,0,0:0:0:0:
440,59,9494,1,0,0:0:0:0:
424,289,9495,1,0,0:0:0:0:
436,62,9496,1,0,0:0:0:0:
432,65,9497,1,0,0:0:0:0:
435,292,9498,1,0,0:0:0:0:
428,68,9499,1,0,0:0:0:0:
423,72,9500,1,0,0:0:0:0:
445,294,9501,1,0,0:0:0:0:
419,75,9502,1,0,0:0:0:0:
415,78,9503,1,0,0:0:0:0:
456,295,9504,1,0,0:0:0:0:
410,81,9505,1,0,0:0:0:0:
406,84,9506,1,0,0:0:0:0:
465,289,9507,1,0,0:0:0:0:
402,88,9508,1,0,0:0:0:0:
397,91,9509,1,0,0:0:0:0:
240,202,9510,1,0,0:0:0:0:
393,94,9511,1,0,0:0:0:0:
389,97,9512,1,0,0:0:0:0:
249,196,9513,1,0,0:0:0:0:
384,100,9514,1,0,0:0:0:0:
380,103,9515,1,0,0:0:0:0:
258,190,9516,1,0,0:0:0:0:
376,107,9517,1,0,0:0:0:0:
371,110,9518,1,0,0:0:0:0:
267,184,9519,1,0,0:0:0:0:
367,113,9520,1,0,0:0:0:0:
363,116,9521,1,0,0:0:0:0:
276,178,9522,1,0,0:0:0:0:
358,119,9523,1,0,0:0:0:0:
354,122,9524,1,0,0:0:0:0:
284,172,9525,1,0,0:0:0:0:
350,125,9526,1,0,0:0:0:0:
345,129,9527,1,0,0:0:0:0:
293,166,9528,1,0,0:0:0:0:
341,132,9529,1,0,0:0:0:0:
337,135,9530,1,0,0:0:0:0:
488,360,9531,1,0,0:0:0:0:
332,138,9532,1,0,0:0:0:0:
328,141,9533,1,0,0:0:0:0:
479,353,9534,1,0,0:0:0:0:
324,144,9535,1,0,0:0:0:0:
319,147,9536,1,0,0:0:0:0:
470,347,9537,1,0,0:0:0:0:
315,150,9538,1,0,0:0:0:0:
311,153,9539,1,0,0:0:0:0:
462,340,9540,1,0,0:0:0:0:
306,156,9541,1,0,0:0:0:0:
302,160,9542,1,0,0:0:0:0:
453,334,9543,1,0,0:0:0:0:
297,163,9544,1,0,0:0:0:0:
293,166,9545,1,0,0:0:0:0:
445,327,9546,1,0,0:0:0:0:
289,169,9547,1,0,0:0:0:0:
284,172,9548,1,0,0:0:0:0:
436,321,9549,1,0,0:0:0:0:
280,175,9550,1,0,0:0:0:0:
275,178,9551,1,0,0:0:0:0:
428,315,9552,1,0,0:0:0:0:
271,181,9553,1,0,0:0:0:0:
267,184,9554,1,0,0:0:0:0:
419,308,9555,1,0,0:0:0:0:
262,187,9556,1,0,0:0:0:0:
258,190,9557,1,0,0:0:0:0:
410,302,9558,1,0,0:0:0:0:
253,193,9559,1,0,0:0:0:0:
249,196,9560,1,0,0:0:0:0:
402,295,9561,1,0,0:0:0:0:
244,199,9562,1,0,0:0:0:0:
240,202,9563,1,0,0:0:0:0:
393,289,9564,1,0,0:0:0:0:
235,205,9565,1,0,0:0:0:0:
231,208,9566,1,0,0:0:0:0:
384,283,9567,1,0,0:0:0:0:
227,211,9568,1,0,0:0:0:0:
222,214,9569,1,0,0:0:0:0:
376,276,9570,1,0,0:0:0:0:
218,217,9571,1,0,0:0:0:0:
213,219,9572,1,0,0:0:0:0:
367,270,9573,1,0,0:0:0:0:
209,222,9574,1,0,0:0:0:0:
204,225,9575,1,0,0:0:0:0:
358,264,9576,1,0,0:0:0:0:
200,228,9577,1,0,0:0:0:0:
195,231,9578,1,0,0:0:0:0:
350,258,9579,1,0,0:0:0:0:
191,234,9580,1,0,0:0:0:0:
186,237,9581,1,0,0:0:0:0:
341,251,9582,1,0,0:0:0:0:
181,239,9583,1,0,0:0:0:0:
177,242,9584,1,0,0:0:0:0:
332,245,9585,1,0,0:0:0:0:
172,245,9586,1,0,0:0:0:0:
168,248,9587,1,0,0:0:0:0:
324,239,9588,1,0,0:0:0:0:
163,251,9589,1,0,0:0:0:0:
158,253,9590,1,0,0:0:0:0:
315,233,9591,1,0,0:0:0:0:
154,256,9592,1,0,0:0:0:0:
149,259,9593,1,0,0:0:0:0:
306,227,9594,1,0,0:0:0:0:
144,261,9595,1,0,0:0:0:0:
140,264,9596,1,0,0:0:0:0:
297,220,9597,1,0,0:0:0:0:
135,266,9598,1,0,0:0:0:0:
130,269,9599,1,0,0:0:0:0:
289,214,9600,1,0,0:0:0:0:
126,271,9601,1,0,0:0:0:0:
121,274,9602,1,0,0:0:0:0:
280,208,9603,1,0,0:0:0:0:
116,276,9604,1,0,0:0:0:0:
111,279,9605,1,0,0:0:0:0:
271,202,9606,1,0,0:0:0:0:
106,281,9607,1,0,0:0:0:0:
102,283,9608,1,0,0:0:0:0:
262,196,9609,1,0,0:0:0:0:
97,285,9610,1,0,0:0:0:0:
92,287,9611,1,0,0:0:0:0:
253,190,9612,1,0,0:0:0:0:
87,289,9613,1,0,0:0:0:0:
82,291,9614,1,0,0:0:0:0:
244,184,9615,1,0,0:0:0:0:
76,292,9616,1,0,0:0:0:0:
71,293,9617,1,0,0:0:0:0:
235,178,9618,1,0,0:0:0:0:
66,294,9619,1,0,0:0:0:0:
61,295,9620,1,0,0:0:0:0:
227,172,9621,1,0,0:0:0:0:
55,295,9622,1,0,0:0:0:0:
50,293,9623,1,0,0:0:0:0:
218,166,9624,1,0,0:0:0:0:
46,289,9625,1,0,0:0:0:0:
44,285,9626,1,0,0:0:0:0:
209,161,9627,1,0,0:0:0:0:
209,222,9628,1,0,0:0:0:0:
204,225,9629,1,0,0:0:0:0:
200,155,9630,1,0,0:0:0:0:
200,228,9631,1,0,0:0:0:0:
195,231,9632,1,0,0:0:0:0:
191,149,9633,1,0,0:0:0:0:
191,234,9634,1,0,0:0:0:0:
186,237,9635,1,0,0:0:0:0:
181,144,9636,1,0,0:0:0:0:
181,239,9637,1,0,0:0:0:0:
177,242,9638,1,0,0:0:0:0:
172,138,9639,1,0,0:0:0:0:
172,245,9640,1,0,0:0:0:0:
168,248,9641,1,0,0:0:0:0:
163,132,9642,1,0,0:0:0:0:
163,251,9643,1,0,0:0:0:0:
158,253,9644,1,0,0:0:0:0:
154,127,9645,1,0,0:0:0:0:
154,256,9646,1,0,0:0:0:0:
149,259,9647,1,0,0:0:0:0:
144,122,9648,1,0,0:0:0:0:
144,261,9649,1,0,0:0:0:0:
140,264,9650,1,0,0:0:0:0:
135,117,9651,1,0,0:0:0:0:
135,266,9652,1,0,0:0:0:0:
130,269,9653,1,0,0:0:0:0:
126,112,9654,1,0,0:0:0:0:
126,271,9655,1,0,0:0:0:0:
121,274,9656,1,0,0:0:0:0:
116,107,9657,1,0,0:0:0:0:
116,276,9658,1,0,0:0:0:0:
111,279,9659,1,0,0:0:0:0:
106,102,9660,1,0,0:0:0:0:
106,281,9661,1,0,0:0:0:0:
102,283,9662,1,0,0:0:0:0:
97,98,9663,1,0,0:0:0:0:
97,285,9664,1,0,0:0:0:0:
92,287,9665,1,0,0:0:0:0:
87,94,9666,1,0,0:0:0:0:
87,289,9667,1,0,0:0:0:0:
82,291,9668,1,0,0:0:0:0:
76,91,9669,1,0,0:0:0:0:
76,292,9670,1,0,0:0:0:0:
71,293,9671,1,0,0:0:0:0:
66,89,9672,1,0,0:0:0:0:
66,294,9673,1,0,0:0:0:0:
61,295,9674,1,0,0:0:0:0:
55,88,9675,1,0,0:0:0:0:
55,295,9676,1,0,0:0:0:0:
50,293,9677,1,0,0:0:0:0:
46,94,9678,1,0,0:0:0:0:
46,289,9679,1,0,0:0:0:0:
44,285,9680,1,0,0:0:0:0:
24,24,9682,1,0,0:0:0:0:
28,27,9683,1,0,0:0:0:0:
32,30,9685,1,0,0:0:0:0:
36,33,9686,1,0,0:0:0:0:
41,36,9688,1,0,0:0:0:0:
45,40,9689,1,0,0:0:0:0:
49,43,9691,1,0,0:0:0:0:
53,46,9692,1,0,0:0:0:0:
58,49,9694,1,0,0:0:0:0:
62,52,9695,1,0,0:0:0:0:
66,56,9697,1,0,0:0:0:0:
71,59,9698,1,0,0:0:0:0:
75,62,9700,1,0,0:0:0:0:
79,65,9701,1,0,0:0:0:0:
83,68,9703,1,0,0:0:0:0:
88,72,9704,1,0,0:0:0:0:
92,75,9706,1,0,0:0:0:0:
96,78,9707,1,0,0:0:0:0:
101,81,9709,1,0,0:0:0:0:
105,84,9710,1,0,0:0:0:0:
109,88,9712,1,0,0:0:0:0:
114,91,9713,1,0,0:0:0:0:
118,94,9715,1,0,0:0:0:0:
122,97,9716,1,0,0:0:0:0:
127,100,9718,1,0,0:0:0:0:
131,103,9719,1,0,0:0:0:0:
135,107,9721,1,0,0:0:0:0:
140,110,9722,1,0,0:0:0:0:
144,113,9724,1,0,0:0:0:0:
148,116,9725,1,0,0:0:0:0:
153,119,9727,1,0,0:0:0:0:
157,122,9728,1,0,0:0:0:0:
161,125,9730,1,0,0:0:0:0:
166,129,9731,1,0,0:0:0:0:
170,132,9733,1,0,0:0:0:0:
174,135,9734,1,0,0:0:0:0:
24,360,9735,1,0,0:0:0:0:
179,138,9736,1,0,0:0:0:0:
183,141,9737,1,0,0:0:0:0:
32,353,9738,1,0,0:0:0:0:
187,144,9739,1,0,0:0:0:0:
192,147,9740,1,0,0:0:0:0:
41,347,9741,1,0,0:0:0:0:
196,150,9742,1,0,0:0:0:0:
200,153,9743,1,0,0:0:0:0:
49,340,9744,1,0,0:0:0:0:
205,156,9745,1,0,0:0:0:0:
209,160,9746,1,0,0:0:0:0:
58,334,9747,1,0,0:0:0:0:
214,163,9748,1,0,0:0:0:0:
218,166,9749,1,0,0:0:0:0:
66,327,9750,1,0,0:0:0:0:
222,169,9751,1,0,0:0:0:0:
227,172,9752,1,0,0:0:0:0:
75,321,9753,1,0,0:0:0:0:
231,175,9754,1,0,0:0:0:0:
236,178,9755,1,0,0:0:0:0:
83,315,9756,1,0,0:0:0:0:
240,181,9757,1,0,0:0:0:0:
244,184,9758,1,0,0:0:0:0:
92,308,9759,1,0,0:0:0:0:
249,187,9760,1,0,0:0:0:0:
253,190,9761,1,0,0:0:0:0:
101,302,9762,1,0,0:0:0:0:
258,193,9763,1,0,0:0:0:0:
262,196,9764,1,0,0:0:0:0:
109,295,9765,1,0,0:0:0:0:
267,199,9766,1,0,0:0:0:0:
271,202,9767,1,0,0:0:0:0:
118,289,9768,1,0,0:0:0:0:
276,205,9769,1,0,0:0:0:0:
280,208,9770,1,0,0:0:0:0:
127,283,9771,1,0,0:0:0:0:
284,211,9772,1,0,0:0:0:0:
289,214,9773,1,0,0:0:0:0:
135,276,9774,1,0,0:0:0:0:
293,217,9775,1,0,0:0:0:0:
298,219,9776,1,0,0:0:0:0:
144,270,9777,1,0,0:0:0:0:
302,222,9778,1,0,0:0:0:0:
307,225,9779,1,0,0:0:0:0:
153,264,9780,1,0,0:0:0:0:
311,228,9781,1,0,0:0:0:0:
316,231,9782,1,0,0:0:0:0:
161,258,9783,1,0,0:0:0:0:
320,234,9784,1,0,0:0:0:0:
325,237,9785,1,0,0:0:0:0:
170,251,9786,1,0,0:0:0:0:
330,239,9787,1,0,0:0:0:0:
334,242,9788,1,0,0:0:0:0:
179,245,9789,1,0,0:0:0:0:
339,245,9790,1,0,0:0:0:0:
343,248,9791,1,0,0:0:0:0:
187,239,9792,1,0,0:0:0:0:
348,251,9793,1,0,0:0:0:0:
353,253,9794,1,0,0:0:0:0:
196,233,9795,1,0,0:0:0:0:
357,256,9796,1,0,0:0:0:0:
362,259,9797,1,0,0:0:0:0:
205,227,9798,1,0,0:0:0:0:
367,261,9799,1,0,0:0:0:0:
371,264,9800,1,0,0:0:0:0:
214,220,9801,1,0,0:0:0:0:
376,266,9802,1,0,0:0:0:0:
381,269,9803,1,0,0:0:0:0:
222,214,9804,1,0,0:0:0:0:
385,271,9805,1,0,0:0:0:0:
390,274,9806,1,0,0:0:0:0:
231,208,9807,1,0,0:0:0:0:
395,276,9808,1,0,0:0:0:0:
400,279,9809,1,0,0:0:0:0:
240,202,9810,1,0,0:0:0:0:
405,281,9811,1,0,0:0:0:0:
409,283,9812,1,0,0:0:0:0:
249,196,9813,1,0,0:0:0:0:
414,285,9814,1,0,0:0:0:0:
419,287,9815,1,0,0:0:0:0:
258,190,9816,1,0,0:0:0:0:
424,289,9817,1,0,0:0:0:0:
429,291,9818,1,0,0:0:0:0:
267,184,9819,1,0,0:0:0:0:
435,292,9820,1,0,0:0:0:0:
440,293,9821,1,0,0:0:0:0:
276,178,9822,1,0,0:0:0:0:
445,294,9823,1,0,0:0:0:0:
450,295,9824,1,0,0:0:0:0:
284,172,9825,1,0,0:0:0:0:
456,295,9826,1,0,0:0:0:0:
461,293,9827,1,0,0:0:0:0:
293,166,9828,1,0,0:0:0:0:
465,289,9829,1,0,0:0:0:0:
467,285,9830,1,0,0:0:0:0:
302,161,9831,1,0,0:0:0:0:
302,222,9832,1,0,0:0:0:0:
307,225,9833,1,0,0:0:0:0:
311,155,9834,1,0,0:0:0:0:
311,228,9835,1,0,0:0:0:0:
316,231,9836,1,0,0:0:0:0:
320,149,9837,1,0,0:0:0:0:
320,234,9838,1,0,0:0:0:0:
325,237,9839,1,0,0:0:0:0:
330,144,9840,1,0,0:0:0:0:
330,239,9841,1,0,0:0:0:0:
334,242,9842,1,0,0:0:0:0:
339,138,9843,1,0,0:0:0:0:
339,245,9844,1,0,0:0:0:0:
343,248,9845,1,0,0:0:0:0:
348,132,9846,1,0,0:0:0:0:
348,251,9847,1,0,0:0:0:0:
353,253,9848,1,0,0:0:0:0:
357,127,9849,1,0,0:0:0:0:
357,256,9850,1,0,0:0:0:0:
362,259,9851,1,0,0:0:0:0:
367,122,9852,1,0,0:0:0:0:
488,360,9853,1,0,0:0:0:0:
483,356,9854,1,0,0:0:0:0:
376,117,9855,1,0,0:0:0:0:
479,353,9856,1,0,0:0:0:0:
475,350,9857,1,0,0:0:0:0:
385,112,9858,1,0,0:0:0:0:
470,347,9859,1,0,0:0:0:0:
466,343,9860,1,0,0:0:0:0:
395,107,9861,1,0,0:0:0:0:
462,340,9862,1,0,0:0:0:0:
458,337,9863,1,0,0:0:0:0:
405,102,9864,1,0,0:0:0:0:
453,334,9865,1,0,0:0:0:0:
449,331,9866,1,0,0:0:0:0:
414,98,9867,1,0,0:0:0:0:
445,327,9868,1,0,0:0:0:0:
440,324,9869,1,0,0:0:0:0:
424,94,9870,1,0,0:0:0:0:
436,321,9871,1,0,0:0:0:0:
432,318,9872,1,0,0:0:0:0:
435,91,9873,1,0,0:0:0:0:
428,315,9874,1,0,0:0:0:0:
423,311,9875,1,0,0:0:0:0:
445,89,9876,1,0,0:0:0:0:
419,308,9877,1,0,0:0:0:0:
415,305,9878,1,0,0:0:0:0:
456,88,9879,1,0,0:0:0:0:
410,302,9880,1,0,0:0:0:0:
406,299,9881,1,0,0:0:0:0:
465,94,9882,1,0,0:0:0:0:
402,295,9883,1,0,0:0:0:0:
397,292,9884,1,0,0:0:0:0:
393,289,9886,1,0,0:0:0:0:
389,286,9887,1,0,0:0:0:0:
384,283,9889,1,0,0:0:0:0:
380,280,9890,1,0,0:0:0:0:
376,276,9892,1,0,0:0:0:0:
371,273,9893,1,0,0:0:0:0:
367,270,9895,1,0,0:0:0:0:
363,267,9896,1,0,0:0:0:0:
358,264,9898,1,0,0:0:0:0:
354,261,9899,1,0,0:0:0:0:
350,258,9901,1,0,0:0:0:0:
345,254,9902,1,0,0:0:0:0:
341,251,9904,1,0,0:0:0:0:
337,248,9905,1,0,0:0:0:0:
332,245,9907,1,0,0:0:0:0:
328,242,9908,1,0,0:0:0:0:
324,239,9910,1,0,0:0:0:0:
319,236,9911,1,0,0:0:0:0:
315,233,9913,1,0,0:0:0:0:
311,230,9914,1,0,0:0:0:0:
306,227,9916,1,0,0:0:0:0:
302,223,9917,1,0,0:0:0:0:
297,220,9919,1,0,0:0:0:0:
293,217,9920,1,0,0:0:0:0:
289,214,9922,1,0,0:0:0:0:
284,211,9923,1,0,0:0:0:0:
280,208,9925,1,0,0:0:0:0:
275,205,9926,1,0,0:0:0:0:
271,202,9928,1,0,0:0:0:0:
267,199,9929,1,0,0:0:0:0:
262,196,9931,1,0,0:0:0:0:
258,193,9932,1,0,0:0:0:0:
253,190,9934,1,0,0:0:0:0:
249,187,9935,1,0,0:0:0:0:
244,184,9937,1,0,0:0:0:0:
240,181,9938,1,0,0:0:0:0:
235,178,9940,1,0,0:0:0:0:
231,175,9941,1,0,0:0:0:0:
227,172,9943,1,0,0:0:0:0:
222,169,9944,1,0,0:0:0:0:
218,166,9946,1,0,0:0:0:0:
213,164,9947,1,0,0:0:0:0:
209,161,9949,1,0,0:0:0:0:
204,158,9950,1,0,0:0:0:0:
200,155,9952,1,0,0:0:0:0:
195,152,9953,1,0,0:0:0:0:
191,149,9955,1,0,0:0:0:0:
186,146,9956,1,0,0:0:0:0:
181,144,9958,1,0,0:0:0:0:
177,141,9959,1,0,0:0:0:0:
172,138,9961,1,0,0:0:0:0:
168,135,9962,1,0,0:0:0:0:
163,132,9964,1,0,0:0:0:0:
158,130,9965,1,0,0:0:0:0:
154,127,9967,1,0,0:0:0:0:
149,124,9968,1,0,0:0:0:0:
144,122,9970,1,0,0:0:0:0:
140,119,9971,1,0,0:0:0:0:
135,117,9973,1,0,0:0:0:0:
130,114,9974,1,0,0:0:0:0:
126,112,9976,1,0,0:0:0:0:
121,109,9977,1,0,0:0:0:0:
116,107,9979,1,0,0:0:0:0:
111,104,9980,1,0,0:0:0:0:
106,102,9982,1,0,0:0:0:0:
102,100,9983,1,0,0:0:0:0:
97,98,9985,1,0,0:0:0:0:
92,96,9986,1,0,0:0:0:0:
87,94,9988,1,0,0:0:0:0:
82,92,9989,1,0,0:0:0:0:
76,91,9991,1,0,0:0:0:0:
71,90,9992,1,0,0:0:0:0:
66,89,9994,1,0,0:0:0:0:
61,88,9995,1,0,0:0:0:0:
55,88,9997,1,0,0:0:0:0:
50,90,9998,1,0,0:0:0:0:
46,94,10000,1,0,0:0:0:0:
44,98,10001,1,0,0:0:0:0:
209,161,10003,1,0,0:0:0:0:
204,158,10004,1,0,0:0:0:0:
200,155,10006,1,0,0:0:0:0:
195,152,10007,1,0,0:0:0:0:
191,149,10009,1,0,0:0:0:0:
186,146,10010,1,0,0:0:0:0:
181,144,10012,1,0,0:0:0:0:
177,141,10013,1,0,0:0:0:0:
172,138,10015,1,0,0:0:0:0:
168,135,10016,1,0,0:0:0:0:
163,132,10018,1,0,0:0:0:0:
158,130,10019,1,0,0:0:0:0:
154,127,10021,1,0,0:0:0:0:
149,124,10022,1,0,0:0:0:0:
144,122,10024,1,0,0:0:0:0:
140,119,10025,1,0,0:0:0:0:
135,117,10027,1,0,0:0:0:0:
130,114,10028,1,0,0:0:0:0:
126,112,10030,1,0,0:0:0:0:
121,109,10031,1,0,0:0:0:0:
116,107,10033,1,0,0:0:0:0:
111,104,10034,1,0,0:0:0:0:
106,102,10036,1,0,0:0:0:0:
102,100,10037,1,0,0:0:0:0:
97,98,10039,1,0,0:0:0:0:
92,96,10040,1,0,0:0:0:0:
87,94,10042,1,0,0:0:0:0:
82,92,10043,1,0,0:0:0:0:
76,91,10045,1,0,0:0:0:0:
71,90,10046,1,0,0:0:0:0:
66,89,10048,1,0,0:0:0:0:
61,88,10049,1,0,0:0:0:0:
55,88,10051,1,0,0:0:0:0:
50,90,10052,1,0,0:0:0:0:
46,94,10054,1,0,0:0:0:0:
44,98,10055,1,0,0:0:0:0:
24,360,10057,1,0,0:0:0:0:
28,356,10058,1,0,0:0:0:0:
32,353,10060,1,0,0:0:0:0:
36,350,10061,1,0,0:0:0:0:
41,347,10063,1,0,0:0:0:0:
45,343,10064,1,0,0:0:0:0:
49,340,10066,1,0,0:0:0:0:
53,337,10067,1,0,0:0:0:0:
58,334,10069,1,0,0:0:0:0:
62,331,10070,1,0,0:0:0:0:
66,327,10072,1,0,0:0:0:0:
71,324,10073,1,0,0:0:0:0:
75,321,10075,1,0,0:0:0:0:
79,318,10076,1,0,0:0:0:0:
83,315,10078,1,0,0:0:0:0:
88,311,10079,1,0,0:0:0:0:
92,308,10081,1,0,0:0:0:0:
96,305,10082,1,0,0:0:0:0:
101,302,10084,1,0,0:0:0:0:
105,299,10085,1,0,0:0:0:0:
109,295,10087,1,0,0:0:0:0:
114,292,10088,1,0,0:0:0:0:
118,289,10090,1,0,0:0:0:0:
122,286,10091,1,0,0:0:0:0:
127,283,10093,1,0,0:0:0:0:
131,280,10094,1,0,0:0:0:0:
135,276,10096,1,0,0:0:0:0:
140,273,10097,1,0,0:0:0:0:
144,270,10099,1,0,0:0:0:0:
148,267,10100,1,0,0:0:0:0:
153,264,10102,1,0,0:0:0:0:
157,261,10103,1,0,0:0:0:0:
161,258,10105,1,0,0:0:0:0:
166,254,10106,1,0,0:0:0:0:
170,251,10108,1,0,0:0:0:0:
174,248,10109,1,0,0:0:0:0:
179,245,10111,1,0,0:0:0:0:
183,242,10112,1,0,0:0:0:0:
187,239,10114,1,0,0:0:0:0:
192,236,10115,1,0,0:0:0:0:
196,233,10117,1,0,0:0:0:0:
200,230,10118,1,0,0:0:0:0:
205,227,10120,1,0,0:0:0:0:
209,223,10121,1,0,0:0:0:0:
214,220,10123,1,0,0:0:0:0:
218,217,10124,1,0,0:0:0:0:
222,214,10126,1,0,0:0:0:0:
227,211,10127,1,0,0:0:0:0:
231,208,10129,1,0,0:0:0:0:
236,205,10130,1,0,0:0:0:0:
240,202,10132,1,0,0:0:0:0:
244,199,10133,1,0,0:0:0:0:
249,196,10135,1,0,0:0:0:0:
253,193,10136,1,0,0:0:0:0:
258,190,10138,1,0,0:0:0:0:
262,187,10139,1,0,0:0:0:0:
267,184,10141,1,0,0:0:0:0:
271,181,10142,1,0,0:0:0:0:
276,178,10144,1,0,0:0:0:0:
280,175,10145,1,0,0:0:0:0:
284,172,10147,1,0,0:0:0:0:
289,169,10148,1,0,0:0:0:0:
293,166,10150,1,0,0:0:0:0:
298,164,10151,1,0,0:0:0:0:
302,161,10153,1,0,0:0:0:0:
307,158,10154,1,0,0:0:0:0:
311,155,10156,1,0,0:0:0:0:
316,152,10157,1,0,0:0:0:0:
320,149,10159,1,0,0:0:0:0:
325,146,10160,1,0,0:0:0:0:
330,144,10162,1,0,0:0:0:0:
334,141,10163,1,0,0:0:0:0:
339,138,10165,1,0,0:0:0:0:
343,135,10166,1,0,0:0:0:0:
348,132,10168,1,0,0:0:0:0:
353,130,10169,1,0,0:0:0:0:
357,127,10171,1,0,0:0:0:0:
362,124,10172,1,0,0:0:0:0:
367,122,10174,1,0,0:0:0:0:
371,119,10175,1,0,0:0:0:0:
376,117,10177,1,0,0:0:0:0:
381,114,10178,1,0,0:0:0:0:
385,112,10180,1,0,0:0:0:0:
390,109,10181,1,0,0:0:0:0:
395,107,10183,1,0,0:0:0:0:
400,104,10184,1,0,0:0:0:0:
405,102,10186,1,0,0:0:0:0:
409,100,10187,1,0,0:0:0:0:
414,98,10189,1,0,0:0:0:0:
419,96,10190,1,0,0:0:0:0:
424,94,10192,1,0,0:0:0:0:
429,92,10193,1,0,0:0:0:0:
435,91,10195,1,0,0:0:0:0:
440,90,10196,1,0,0:0:0:0:
445,89,10198,1,0,0:0:0:0:
450,88,10199,1,0,0:0:0:0:
456,88,10201,1,0,0:0:0:0:
461,90,10202,1,0,0:0:0:0:
465,94,10204,1,0,0:0:0:0:
467,98,10205,1,0,0:0:0:0:
302,161,10207,1,0,0:0:0:0:
307,158,10208,1,0,0:0:0:0:
311,155,10210,1,0,0:0:0:0:
316,152,10211,1,0,0:0:0:0:
320,149,10213,1,0,0:0:0:0:
325,146,10214,1,0,0:0:0:0:
330,144,10216,1,0,0:0:0:0:
334,141,10217,1,0,0:0:0:0:
339,138,10219,1,0,0:0:0:0:
343,135,10220,1,0,0:0:0:0:
348,132,10222,1,0,0:0:0:0:
353,130,10223,1,0,0:0:0:0:
357,127,10225,1,0,0:0:0:0:
362,124,10226,1,0,0:0:0:0:
367,122,10228,1,0,0:0:0:0:
371,119,10229,1,0,0:0:0:0:
376,117,10231,1,0,0:0:0:0:
381,114,10232,1,0,0:0:0:0:
385,112,10234,1,0,0:0:0:0:
390,109,10235,1,0,0:0:0:0:
395,107,10237,1,0,0:0:0:0:
400,104,10238,1,0,0:0:0:0:
488,24,10239,1,0,0:0:0:0:
483,27,10240,1,0,0:0:0:0:
409,100,10241,1,0,0:0:0:0:
479,30,10242,1,0,0:0:0:0:
475,33,10243,1,0,0:0:0:0:
419,96,10244,1,0,0:0:0:0:
470,36,10245,1,0,0:0:0:0:
466,40,10246,1,0,0:0:0:0:
429,92,10247,1,0,0:0:0:0:
462,43,10248,1,0,0:0:0:0:
458,46,10249,1,0,0:0:0:0:
440,90,10250,1,0,0:0:0:0:
453,49,10251,1,0,0:0:0:0:
449,52,10252,1,0,0:0:0:0:
450,88,10253,1,0,0:0:0:0:
445,56,10254,1,0,0:0:0:0:
440,59,10255,1,0,0:0:0:0:
461,90,10256,1,0,0:0:0:0:
436,62,10257,1,0,0:0:0:0:
432,65,10258,1,0,0:0:0:0:
467,98,10259,1,0,0:0:0:0:
428,68,10260,1,0,0:0:0:0:
423,72,10261,1,0,0:0:0:0:
419,75,10263,1,0,0:0:0:0:
415,78,10264,1,0,0:0:0:0:
410,81,10266,1,0,0:0:0:0:
406,84,10267,1,0,0:0:0:0:
402,88,10269,1,0,0:0:0:0:
397,91,10270,1,0,0:0:0:0:
393,94,10272,1,0,0:0:0:0:
389,97,10273,1,0,0:0:0:0:
384,100,10275,1,0,0:0:0:0:
380,103,10276,1,0,0:0:0:0:
376,107,10278,1,0,0:0:0:0:
371,110,10279,1,0,0:0:0:0:
367,113,10281,1,0,0:0:0:0:
363,116,10282,1,0,0:0:0:0:
358,119,10284,1,0,0:0:0:0:
354,122,10285,1,0,0:0:0:0:
350,125,10287,1,0,0:0:0:0:
345,129,10288,1,0,0:0:0:0:
341,132,10290,1,0,0:0:0:0:
337,135,10291,1,0,0:0:0:0:
332,138,10293,1,0,0:0:0:0:
328,141,10294,1,0,0:0:0:0:
324,144,10296,1,0,0:0:0:0:
319,147,10297,1,0,0:0:0:0:
315,150,10299,1,0,0:0:0:0:
311,153,10300,1,0,0:0:0:0:
306,156,10302,1,0,0:0:0:0:
302,160,10303,1,0,0:0:0:0:
297,163,10305,1,0,0:0:0:0:
293,166,10306,1,0,0:0:0:0:
289,169,10308,1,0,0:0:0:0:
284,172,10309,1,0,0:0:0:0:
280,175,10311,1,0,0:0:0:0:
275,178,10312,1,0,0:0:0:0:
271,181,10314,1,0,0:0:0:0:
267,184,10315,1,0,0:0:0:0:
262,187,10317,1,0,0:0:0:0:
258,190,10318,1,0,0:0:0:0:
253,193,10320,1,0,0:0:0:0:
249,196,10321,1,0,0:0:0:0:
244,199,10323,1,0,0:0:0:0:
240,202,10324,1,0,0:0:0:0:
235,205,10326,1,0,0:0:0:0:
231,208,10327,1,0,0:0:0:0:
227,211,10329,1,0,0:0:0:0:
222,214,10330,1,0,0:0:0:0:
218,217,10332,1,0,0:0:0:0:
213,219,10333,1,0,0:0:0:0:
209,222,10335,1,0,0:0:0:0:
204,225,10336,1,0,0:0:0:0:
200,228,10338,1,0,0:0:0:0:
195,231,10339,1,0,0:0:0:0:
191,234,10341,1,0,0:0:0:0:
186,237,10342,1,0,0:0:0:0:
181,239,10344,1,0,0:0:0:0:
177,242,10345,1,0,0:0:0:0:
172,245,10347,1,0,0:0:0:0:
168,248,10348,1,0,0:0:0:0:
163,251,10350,1,0,0:0:0:0:
158,253,10351,1,0,0:0:0:0:
154,256,10353,1,0,0:0:0:0:
149,259,10354,1,0,0:0:0:0:
144,261,10356,1,0,0:0:0:0:
140,264,10357,1,0,0:0:0:0:
483,27,10358,1,0,0:0:0:0:
135,266,10359,1,0,0:0:0:0:
130,269,10360,1,0,0:0:0:0:
475,33,10361,1,0,0:0:0:0:
126,271,10362,1,0,0:0:0:0:
121,274,10363,1,0,0:0:0:0:
466,40,10364,1,0,0:0:0:0:
116,276,10365,1,0,0:0:0:0:
111,279,10366,1,0,0:0:0:0:
458,46,10367,1,0,0:0:0:0:
106,281,10368,1,0,0:0:0:0:
102,283,10369,1,0,0:0:0:0:
449,52,10370,1,0,0:0:0:0:
97,285,10371,1,0,0:0:0:0:
92,287,10372,1,0,0:0:0:0:
440,59,10373,1,0,0:0:0:0:
87,289,10374,1,0,0:0:0:0:
82,291,10375,1,0,0:0:0:0:
432,65,10376,1,0,0:0:0:0:
76,292,10377,1,0,0:0:0:0:
71,293,10378,1,0,0:0:0:0:
423,72,10379,1,0,0:0:0:0:
66,294,10380,1,0,0:0:0:0:
61,295,10381,1,0,0:0:0:0:
415,78,10382,1,0,0:0:0:0:
55,295,10383,1,0,0:0:0:0:
50,293,10384,1,0,0:0:0:0:
406,84,10385,1,0,0:0:0:0:
46,289,10386,1,0,0:0:0:0:
44,285,10387,1,0,0:0:0:0:
397,91,10388,1,0,0:0:0:0:
393,94,10390,1,0,0:0:0:0:
389,97,10391,1,0,0:0:0:0:
384,100,10393,1,0,0:0:0:0:
380,103,10394,1,0,0:0:0:0:
376,107,10396,1,0,0:0:0:0:
371,110,10397,1,0,0:0:0:0:
367,113,10399,1,0,0:0:0:0:
363,116,10400,1,0,0:0:0:0:
358,119,10402,1,0,0:0:0:0:
354,122,10403,1,0,0:0:0:0:
350,125,10405,1,0,0:0:0:0:
345,129,10406,1,0,0:0:0:0:
341,132,10408,1,0,0:0:0:0:
337,135,10409,1,0,0:0:0:0:
332,138,10411,1,0,0:0:0:0:
328,141,10412,1,0,0:0:0:0:
324,144,10414,1,0,0:0:0:0:
319,147,10415,1,0,0:0:0:0:
315,150,10417,1,0,0:0:0:0:
311,153,10418,1,0,0:0:0:0:
306,156,10420,1,0,0:0:0:0:
302,160,10421,1,0,0:0:0:0:
297,163,10423,1,0,0:0:0:0:
293,166,10424,1,0,0:0:0:0:
289,169,10426,1,0,0:0:0:0:
284,172,10427,1,0,0:0:0:0:
280,175,10429,1,0,0:0:0:0:
275,178,10430,1,0,0:0:0:0:
271,181,10432,1,0,0:0:0:0:
267,184,10433,1,0,0:0:0:0:
262,187,10435,1,0,0:0:0:0:
258,190,10436,1,0,0:0:0:0:
253,193,10438,1,0,0:0:0:0:
249,196,10439,1,0,0:0:0:0:
244,199,10441,1,0,0:0:0:0:
240,202,10442,1,0,0:0:0:0:
24,24,10443,1,0,0:0:0:0:
28,27,10444,1,0,0:0:0:0:
231,208,10445,1,0,0:0:0:0:
32,30,10446,1,0,0:0:0:0:
36,33,10447,1,0,0:0:0:0:
222,214,10448,1,0,0:0:0:0:
41,36,10449,1,0,0:0:0:0:
45,40,10450,1,0,0:0:0:0:
213,219,10451,1,0,0:0:0:0:
49,43,10452,1,0,0:0:0:0:
53,46,10453,1,0,0:0:0:0:
204,225,10454,1,0,0:0:0:0:
58,49,10455,1,0,0:0:0:0:
62,52,10456,1,0,0:0:0:0:
195,231,10457,1,0,0:0:0:0:
66,56,10458,1,0,0:0:0:0:
71,59,10459,1,0,0:0:0:0:
186,237,10460,1,0,0:0:0:0:
75,62,10461,1,0,0:0:0:0:
79,65,10462,1,0,0:0:0:0:
177,242,10463,1,0,0:0:0:0:
83,68,10464,1,0,0:0:0:0:
88,72,10465,1,0,0:0:0:0:
168,248,10466,1,0,0:0:0:0:
92,75,10467,1,0,0:0:0:0:
96,78,10468,1,0,0:0:0:0:
158,253,10469,1,0,0:0:0:0:
101,81,10470,1,0,0:0:0:0:
105,84,10471,1,0,0:0:0:0:
149,259,10472,1,0,0:0:0:0:
109,88,10473,1,0,0:0:0:0:
114,91,10474,1,0,0:0:0:0:
140,264,10475,1,0,0:0:0:0:
118,94,10476,1,0,0:0:0:0:
122,97,10477,1,0,0:0:0:0:
130,269,10478,1,0,0:0:0:0:
127,100,10479,1,0,0:0:0:0:
131,103,10480,1,0,0:0:0:0:
121,274,10481,1,0,0:0:0:0:
135,107,10482,1,0,0:0:0:0:
140,110,10483,1,0,0:0:0:0:
111,279,10484,1,0,0:0:0:0:
144,113,10485,1,0,0:0:0:0:
148,116,10486,1,0,0:0:0:0:
102,283,10487,1,0,0:0:0:0:
153,119,10488,1,0,0:0:0:0:
157,122,10489,1,0,0:0:0:0:
92,287,10490,1,0,0:0:0:0:
161,125,10491,1,0,0:0:0:0:
166,129,10492,1,0,0:0:0:0:
82,291,10493,1,0,0:0:0:0:
170,132,10494,1,0,0:0:0:0:
174,135,10495,1,0,0:0:0:0:
71,293,10496,1,0,0:0:0:0:
179,138,10497,1,0,0:0:0:0:
183,141,10498,1,0,0:0:0:0:
61,295,10499,1,0,0:0:0:0:
187,144,10500,1,0,0:0:0:0:
192,147,10501,1,0,0:0:0:0:
50,293,10502,1,0,0:0:0:0:
196,150,10503,1,0,0:0:0:0:
200,153,10504,1,0,0:0:0:0:
44,285,10505,1,0,0:0:0:0:
205,156,10506,1,0,0:0:0:0:
209,160,10507,1,0,0:0:0:0:
214,163,10509,1,0,0:0:0:0:
218,166,10510,1,0,0:0:0:0:
222,169,10512,1,0,0:0:0:0:
227,172,10513,1,0,0:0:0:0:
231,175,10515,1,0,0:0:0:0:
236,178,10516,1,0,0:0:0:0:
240,181,10518,1,0,0:0:0:0:
244,184,10519,1,0,0:0:0:0:
249,187,10521,1,0,0:0:0:0:
253,190,10522,1,0,0:0:0:0:
258,193,10524,1,0,0:0:0:0:
262,196,10525,1,0,0:0:0:0:
267,199,10527,1,0,0:0:0:0:
271,202,10528,1,0,0:0:0:0:
276,205,10530,1,0,0:0:0:0:
280,208,10531,1,0,0:0:0:0:
284,211,10533,1,0,0:0:0:0:
289,214,10534,1,0,0:0:0:0:
293,217,10536,1,0,0:0:0:0:
298,219,10537,1,0,0:0:0:0:
302,222,10539,1,0,0:0:0:0:
307,225,10540,1,0,0:0:0:0:
311,228,10542,1,0,0:0:0:0:
316,231,10543,1,0,0:0:0:0:
320,234,10545,1,0,0:0:0:0:
325,237,10546,1,0,0:0:0:0:
330,239,10548,1,0,0:0:0:0:
334,242,10549,1,0,0:0:0:0:
339,245,10551,1,0,0:0:0:0:
343,248,10552,1,0,0:0:0:0:
348,251,10554,1,0,0:0:0:0:
353,253,10555,1,0,0:0:0:0:
357,256,10557,1,0,0:0:0:0:
362,259,10558,1,0,0:0:0:0:
367,261,10560,1,0,0:0:0:0:
371,264,10561,1,0,0:0:0:0:
28,27,10562,1,0,0:0:0:0:
376,266,10563,1,0,0:0:0:0:
381,269,10564,1,0,0:0:0:0:
36,33,10565,1,0,0:0:0:0:
385,271,10566,1,0,0:0:0:0:
390,274,10567,1,0,0:0:0:0:
45,40,10568,1,0,0:0:0:0:
395,276,10569,1,0,0:0:0:0:
400,279,10570,1,0,0:0:0:0:
53,46,10571,1,0,0:0:0:0:
405,281,10572,1,0,0:0:0:0:
409,283,10573,1,0,0:0:0:0:
62,52,10574,1,0,0:0:0:0:
414,285,10575,1,0,0:0:0:0:
419,287,10576,1,0,0:0:0:0:
71,59,10577,1,0,0:0:0:0:
424,289,10578,1,0,0:0:0:0:
429,291,10579,1,0,0:0:0:0:
79,65,10580,1,0,0:0:0:0:
435,292,10581,1,0,0:0:0:0:
440,293,10582,1,0,0:0:0:0:
88,72,10583,1,0,0:0:0:0:
445,294,10584,1,0,0:0:0:0:
450,295,10585,1,0,0:0:0:0:
96,78,10586,1,0,0:0:0:0:
456,295,10587,1,0,0:0:0:0:
461,293,10588,1,0,0:0:0:0:
105,84,10589,1,0,0:0:0:0:
465,289,10590,1,0,0:0:0:0:
467,285,10591,1,0,0:0:0:0:
114,91,10592,1,0,0:0:0:0:
118,94,10594,1,0,0:0:0:0:
122,97,10595,1,0,0:0:0:0:
127,100,10597,1,0,0:0:0:0:
131,103,10598,1,0,0:0:0:0:
135,107,10600,1,0,0:0:0:0:
140,110,10601,1,0,0:0:0:0:
144,113,10603,1,0,0:0:0:0:
148,116,10604,1,0,0:0:0:0:
153,119,10606,1,0,0:0:0:0:
157,122,10607,1,0,0:0:0:0:
161,125,10609,1,0,0:0:0:0:
166,129,10610,1,0,0:0:0:0:
170,132,10612,1,0,0:0:0:0:
174,135,10613,1,0,0:0:0:0:
488,360,10614,1,0,0:0:0:0:
488,24,10615,1,0,0:0:0:0:
483,27,10616,1,0,0:0:0:0:
479,353,10617,1,0,0:0:0:0:
479,30,10618,1,0,0:0:0:0:
475,33,10619,1,0,0:0:0:0:
470,347,10620,1,0,0:0:0:0:
470,36,10621,1,0,0:0:0:0:
466,40,10622,1,0,0:0:0:0:
462,340,10623,1,0,0:0:0:0:
462,43,10624,1,0,0:0:0:0:
458,46,10625,1,0,0:0:0:0:
453,334,10626,1,0,0:0:0:0:
453,49,10627,1,0,0:0:0:0:
449,52,10628,1,0,0:0:0:0:
445,327,10629,1,0,0:0:0:0:
445,56,10630,1,0,0:0:0:0:
440,59,10631,1,0,0:0:0:0:
436,321,10632,1,0,0:0:0:0:
436,62,10633,1,0,0:0:0:0:
432,65,10634,1,0,0:0:0:0:
428,315,10635,1,0,0:0:0:0:
428,68,10636,1,0,0:0:0:0:
423,72,10637,1,0,0:0:0:0:
419,308,10638,1,0,0:0:0:0:
419,75,10639,1,0,0:0:0:0:
415,78,10640,1,0,0:0:0:0:
410,302,10641,1,0,0:0:0:0:
410,81,10642,1,0,0:0:0:0:
406,84,10643,1,0,0:0:0:0:
402,295,10644,1,0,0:0:0:0:
402,88,10645,1,0,0:0:0:0:
397,91,10646,1,0,0:0:0:0:
393,289,10647,1,0,0:0:0:0:
393,94,10648,1,0,0:0:0:0:
389,97,10649,1,0,0:0:0:0:
384,283,10650,1,0,0:0:0:0:
384,100,10651,1,0,0:0:0:0:
380,103,10652,1,0,0:0:0:0:
376,276,10653,1,0,0:0:0:0:
376,107,10654,1,0,0:0:0:0:
371,110,10655,1,0,0:0:0:0:
367,270,10656,1,0,0:0:0:0:
367,113,10657,1,0,0:0:0:0:
363,116,10658,1,0,0:0:0:0:
358,264,10659,1,0,0:0:0:0:
358,119,10660,1,0,0:0:0:0:
354,122,10661,1,0,0:0:0:0:
350,258,10662,1,0,0:0:0:0:
350,125,10663,1,0,0:0:0:0:
345,129,10664,1,0,0:0:0:0:
341,251,10665,1,0,0:0:0:0:
341,132,10666,1,0,0:0:0:0:
337,135,10667,1,0,0:0:0:0:
332,245,10668,1,0,0:0:0:0:
332,138,10669,1,0,0:0:0:0:
328,141,10670,1,0,0:0:0:0:
324,239,10671,1,0,0:0:0:0:
324,144,10672,1,0,0:0:0:0:
319,147,10673,1,0,0:0:0:0:
315,233,10674,1,0,0:0:0:0:
315,150,10675,1,0,0:0:0:0:
311,153,10676,1,0,0:0:0:0:
306,227,10677,1,0,0:0:0:0:
306,156,10678,1,0,0:0:0:0:
302,160,10679,1,0,0:0:0:0:
297,220,10680,1,0,0:0:0:0:
297,163,10681,1,0,0:0:0:0:
293,166,10682,1,0,0:0:0:0:
289,214,10683,1,0,0:0:0:0:
289,169,10684,1,0,0:0:0:0:
284,172,10685,1,0,0:0:0:0:
280,208,10686,1,0,0:0:0:0:
280,175,10687,1,0,0:0:0:0:
275,178,10688,1,0,0:0:0:0:
271,202,10689,1,0,0:0:0:0:
271,181,10690,1,0,0:0:0:0:
267,184,10691,1,0,0:0:0:0:
262,196,10692,1,0,0:0:0:0:
262,187,10693,1,0,0:0:0:0:
258,190,10694,1,0,0:0:0:0:
253,190,10695,1,0,0:0:0:0:
253,193,10696,1,0,0:0:0:0:
249,196,10697,1,0,0:0:0:0:
244,184,10698,1,0,0:0:0:0:
244,199,10699,1,0,0:0:0:0:
240,202,10700,1,0,0:0:0:0:
235,178,10701,1,0,0:0:0:0:
235,205,10702,1,0,0:0:0:0:
231,208,10703,1,0,0:0:0:0:
227,172,10704,1,0,0:0:0:0:
227,211,10705,1,0,0:0:0:0:
222,214,10706,1,0,0:0:0:0:
218,166,10707,1,0,0:0:0:0:
218,217,10708,1,0,0:0:0:0:
213,219,10709,1,0,0:0:0:0:
209,161,10710,1,0,0:0:0:0:
209,222,10711,1,0,0:0:0:0:
204,225,10712,1,0,0:0:0:0:
200,155,10713,1,0,0:0:0:0:
200,228,10714,1,0,0:0:0:0:
195,231,10715,1,0,0:0:0:0:
191,149,10716,1,0,0:0:0:0:
191,234,10717,1,0,0:0:0:0:
186,237,10718,1,0,0:0:0:0:
181,144,10719,1,0,0:0:0:0:
181,239,10720,1,0,0:0:0:0:
177,242,10721,1,0,0:0:0:0:
172,138,10722,1,0,0:0:0:0:
172,245,10723,1,0,0:0:0:0:
168,248,10724,1,0,0:0:0:0:
163,132,10725,1,0,0:0:0:0:
163,251,10726,1,0,0:0:0:0:
158,253,10727,1,0,0:0:0:0:
154,127,10728,1,0,0:0:0:0:
154,256,10729,1,0,0:0:0:0:
149,259,10730,1,0,0:0:0:0:
144,122,10731,1,0,0:0:0:0:
144,261,10732,1,0,0:0:0:0:
140,264,10733,1,0,0:0:0:0:
135,117,10734,1,0,0:0:0:0:
135,266,10735,1,0,0:0:0:0:
130,269,10736,1,0,0:0:0:0:
126,112,10737,1,0,0:0:0:0:
126,271,10738,1,0,0:0:0:0:
121,274,10739,1,0,0:0:0:0:
116,107,10740,1,0,0:0:0:0:
116,276,10741,1,0,0:0:0:0:
111,279,10742,1,0,0:0:0:0:
106,102,10743,1,0,0:0:0:0:
106,281,10744,1,0,0:0:0:0:
102,283,10745,1,0,0:0:0:0:
97,98,10746,1,0,0:0:0:0:
97,285,10747,1,0,0:0:0:0:
92,287,10748,1,0,0:0:0:0:
87,94,10749,1,0,0:0:0:0:
87,289,10750,1,0,0:0:0:0:
82,291,10751,1,0,0:0:0:0:
76,91,10752,1,0,0:0:0:0:
76,292,10753,1,0,0:0:0:0:
71,293,10754,1,0,0:0:0:0:
66,89,10755,1,0,0:0:0:0:
66,294,10756,1,0,0:0:0:0:
61,295,10757,1,0,0:0:0:0:
55,88,10758,1,0,0:0:0:0:
55,295,10759,1,0,0:0:0:0:
50,293,10760,1,0,0:0:0:0:
46,94,10761,1,0,0:0:0:0:
46,289,10762,1,0,0:0:0:0:
44,285,10763,1,0,0:0:0:0:
393,289,10765,1,0,0:0:0:0:
389,286,10766,1,0,0:0:0:0:
384,283,10768,1,0,0:0:0:0:
380,280,10769,1,0,0:0:0:0:
376,276,10771,1,0,0:0:0:0:
371,273,10772,1,0,0:0:0:0:
367,270,10774,1,0,0:0:0:0:
363,267,10775,1,0,0:0:0:0:
358,264,10777,1,0,0:0:0:0:
354,261,10778,1,0,0:0:0:0:
350,258,10780,1,0,0:0:0:0:
345,254,10781,1,0,0:0:0:0:
341,251,10783,1,0,0:0:0:0:
337,248,10784,1,0,0:0:0:0:
332,245,10786,1,0,0:0:0:0:
328,242,10787,1,0,0:0:0:0:
324,239,10789,1,0,0:0:0:0:
319,236,10790,1,0,0:0:0:0:
315,233,10792,1,0,0:0:0:0:
311,230,10793,1,0,0:0:0:0:
306,227,10795,1,0,0:0:0:0:
302,223,10796,1,0,0:0:0:0:
297,220,10798,1,0,0:0:0:0:
293,217,10799,1,0,0:0:0:0:
289,214,10801,1,0,0:0:0:0:
284,211,10802,1,0,0:0:0:0:
280,208,10804,1,0,0:0:0:0:
275,205,10805,1,0,0:0:0:0:
271,202,10807,1,0,0:0:0:0:
267,199,10808,1,0,0:0:0:0:
262,196,10810,1,0,0:0:0:0:
258,193,10811,1,0,0:0:0:0:
253,190,10813,1,0,0:0:0:0:
249,187,10814,1,0,0:0:0:0:
244,184,10816,1,0,0:0:0:0:
240,181,10817,1,0,0:0:0:0:
24,360,10818,1,0,0:0:0:0:
24,24,10819,1,0,0:0:0:0:
28,27,10820,1,0,0:0:0:0:
32,353,10821,1,0,0:0:0:0:
32,30,10822,1,0,0:0:0:0:
36,33,10823,1,0,0:0:0:0:
41,347,10824,1,0,0:0:0:0:
41,36,10825,1,0,0:0:0:0:
45,40,10826,1,0,0:0:0:0:
49,340,10827,1,0,0:0:0:0:
49,43,10828,1,0,0:0:0:0:
53,46,10829,1,0,0:0:0:0:
58,334,10830,1,0,0:0:0:0:
58,49,10831,1,0,0:0:0:0:
62,52,10832,1,0,0:0:0:0:
66,327,10833,1,0,0:0:0:0:
66,56,10834,1,0,0:0:0:0:
71,59,10835,1,0,0:0:0:0:
75,321,10836,1,0,0:0:0:0:
75,62,10837,1,0,0:0:0:0:
79,65,10838,1,0,0:0:0:0:
83,315,10839,1,0,0:0:0:0:
83,68,10840,1,0,0:0:0:0:
88,72,10841,1,0,0:0:0:0:
92,308,10842,1,0,0:0:0:0:
92,75,10843,1,0,0:0:0:0:
96,78,10844,1,0,0:0:0:0:
101,302,10845,1,0,0:0:0:0:
101,81,10846,1,0,0:0:0:0:
105,84,10847,1,0,0:0:0:0:
109,295,10848,1,0,0:0:0:0:
109,88,10849,1,0,0:0:0:0:
114,91,10850,1,0,0:0:0:0:
118,289,10851,1,0,0:0:0:0:
118,94,10852,1,0,0:0:0:0:
122,97,10853,1,0,0:0:0:0:
127,283,10854,1,0,0:0:0:0:
127,100,10855,1,0,0:0:0:0:
131,103,10856,1,0,0:0:0:0:
135,276,10857,1,0,0:0:0:0:
135,107,10858,1,0,0:0:0:0:
140,110,10859,1,0,0:0:0:0:
144,270,10860,1,0,0:0:0:0:
144,113,10861,1,0,0:0:0:0:
148,116,10862,1,0,0:0:0:0:
153,264,10863,1,0,0:0:0:0:
153,119,10864,1,0,0:0:0:0:
157,122,10865,1,0,0:0:0:0:
161,258,10866,1,0,0:0:0:0:
161,125,10867,1,0,0:0:0:0:
166,129,10868,1,0,0:0:0:0:
170,251,10869,1,0,0:0:0:0:
170,132,10870,1,0,0:0:0:0:
174,135,10871,1,0,0:0:0:0:
179,245,10872,1,0,0:0:0:0:
179,138,10873,1,0,0:0:0:0:
183,141,10874,1,0,0:0:0:0:
187,239,10875,1,0,0:0:0:0:
187,144,10876,1,0,0:0:0:0:
192,147,10877,1,0,0:0:0:0:
196,233,10878,1,0,0:0:0:0:
196,150,10879,1,0,0:0:0:0:
200,153,10880,1,0,0:0:0:0:
205,227,10881,1,0,0:0:0:0:
205,156,10882,1,0,0:0:0:0:
209,160,10883,1,0,0:0:0:0:
214,220,10884,1,0,0:0:0:0:
214,163,10885,1,0,0:0:0:0:
218,166,10886,1,0,0:0:0:0:
222,214,10887,1,0,0:0:0:0:
222,169,10888,1,0,0:0:0:0:
227,172,10889,1,0,0:0:0:0:
231,208,10890,1,0,0:0:0:0:
231,175,10891,1,0,0:0:0:0:
236,178,10892,1,0,0:0:0:0:
240,202,10893,1,0,0:0:0:0:
240,181,10894,1,0,0:0:0:0:
244,184,10895,1,0,0:0:0:0:
249,196,10896,1,0,0:0:0:0:
249,187,10897,1,0,0:0:0:0:
253,190,10898,1,0,0:0:0:0:
258,190,10899,1,0,0:0:0:0:
258,193,10900,1,0,0:0:0:0:
262,196,10901,1,0,0:0:0:0:
267,184,10902,1,0,0:0:0:0:
267,199,10903,1,0,0:0:0:0:
271,202,10904,1,0,0:0:0:0:
276,178,10905,1,0,0:0:0:0:
276,205,10906,1,0,0:0:0:0:
280,208,10907,1,0,0:0:0:0:
284,172,10908,1,0,0:0:0:0:
284,211,10909,1,0,0:0:0:0:
289,214,10910,1,0,0:0:0:0:
293,166,10911,1,0,0:0:0:0:
293,217,10912,1,0,0:0:0:0:
298,219,10913,1,0,0:0:0:0:
302,161,10914,1,0,0:0:0:0:
302,222,10915,1,0,0:0:0:0:
307,225,10916,1,0,0:0:0:0:
311,155,10917,1,0,0:0:0:0:
311,228,10918,1,0,0:0:0:0:
316,231,10919,1,0,0:0:0:0:
320,149,10920,1,0,0:0:0:0:
320,234,10921,1,0,0:0:0:0:
325,237,10922,1,0,0:0:0:0:
330,144,10923,1,0,0:0:0:0:
330,239,10924,1,0,0:0:0:0:
334,242,10925,1,0,0:0:0:0:
339,138,10926,1,0,0:0:0:0:
339,245,10927,1,0,0:0:0:0:
343,248,10928,1,0,0:0:0:0:
348,132,10929,1,0,0:0:0:0:
348,251,10930,1,0,0:0:0:0:
353,253,10931,1,0,0:0:0:0:
357,127,10932,1,0,0:0:0:0:
357,256,10933,1,0,0:0:0:0:
362,259,10934,1,0,0:0:0:0:
367,122,10935,1,0,0:0:0:0:
367,261,10936,1,0,0:0:0:0:
371,264,10937,1,0,0:0:0:0:
376,117,10938,1,0,0:0:0:0:
376,266,10939,1,0,0:0:0:0:
381,269,10940,1,0,0:0:0:0:
385,112,10941,1,0,0:0:0:0:
385,271,10942,1,0,0:0:0:0:
390,274,10943,1,0,0:0:0:0:
395,107,10944,1,0,0:0:0:0:
395,276,10945,1,0,0:0:0:0:
400,279,10946,1,0,0:0:0:0:
405,102,10947,1,0,0:0:0:0:
405,281,10948,1,0,0:0:0:0:
409,283,10949,1,0,0:0:0:0:
414,98,10950,1,0,0:0:0:0:
414,285,10951,1,0,0:0:0:0:
419,287,10952,1,0,0:0:0:0:
424,94,10953,1,0,0:0:0:0:
424,289,10954,1,0,0:0:0:0:
429,291,10955,1,0,0:0:0:0:
435,91,10956,1,0,0:0:0:0:
435,292,10957,1,0,0:0:0:0:
440,293,10958,1,0,0:0:0:0:
445,89,10959,1,0,0:0:0:0:
445,294,10960,1,0,0:0:0:0:
450,295,10961,1,0,0:0:0:0:
456,88,10962,1,0,0:0:0:0:
456,295,10963,1,0,0:0:0:0:
461,293,10964,1,0,0:0:0:0:
465,94,10965,1,0,0:0:0:0:
465,289,10966,1,0,0:0:0:0:
467,285,10967,1,0,0:0:0:0:
118,289,10969,1,0,0:0:0:0:
122,286,10970,1,0,0:0:0:0:
127,283,10972,1,0,0:0:0:0:
131,280,10973,1,0,0:0:0:0:
135,276,10975,1,0,0:0:0:0:
140,273,10976,1,0,0:0:0:0:
144,270,10978,1,0,0:0:0:0:
148,267,10979,1,0,0:0:0:0:
153,264,10981,1,0,0:0:0:0:
157,261,10982,1,0,0:0:0:0:
161,258,10984,1,0,0:0:0:0:
166,254,10985,1,0,0:0:0:0:
170,251,10987,1,0,0:0:0:0:
174,248,10988,1,0,0:0:0:0:
488,360,10990,1,0,0:0:0:0:
483,356,10991,1,0,0:0:0:0:
479,353,10993,1,0,0:0:0:0:
475,350,10994,1,0,0:0:0:0:
470,347,10996,1,0,0:0:0:0:
466,343,10997,1,0,0:0:0:0:
462,340,10999,1,0,0:0:0:0:
458,337,11000,1,0,0:0:0:0:
453,334,11002,1,0,0:0:0:0:
449,331,11003,1,0,0:0:0:0:
445,327,11005,1,0,0:0:0:0:
440,324,11006,1,0,0:0:0:0:
436,321,11008,1,0,0:0:0:0:
432,318,11009,1,0,0:0:0:0:
428,315,11011,1,0,0:0:0:0:
423,311,11012,1,0,0:0:0:0:
419,308,11014,1,0,0:0:0:0:
415,305,11015,1,0,0:0:0:0:
410,302,11017,1,0,0:0:0:0:
406,299,11018,1,0,0:0:0:0:
402,295,11020,1,0,0:0:0:0:
397,292,11021,1,0,0:0:0:0:
393,289,11023,1,0,0:0:0:0:
389,286,11024,1,0,0:0:0:0:
384,283,11026,1,0,0:0:0:0:
380,280,11027,1,0,0:0:0:0:
376,276,11029,1,0,0:0:0:0:
371,273,11030,1,0,0:0:0:0:
367,270,11032,1,0,0:0:0:0:
363,267,11033,1,0,0:0:0:0:
358,264,11035,1,0,0:0:0:0:
354,261,11036,1,0,0:0:0:0:
350,258,11038,1,0,0:0:0:0:
345,254,11039,1,0,0:0:0:0:
341,251,11041,1,0,0:0:0:0:
337,248,11042,1,0,0:0:0:0:
332,245,11044,1,0,0:0:0:0:
328,242,11045,1,0,0:0:0:0:
324,239,11047,1,0,0:0:0:0:
319,236,11048,1,0,0:0:0:0:
315,233,11050,1,0,0:0:0:0:
311,230,11051,1,0,0:0:0:0:
306,227,11053,1,0,0:0:0:0:
302,223,11054,1,0,0:0:0:0:
297,220,11056,1,0,0:0:0:0:
293,217,11057,1,0,0:0:0:0:
289,214,11059,1,0,0:0:0:0:
284,211,11060,1,0,0:0:0:0:
280,208,11062,1,0,0:0:0:0:
275,205,11063,1,0,0:0:0:0:
271,202,11065,1,0,0:0:0:0:
267,199,11066,1,0,0:0:0:0:
262,196,11068,1,0,0:0:0:0:
258,193,11069,1,0,0:0:0:0:
253,190,11071,1,0,0:0:0:0:
249,187,11072,1,0,0:0:0:0:
244,184,11074,1,0,0:0:0:0:
240,181,11075,1,0,0:0:0:0:
235,178,11077,1,0,0:0:0:0:
231,175,11078,1,0,0:0:0:0:
227,172,11080,1,0,0:0:0:0:
222,169,11081,1,0,0:0:0:0:
218,166,11083,1,0,0:0:0:0:
213,164,11084,1,0,0:0:0:0:
209,161,11086,1,0,0:0:0:0:
204,158,11087,1,0,0:0:0:0:
200,155,11089,1,0,0:0:0:0:
195,152,11090,1,0,0:0:0:0:
191,149,11092,1,0,0:0:0:0:
186,146,11093,1,0,0:0:0:0:
181,144,11095,1,0,0:0:0:0:
177,141,11096,1,0,0:0:0:0:
172,138,11098,1,0,0:0:0:0:
168,135,11099,1,0,0:0:0:0:
163,132,11101,1,0,0:0:0:0:
158,130,11102,1,0,0:0:0:0:
154,127,11104,1,0,0:0:0:0:
149,124,11105,1,0,0:0:0:0:
144,122,11107,1,0,0:0:0:0:
140,119,11108,1,0,0:0:0:0:
135,117,11110,1,0,0:0:0:0:
130,114,11111,1,0,0:0:0:0:
126,112,11113,1,0,0:0:0:0:
121,109,11114,1,0,0:0:0:0:
116,107,11116,1,0,0:0:0:0:
111,104,11117,1,0,0:0:0:0:
106,102,11119,1,0,0:0:0:0:
102,100,11120,1,0,0:0:0:0:
97,98,11122,1,0,0:0:0:0:
92,96,11123,1,0,0:0:0:0:
87,94,11125,1,0,0:0:0:0:
82,92,11126,1,0,0:0:0:0:
76,91,11128,1,0,0:0:0:0:
71,90,11129,1,0,0:0:0:0:
66,89,11131,1,0,0:0:0:0:
61,88,11132,1,0,0:0:0:0:
55,88,11134,1,0,0:0:0:0:
50,90,11135,1,0,0:0:0:0:
46,94,11137,1,0,0:0:0:0:
44,98,11138,1,0,0:0:0:0:
24,360,11194,1,0,0:0:0:0:
28,356,11195,1,0,0:0:0:0:
32,353,11197,1,0,0:0:0:0:
36,350,11198,1,0,0:0:0:0:
41,347,11200,1,0,0:0:0:0:
45,343,11201,1,0,0:0:0:0:
49,340,11203,1,0,0:0:0:0:
53,337,11204,1,0,0:0:0:0:
58,334,11206,1,0,0:0:0:0:
62,331,11207,1,0,0:0:0:0:
66,327,11209,1,0,0:0:0:0:
71,324,11210,1,0,0:0:0:0:
75,321,11212,1,0,0:0:0:0:
79,318,11213,1,0,0:0:0:0:
83,315,11215,1,0,0:0:0:0:
88,311,11216,1,0,0:0:0:0:
92,308,11218,1,0,0:0:0:0:
96,305,11219,1,0,0:0:0:0:
101,302,11221,1,0,0:0:0:0:
105,299,11222,1,0,0:0:0:0:
109,295,11224,1,0,0:0:0:0:
114,292,11225,1,0,0:0:0:0:
118,289,11227,1,0,0:0:0:0:
122,286,11228,1,0,0:0:0:0:
127,283,11230,1,0,0:0:0:0:
131,280,11231,1,0,0:0:0:0:
135,276,11233,1,0,0:0:0:0:
140,273,11234,1,0,0:0:0:0:
144,270,11236,1,0,0:0:0:0:
148,267,11237,1,0,0:0:0:0:
153,264,11239,1,0,0:0:0:0:
157,261,11240,1,0,0:0:0:0:
161,258,11242,1,0,0:0:0:0:
166,254,11243,1,0,0:0:0:0:
170,251,11245,1,0,0:0:0:0:
174,248,11246,1,0,0:0:0:0:
179,245,11248,1,0,0:0:0:0:
183,242,11249,1,0,0:0:0:0:
187,239,11251,1,0,0:0:0:0:
192,236,11252,1,0,0:0:0:0:
196,233,11254,1,0,0:0:0:0:
200,230,11255,1,0,0:0:0:0:
205,227,11257,1,0,0:0:0:0:
209,223,11258,1,0,0:0:0:0:
214,220,11260,1,0,0:0:0:0:
218,217,11261,1,0,0:0:0:0:
222,214,11263,1,0,0:0:0:0:
227,211,11264,1,0,0:0:0:0:
231,208,11266,1,0,0:0:0:0:
236,205,11267,1,0,0:0:0:0:
240,202,11269,1,0,0:0:0:0:
244,199,11270,1,0,0:0:0:0:
249,196,11272,1,0,0:0:0:0:
253,193,11273,1,0,0:0:0:0:
258,190,11275,1,0,0:0:0:0:
262,187,11276,1,0,0:0:0:0:
267,184,11278,1,0,0:0:0:0:
271,181,11279,1,0,0:0:0:0:
276,178,11281,1,0,0:0:0:0:
280,175,11282,1,0,0:0:0:0:
284,172,11284,1,0,0:0:0:0:
289,169,11285,1,0,0:0:0:0:
293,166,11287,1,0,0:0:0:0:
298,164,11288,1,0,0:0:0:0:
302,161,11290,1,0,0:0:0:0:
307,158,11291,1,0,0:0:0:0:
311,155,11293,1,0,0:0:0:0:
316,152,11294,1,0,0:0:0:0:
320,149,11296,1,0,0:0:0:0:
325,146,11297,1,0,0:0:0:0:
330,144,11299,1,0,0:0:0:0:
334,141,11300,1,0,0:0:0:0:
339,138,11302,1,0,0:0:0:0:
343,135,11303,1,0,0:0:0:0:
348,132,11305,1,0,0:0:0:0:
353,130,11306,1,0,0:0:0:0:
357,127,11308,1,0,0:0:0:0:
362,124,11309,1,0,0:0:0:0:
367,122,11311,1,0,0:0:0:0:
371,119,11312,1,0,0:0:0:0:
376,117,11314,1,0,0:0:0:0:
381,114,11315,1,0,0:0:0:0:
385,112,11317,1,0,0:0:0:0:
390,109,11318,1,0,0:0:0:0:
395,107,11320,1,0,0:0:0:0:
400,104,11321,1,0,0:0:0:0:
405,102,11323,1,0,0:0:0:0:
409,100,11324,1,0,0:0:0:0:
414,98,11326,1,0,0:0:0:0:
419,96,11327,1,0,0:0:0:0:
424,94,11329,1,0,0:0:0:0:
429,92,11330,1,0,0:0:0:0:
435,91,11332,1,0,0:0:0:0:
440,90,11333,1,0,0:0:0:0:
445,89,11335,1,0,0:0:0:0:
450,88,11336,1,0,0:0:0:0:
456,88,11338,1,0,0:0:0:0:
461,90,11339,1,0,0:0:0:0:
465,94,11341,1,0,0:0:0:0:
467,98,11342,1,0,0:0:0:0:
488,24,11440,1,0,0:0:0:0:
483,27,11441,1,0,0:0:0:0:
479,30,11443,1,0,0:0:0:0:
475,33,11444,1,0,0:0:0:0:
470,36,11446,1,0,0:0:0:0:
466,40,11447,1,0,0:0:0:0:
462,43,11449,1,0,0:0:0:0:
458,46,11450,1,0,0:0:0:0:
453,49,11452,1,0,0:0:0:0:
449,52,11453,1,0,0:0:0:0:
445,56,11455,1,0,0:0:0:0:
440,59,11456,1,0,0:0:0:0:
436,62,11458,1,0,0:0:0:0:
432,65,11459,1,0,0:0:0:0:
428,68,11461,1,0,0:0:0:0:
423,72,11462,1,0,0:0:0:0:
419,75,11464,1,0,0:0:0:0:
415,78,11465,1,0,0:0:0:0:
410,81,11467,1,0,0:0:0:0:
406,84,11468,1,0,0:0:0:0:
402,88,11470,1,0,0:0:0:0:
397,91,11471,1,0,0:0:0:0:
393,94,11473,1,0,0:0:0:0:
389,97,11474,1,0,0:0:0:0:
384,100,11476,1,0,0:0:0:0:
380,103,11477,1,0,0:0:0:0:
376,107,11479,1,0,0:0:0:0:
371,110,11480,1,0,0:0:0:0:
367,113,11482,1,0,0:0:0:0:
363,116,11483,1,0,0:0:0:0:
358,119,11485,1,0,0:0:0:0:
354,122,11486,1,0,0:0:0:0:
350,125,11488,1,0,0:0:0:0:
345,129,11489,1,0,0:0:0:0:
341,132,11491,1,0,0:0:0:0:
337,135,11492,1,0,0:0:0:0:
332,138,11494,1,0,0:0:0:0:
328,141,11495,1,0,0:0:0:0:
324,144,11497,1,0,0:0:0:0:
319,147,11498,1,0,0:0:0:0:
315,150,11500,1,0,0:0:0:0:
311,153,11501,1,0,0:0:0:0:
306,156,11503,1,0,0:0:0:0:
302,160,11504,1,0,0:0:0:0:
297,163,11506,1,0,0:0:0:0:
293,166,11507,1,0,0:0:0:0:
289,169,11509,1,0,0:0:0:0:
284,172,11510,1,0,0:0:0:0:
280,175,11512,1,0,0:0:0:0:
275,178,11513,1,0,0:0:0:0:
271,181,11515,1,0,0:0:0:0:
267,184,11516,1,0,0:0:0:0:
262,187,11518,1,0,0:0:0:0:
258,190,11519,1,0,0:0:0:0:
253,193,11521,1,0,0:0:0:0:
249,196,11522,1,0,0:0:0:0:
244,199,11524,1,0,0:0:0:0:
240,202,11525,1,0,0:0:0:0:
235,205,11527,1,0,0:0:0:0:
231,208,11528,1,0,0:0:0:0:
227,211,11530,1,0,0:0:0:0:
222,214,11531,1,0,0:0:0:0:
218,217,11533,1,0,0:0:0:0:
213,219,11534,1,0,0:0:0:0:
209,222,11536,1,0,0:0:0:0:
204,225,11537,1,0,0:0:0:0:
200,228,11539,1,0,0:0:0:0:
195,231,11540,1,0,0:0:0:0:
191,234,11542,1,0,0:0:0:0:
186,237,11543,1,0,0:0:0:0:
181,239,11545,1,0,0:0:0:0:
177,242,11546,1,0,0:0:0:0:
172,245,11548,1,0,0:0:0:0:
168,248,11549,1,0,0:0:0:0:
163,251,11551,1,0,0:0:0:0:
158,253,11552,1,0,0:0:0:0:
154,256,11554,1,0,0:0:0:0:
149,259,11555,1,0,0:0:0:0:
144,261,11557,1,0,0:0:0:0:
140,264,11558,1,0,0:0:0:0:
135,266,11560,1,0,0:0:0:0:
130,269,11561,1,0,0:0:0:0:
126,271,11563,1,0,0:0:0:0:
121,274,11564,1,0,0:0:0:0:
116,276,11566,1,0,0:0:0:0:
111,279,11567,1,0,0:0:0:0:
106,281,11569,1,0,0:0:0:0:
102,283,11570,1,0,0:0:0:0:
97,285,11572,1,0,0:0:0:0:
92,287,11573,1,0,0:0:0:0:
87,289,11575,1,0,0:0:0:0:
82,291,11576,1,0,0:0:0:0:
76,292,11578,1,0,0:0:0:0:
71,293,11579,1,0,0:0:0:0:
66,294,11581,1,0,0:0:0:0:
61,295,11582,1,0,0:0:0:0:
55,295,11584,1,0,0:0:0:0:
50,293,11585,1,0,0:0:0:0:
46,289,11587,1,0,0:0:0:0:
44,285,11588,1,0,0:0:0:0:
24,24,11644,1,0,0:0:0:0:
28,27,11645,1,0,0:0:0:0:
32,30,11647,1,0,0:0:0:0:
36,33,11648,1,0,0:0:0:0:
41,36,11650,1,0,0:0:0:0:
45,40,11651,1,0,0:0:0:0:
49,43,11653,1,0,0:0:0:0:
53,46,11654,1,0,0:0:0:0:
58,49,11656,1,0,0:0:0:0:
62,52,11657,1,0,0:0:0:0:
66,56,11659,1,0,0:0:0:0:
71,59,11660,1,0,0:0:0:0:
75,62,11662,1,0,0:0:0:0:
79,65,11663,1,0,0:0:0:0:
83,68,11665,1,0,0:0:0:0:
88,72,11666,1,0,0:0:0:0:
92,75,11668,1,0,0:0:0:0:
96,78,11669,1,0,0:0:0:0:
101,81,11671,1,0,0:0:0:0:
105,84,11672,1,0,0:0:0:0:
109,88,11674,1,0,0:0:0:0:
114,91,11675,1,0,0:0:0:0:
118,94,11677,1,0,0:0:0:0:
122,97,11678,1,0,0:0:0:0:
127,100,11680,1,0,0:0:0:0:
131,103,11681,1,0,0:0:0:0:
135,107,11683,1,0,0:0:0:0:
140,110,11684,1,0,0:0:0:0:
144,113,11686,1,0,0:0:0:0:
148,116,11687,1,0,0:0:0:0:
153,119,11689,1,0,0:0:0:0:
157,122,11690,1,0,0:0:0:0:
161,125,11692,1,0,0:0:0:0:
166,129,11693,1,0,0:0:0:0:
170,132,11695,1,0,0:0:0:0:
174,135,11696,1,0,0:0:0:0:
179,138,11698,1,0,0:0:0:0:
183,141,11699,1,0,0:0:0:0:
187,144,11701,1,0,0:0:0:0:
192,147,11702,1,0,0:0:0:0:
196,150,11704,1,0,0:0:0:0:
200,153,11705,1,0,0:0:0:0:
205,156,11707,1,0,0:0:0:0:
209,160,11708,1,0,0:0:0:0:
214,163,11710,1,0,0:0:0:0:
218,166,11711,1,0,0:0:0:0:
222,169,11713,1,0,0:0:0:0:
227,172,11714,1,0,0:0:0:0:
231,175,11716,1,0,0:0:0:0:
236,178,11717,1,0,0:0:0:0:
240,181,11719,1,0,0:0:0:0:
244,184,11720,1,0,0:0:0:0:
249,187,11722,1,0,0:0:0:0:
253,190,11723,1,0,0:0:0:0:
258,193,11725,1,0,0:0:0:0:
262,196,11726,1,0,0:0:0:0:
267,199,11728,1,0,0:0:0:0:
271,202,11729,1,0,0:0:0:0:
276,205,11731,1,0,0:0:0:0:
280,208,11732,1,0,0:0:0:0:
284,211,11734,1,0,0:0:0:0:
289,214,11735,1,0,0:0:0:0:
293,217,11737,1,0,0:0:0:0:
298,219,11738,1,0,0:0:0:0:
302,222,11740,1,0,0:0:0:0:
307,225,11741,1,0,0:0:0:0:
311,228,11743,1,0,0:0:0:0:
316,231,11744,1,0,0:0:0:0:
320,234,11746,1,0,0:0:0:0:
325,237,11747,1,0,0:0:0:0:
330,239,11749,1,0,0:0:0:0:
334,242,11750,1,0,0:0:0:0:
339,245,11752,1,0,0:0:0:0:
343,248,11753,1,0,0:0:0:0:
348,251,11755,1,0,0:0:0:0:
353,253,11756,1,0,0:0:0:0:
357,256,11758,1,0,0:0:0:0:
362,259,11759,1,0,0:0:0:0:
367,261,11761,1,0,0:0:0:0:
371,264,11762,1,0,0:0:0:0:
376,266,11764,1,0,0:0:0:0:
381,269,11765,1,0,0:0:0:0:
385,271,11767,1,0,0:0:0:0:
390,274,11768,1,0,0:0:0:0:
395,276,11770,1,0,0:0:0:0:
400,279,11771,1,0,0:0:0:0:
405,281,11773,1,0,0:0:0:0:
409,283,11774,1,0,0:0:0:0:
414,285,11776,1,0,0:0:0:0:
419,287,11777,1,0,0:0:0:0:
424,289,11779,1,0,0:0:0:0:
429,291,11780,1,0,0:0:0:0:
435,292,11782,1,0,0:0:0:0:
440,293,11783,1,0,0:0:0:0:
445,294,11785,1,0,0:0:0:0:
450,295,11786,1,0,0:0:0:0:
456,295,11788,1,0,0:0:0:0:
461,293,11789,1,0,0:0:0:0:
465,289,11791,1,0,0:0:0:0:
467,285,11792,1,0,0:0:0:0:
488,360,11815,1,0,0:0:0:0:
483,356,11816,1,0,0:0:0:0:
479,353,11818,1,0,0:0:0:0:
475,350,11819,1,0,0:0:0:0:
470,347,11821,1,0,0:0:0:0:
466,343,11822,1,0,0:0:0:0:
462,340,11824,1,0,0:0:0:0:
458,337,11825,1,0,0:0:0:0:
453,334,11827,1,0,0:0:0:0:
449,331,11828,1,0,0:0:0:0:
445,327,11830,1,0,0:0:0:0:
440,324,11831,1,0,0:0:0:0:
436,321,11833,1,0,0:0:0:0:
432,318,11834,1,0,0:0:0:0:
428,315,11836,1,0,0:0:0:0:
423,311,11837,1,0,0:0:0:0:
419,308,11839,1,0,0:0:0:0:
415,305,11840,1,0,0:0:0:0:
410,302,11842,1,0,0:0:0:0:
406,299,11843,1,0,0:0:0:0:
402,295,11845,1,0,0:0:0:0:
397,292,11846,1,0,0:0:0:0:
393,289,11848,1,0,0:0:0:0:
389,286,11849,1,0,0:0:0:0:
384,283,11851,1,0,0:0:0:0:
380,280,11852,1,0,0:0:0:0:
376,276,11854,1,0,0:0:0:0:
371,273,11855,1,0,0:0:0:0:
367,270,11857,1,0,0:0:0:0:
363,267,11858,1,0,0:0:0:0:
