osu file format v14

[General]
AudioFilename: audio.mp3
AudioLeadIn: 0
PreviewTime: 55170
Countdown: 0
SampleSet: Normal
StackLeniency: 0.3
Mode: 0
LetterboxInBreaks: 0
EpilepsyWarning: 1
WidescreenStoryboard: 1

[Editor]
DistanceSpacing: 1
BeatDivisor: 4
GridSize: 4
TimelineZoom: 1

[Metadata]
Title:Fly High
TitleUnicode:Fly↑High
Artist:P4koo(Vocal.rerone)
ArtistUnicode:P4koo(Vocal.레로네)
Creator:bbj0920
Version:W h i t e's Normal
Source:
Tags:moa w_h_i_t_e white kloyd kiai k_i_a_i dailycare down 100won 레로네 omc ofc contest
BeatmapID:1050101
BeatmapSetID:490172

[Difficulty]
HPDrainRate:4
CircleSize:3.5
OverallDifficulty:4
ApproachRate:5
SliderMultiplier:1.05
SliderTickRate:1

[Events]
//Background and Video events
0,0,"bg.jpg",0,0
//Break Periods
2,29597,34113
2,86429,95169
2,154034,162775
2,177696,183057
//Storyboard Layer 0 (Background)
//Storyboard Layer 1 (Fail)
//Storyboard Layer 2 (Pass)
//Storyboard Layer 3 (Foreground)
Sprite,Foreground,Centre,"sb/spotlight.png",320,240 M,0,1722,,144,212 F,0,1722,2422,0.9,0.3 S,0,1722,2422,2.3,2.1 P,0,1722,2422,A
Sprite,Foreground,Centre,"sb/ring.png",320,240 M,0,1722,,144,212 F,0,1722,2422,0.9,0 S,0,1722,2422,0.3,0.6 P,0,1722,2422,A
Sprite,Foreground,Centre,"sb/spotlight.png",320,240 M,0,2567,,340,156 F,0,2567,3267,0.9,0.3 S,0,2567,3267,2.3,2.1 P,0,2567,3267,A
Sprite,Foreground,Centre,"sb/ring.png",320,240 M,0,2567,,340,156 F,0,2567,3267,0.9,0 S,0,2567,3267,0.3,0.6 P,0,2567,3267,A
Sprite,Foreground,Centre,"sb/spotlight.png",320,240 M,0,3200,,492,156 F,0,3200,3900,0.9,0.3 S,0,3200,3900,2.3,2.1 P,0,3200,3900,A
Sprite,Foreground,Centre,"sb/ring.png",320,240 M,0,3200,,492,156 F,0,3200,3900,0.9,0 S,0,3200,3900,0.3,0.6 P,0,3200,3900,A
Sprite,Foreground,Centre,"sb/spotlight.png",320,240 M,0,3412,,544,168 F,0,3412,4112,0.9,0.3 S,0,3412,4112,2.3,2.1 P,0,3412,4112,A
Sprite,Foreground,Centre,"sb/ring.png",320,240 M,0,3412,,544,168 F,0,3412,4112,0.9,0 S,0,3412,4112,0.3,0.6 P,0,3412,4112,A
Sprite,Foreground,Centre,"sb/spotlight.png",320,240 M,0,4257,,552,376 F,0,4257,4957,0.9,0.3 S,0,4257,4957,2.3,2.1 P,0,4257,4957,A
Sprite,Foreground,Centre,"sb/ring.png",320,240 M,0,4257,,552,376 F,0,4257,4957,0.9,0 S,0,4257,4957,0.3,0.6 P,0,4257,4957,A
Sprite,Foreground,Centre,"sb/spotlight.png",320,240 M,0,4891,,428,304 F,0,4891,5591,0.9,0.3 S,0,4891,5591,2.3,2.1 P,0,4891,5591,A
Sprite,Foreground,Centre,"sb/ring.png",320,240 M,0,4891,,428,304 F,0,4891,5591,0.9,0 S,0,4891,5591,0.3,0.6 P,0,4891,5591,A
Sprite,Foreground,Centre,"sb/spotlight.png",320,240 M,0,5102,,400,260 F,0,5102,5802,0.9,0.3 S,0,5102,5802,2.3,2.1 P,0,5102,5802,A
Sprite,Foreground,Centre,"sb/ring.png",320,240 M,0,5102,,400,260 F,0,5102,5802,0.9,0 S,0,5102,5802,0.3,0.6 P,0,5102,5802,A
Sprite,Foreground,Centre,"sb/spotlight.png",320,240 M,0,5947,,336,352 F,0,5947,6647,0.9,0.3 S,0,5947,6647,2.3,2.1 P,0,5947,6647,A
Sprite,Foreground,Centre,"sb/ring.png",320,240 M,0,5947,,336,352 F,0,5947,6647,0.9,0 S,0,5947,6647,0.3,0.6 P,0,5947,6647,A
Sprite,Foreground,Centre,"sb/spotlight.png",320,240 M,0,6581,,180,340 F,0,6581,7281,0.9,0.3 S,0,6581,7281,2.3,2.1 P,0,6581,7281,A
Sprite,Foreground,Centre,"sb/ring.png",320,240 M,0,6581,,180,340 F,0,6581,7281,0.9,0 S,0,6581,7281,0.3,0.6 P,0,6581,7281,A
Sprite,Foreground,Centre,"sb/spotlight.png",320,240 M,0,6792,,132,320 F,0,6792,7492,0.9,0.3 S,0,6792,7492,2.3,2.1 P,0,6792,7492,A
Sprite,Foreground,Centre,"sb/ring.png",320,240 M,0,6792,,132,320 F,0,6792,7492,0.9,0 S,0,6792,7492,0.3,0.6 P,0,6792,7492,A
Sprite,Foreground,Centre,"sb/spotlight.png",320,240 M,0,8060,,96,220 F,0,8060,8760,0.9,0.3 S,0,8060,8760,2.3,2.1 P,0,8060,8760,A
Sprite,Foreground,Centre,"sb/ring.png",320,240 M,0,8060,,96,220 F,0,8060,8760,0.9,0 S,0,8060,8760,0.3,0.6 P,0,8060,8760,A
Sprite,Foreground,Centre,"sb/spotlight.png",320,240 M,0,8482,,128,124 F,0,8482,9182,0.9,0.3 S,0,8482,9182,2.3,2.1 P,0,8482,9182,A
Sprite,Foreground,Centre,"sb/ring.png",320,240 M,0,8482,,128,124 F,0,8482,9182,0.9,0 S,0,8482,9182,0.3,0.6 P,0,8482,9182,A
Sprite,Foreground,Centre,"sb/spotlight.png",320,240 M,0,9116,,284,120 F,0,9116,9816,0.9,0.3 S,0,9116,9816,2.3,2.1 P,0,9116,9816,A
Sprite,Foreground,Centre,"sb/ring.png",320,240 M,0,9116,,284,120 F,0,9116,9816,0.9,0 S,0,9116,9816,0.3,0.6 P,0,9116,9816,A
Sprite,Foreground,Centre,"sb/spotlight.png",320,240 M,0,9538,,388,136 F,0,9538,10238,0.9,0.3 S,0,9538,10238,2.3,2.1 P,0,9538,10238,A
Sprite,Foreground,Centre,"sb/ring.png",320,240 M,0,9538,,388,136 F,0,9538,10238,0.9,0 S,0,9538,10238,0.3,0.6 P,0,9538,10238,A
Sprite,Foreground,Centre,"sb/spotlight.png",320,240 M,0,10383,,320,216 F,0,10383,11083,0.9,0.3 S,0,10383,11083,2.3,2.1 P,0,10383,11083,A
Sprite,Foreground,Centre,"sb/ring.png",320,240 M,0,10383,,320,216 F,0,10383,11083,0.9,0 S,0,10383,11083,0.3,0.6 P,0,10383,11083,A
Sprite,Foreground,Centre,"sb/spotlight.png",320,240 M,0,10806,,332,316 F,0,10806,11506,0.9,0.3 S,0,10806,11506,2.3,2.1 P,0,10806,11506,A
Sprite,Foreground,Centre,"sb/ring.png",320,240 M,0,10806,,332,316 F,0,10806,11506,0.9,0 S,0,10806,11506,0.3,0.6 P,0,10806,11506,A
Sprite,Foreground,Centre,"sb/spotlight.png",320,240 M,0,11862,,468,412 F,0,11862,12562,0.9,0.3 S,0,11862,12562,2.3,2.1 P,0,11862,12562,A
Sprite,Foreground,Centre,"sb/ring.png",320,240 M,0,11862,,468,412 F,0,11862,12562,0.9,0 S,0,11862,12562,0.3,0.6 P,0,11862,12562,A
Sprite,Foreground,Centre,"sb/spotlight.png",320,240 M,0,13130,,364,396 F,0,13130,13830,0.9,0.3 S,0,13130,13830,2.3,2.1 P,0,13130,13830,A
Sprite,Foreground,Centre,"sb/ring.png",320,240 M,0,13130,,364,396 F,0,13130,13830,0.9,0 S,0,13130,13830,0.3,0.6 P,0,13130,13830,A
Sprite,Foreground,Centre,"sb/spotlight.png",320,240 M,0,13552,,268,428 F,0,13552,14252,0.9,0.3 S,0,13552,14252,2.3,2.1 P,0,13552,14252,A
Sprite,Foreground,Centre,"sb/ring.png",320,240 M,0,13552,,268,428 F,0,13552,14252,0.9,0 S,0,13552,14252,0.3,0.6 P,0,13552,14252,A
Sprite,Foreground,Centre,"sb/spotlight.png",320,240 M,0,14186,,236,280 F,0,14186,14886,0.9,0.3 S,0,14186,14886,2.3,2.1 P,0,14186,14886,A
Sprite,Foreground,Centre,"sb/ring.png",320,240 M,0,14186,,236,280 F,0,14186,14886,0.9,0 S,0,14186,14886,0.3,0.6 P,0,14186,14886,A
Sprite,Foreground,Centre,"sb/spotlight.png",320,240 M,0,14398,,216,232 F,0,14398,15098,0.9,0.3 S,0,14398,15098,2.3,2.1 P,0,14398,15098,A
Sprite,Foreground,Centre,"sb/ring.png",320,240 M,0,14398,,216,232 F,0,14398,15098,0.9,0 S,0,14398,15098,0.3,0.6 P,0,14398,15098,A
Sprite,Foreground,Centre,"sb/spotlight.png",320,240 M,0,15243,,196,184 F,0,15243,15943,0.9,0.3 S,0,15243,15943,2.3,2.1 P,0,15243,15943,A
Sprite,Foreground,Centre,"sb/ring.png",320,240 M,0,15243,,196,184 F,0,15243,15943,0.9,0 S,0,15243,15943,0.3,0.6 P,0,15243,15943,A
Sprite,Foreground,Centre,"sb/spotlight.png",320,240 M,0,16088,,392,124 F,0,16088,16788,0.9,0.3 S,0,16088,16788,2.3,2.1 P,0,16088,16788,A
Sprite,Foreground,Centre,"sb/ring.png",320,240 M,0,16088,,392,124 F,0,16088,16788,0.9,0 S,0,16088,16788,0.3,0.6 P,0,16088,16788,A
Sprite,Foreground,Centre,"sb/spotlight.png",320,240 M,0,16510,,388,228 F,0,16510,17210,0.9,0.3 S,0,16510,17210,2.3,2.1 P,0,16510,17210,A
Sprite,Foreground,Centre,"sb/ring.png",320,240 M,0,16510,,388,228 F,0,16510,17210,0.9,0 S,0,16510,17210,0.3,0.6 P,0,16510,17210,A
Sprite,Foreground,Centre,"sb/spotlight.png",320,240 M,0,16933,,420,324 F,0,16933,17633,0.9,0.3 S,0,16933,17633,2.3,2.1 P,0,16933,17633,A
Sprite,Foreground,Centre,"sb/ring.png",320,240 M,0,16933,,420,324 F,0,16933,17633,0.9,0 S,0,16933,17633,0.3,0.6 P,0,16933,17633,A
Sprite,Foreground,Centre,"sb/spotlight.png",320,240 M,0,17989,,376,416 F,0,17989,18689,0.9,0.3 S,0,17989,18689,2.3,2.1 P,0,17989,18689,A
Sprite,Foreground,Centre,"sb/ring.png",320,240 M,0,17989,,376,416 F,0,17989,18689,0.9,0 S,0,17989,18689,0.3,0.6 P,0,17989,18689,A
Sprite,Foreground,Centre,"sb/spotlight.png",320,240 M,0,18200,,428,420 F,0,18200,18900,0.9,0.3 S,0,18200,18900,2.3,2.1 P,0,18200,18900,A
Sprite,Foreground,Centre,"sb/ring.png",320,240 M,0,18200,,428,420 F,0,18200,18900,0.9,0 S,0,18200,18900,0.3,0.6 P,0,18200,18900,A
Sprite,Foreground,Centre,"sb/spotlight.png",320,240 M,0,18623,,508,360 F,0,18623,19323,0.9,0.3 S,0,18623,19323,2.3,2.1 P,0,18623,19323,A
Sprite,Foreground,Centre,"sb/ring.png",320,240 M,0,18623,,508,360 F,0,18623,19323,0.9,0 S,0,18623,19323,0.3,0.6 P,0,18623,19323,A
Sprite,Foreground,Centre,"sb/spotlight.png",320,240 M,0,19468,,548,156 F,0,19468,20168,0.9,0.3 S,0,19468,20168,2.3,2.1 P,0,19468,20168,A
Sprite,Foreground,Centre,"sb/ring.png",320,240 M,0,19468,,548,156 F,0,19468,20168,0.9,0 S,0,19468,20168,0.3,0.6 P,0,19468,20168,A
Sprite,Foreground,Centre,"sb/spotlight.png",320,240 M,0,19891,,444,172 F,0,19891,20591,0.9,0.3 S,0,19891,20591,2.3,2.1 P,0,19891,20591,A
Sprite,Foreground,Centre,"sb/ring.png",320,240 M,0,19891,,444,172 F,0,19891,20591,0.9,0 S,0,19891,20591,0.3,0.6 P,0,19891,20591,A
Sprite,Foreground,Centre,"sb/spotlight.png",320,240 M,0,20313,,340,160 F,0,20313,21013,0.9,0.3 S,0,20313,21013,2.3,2.1 P,0,20313,21013,A
Sprite,Foreground,Centre,"sb/ring.png",320,240 M,0,20313,,340,160 F,0,20313,21013,0.9,0 S,0,20313,21013,0.3,0.6 P,0,20313,21013,A
Sprite,Foreground,Centre,"sb/spotlight.png",320,240 M,0,20947,,324,308 F,0,20947,21647,0.9,0.3 S,0,20947,21647,2.3,2.1 P,0,20947,21647,A
Sprite,Foreground,Centre,"sb/ring.png",320,240 M,0,20947,,324,308 F,0,20947,21647,0.9,0 S,0,20947,21647,0.3,0.6 P,0,20947,21647,A
Sprite,Foreground,Centre,"sb/spotlight.png",320,240 M,0,21581,,180,348 F,0,21581,22281,0.9,0.3 S,0,21581,22281,2.3,2.1 P,0,21581,22281,A
Sprite,Foreground,Centre,"sb/ring.png",320,240 M,0,21581,,180,348 F,0,21581,22281,0.9,0 S,0,21581,22281,0.3,0.6 P,0,21581,22281,A
Sprite,Foreground,Centre,"sb/spotlight.png",320,240 M,0,21792,,158,300 F,0,21792,22492,0.9,0.3 S,0,21792,22492,2.3,2.1 P,0,21792,22492,A
Sprite,Foreground,Centre,"sb/ring.png",320,240 M,0,21792,,158,300 F,0,21792,22492,0.9,0 S,0,21792,22492,0.3,0.6 P,0,21792,22492,A
Sprite,Foreground,Centre,"sb/spotlight.png",320,240 M,0,22003,,136,252 F,0,22003,22703,0.9,0.3 S,0,22003,22703,2.3,2.1 P,0,22003,22703,A
Sprite,Foreground,Centre,"sb/ring.png",320,240 M,0,22003,,136,252 F,0,22003,22703,0.9,0 S,0,22003,22703,0.3,0.6 P,0,22003,22703,A
Sprite,Foreground,Centre,"sb/spotlight.png",320,240 M,0,22848,,232,112 F,0,22848,23548,0.9,0.3 S,0,22848,23548,2.3,2.1 P,0,22848,23548,A
Sprite,Foreground,Centre,"sb/ring.png",320,240 M,0,22848,,232,112 F,0,22848,23548,0.9,0 S,0,22848,23548,0.3,0.6 P,0,22848,23548,A
Sprite,Foreground,Centre,"sb/spotlight.png",320,240 M,0,23482,,252,268 F,0,23482,24182,0.9,0.3 S,0,23482,24182,2.3,2.1 P,0,23482,24182,A
Sprite,Foreground,Centre,"sb/ring.png",320,240 M,0,23482,,252,268 F,0,23482,24182,0.9,0 S,0,23482,24182,0.3,0.6 P,0,23482,24182,A
Sprite,Foreground,Centre,"sb/spotlight.png",320,240 M,0,23693,,272,316 F,0,23693,24393,0.9,0.3 S,0,23693,24393,2.3,2.1 P,0,23693,24393,A
Sprite,Foreground,Centre,"sb/ring.png",320,240 M,0,23693,,272,316 F,0,23693,24393,0.9,0 S,0,23693,24393,0.3,0.6 P,0,23693,24393,A
Sprite,Foreground,Centre,"sb/spotlight.png",320,240 M,0,24750,,364,264 F,0,24750,25450,0.9,0.3 S,0,24750,25450,2.3,2.1 P,0,24750,25450,A
Sprite,Foreground,Centre,"sb/ring.png",320,240 M,0,24750,,364,264 F,0,24750,25450,0.9,0 S,0,24750,25450,0.3,0.6 P,0,24750,25450,A
Sprite,Foreground,Centre,"sb/spotlight.png",320,240 M,0,24961,,360,212 F,0,24961,25661,0.9,0.3 S,0,24961,25661,2.3,2.1 P,0,24961,25661,A
Sprite,Foreground,Centre,"sb/ring.png",320,240 M,0,24961,,360,212 F,0,24961,25661,0.9,0 S,0,24961,25661,0.3,0.6 P,0,24961,25661,A
Sprite,Foreground,Centre,"sb/spotlight.png",320,240 M,0,25383,,316,124 F,0,25383,26083,0.9,0.3 S,0,25383,26083,2.3,2.1 P,0,25383,26083,A
Sprite,Foreground,Centre,"sb/ring.png",320,240 M,0,25383,,316,124 F,0,25383,26083,0.9,0 S,0,25383,26083,0.3,0.6 P,0,25383,26083,A
Sprite,Foreground,Centre,"sb/spotlight.png",320,240 M,0,26229,,480,172 F,0,26229,26929,0.9,0.3 S,0,26229,26929,2.3,2.1 P,0,26229,26929,A
Sprite,Foreground,Centre,"sb/ring.png",320,240 M,0,26229,,480,172 F,0,26229,26929,0.9,0 S,0,26229,26929,0.3,0.6 P,0,26229,26929,A
Sprite,Foreground,Centre,"sb/spotlight.png",320,240 M,0,26862,,492,328 F,0,26862,27562,0.9,0.3 S,0,26862,27562,2.3,2.1 P,0,26862,27562,A
Sprite,Foreground,Centre,"sb/ring.png",320,240 M,0,26862,,492,328 F,0,26862,27562,0.9,0 S,0,26862,27562,0.3,0.6 P,0,26862,27562,A
Sprite,Foreground,Centre,"sb/spotlight.png",320,240 M,0,27074,,512,376 F,0,27074,27774,0.9,0.3 S,0,27074,27774,2.3,2.1 P,0,27074,27774,A
Sprite,Foreground,Centre,"sb/ring.png",320,240 M,0,27074,,512,376 F,0,27074,27774,0.9,0 S,0,27074,27774,0.3,0.6 P,0,27074,27774,A
Sprite,Foreground,Centre,"sb/spotlight.png",320,240 M,0,27707,,376,436 F,0,27707,28407,0.9,0.3 S,0,27707,28407,2.3,2.1 P,0,27707,28407,A
Sprite,Foreground,Centre,"sb/ring.png",320,240 M,0,27707,,376,436 F,0,27707,28407,0.9,0 S,0,27707,28407,0.3,0.6 P,0,27707,28407,A
Sprite,Foreground,Centre,"sb/spotlight.png",320,240 M,0,28341,,252,360 F,0,28341,29041,0.9,0.3 S,0,28341,29041,2.3,2.1 P,0,28341,29041,A
Sprite,Foreground,Centre,"sb/ring.png",320,240 M,0,28341,,252,360 F,0,28341,29041,0.9,0 S,0,28341,29041,0.3,0.6 P,0,28341,29041,A
Sprite,Foreground,Centre,"sb/spotlight.png",320,240 M,0,28764,,247,256 F,0,28764,29464,0.9,0.3 S,0,28764,29464,2.3,2.1 P,0,28764,29464,A
Sprite,Foreground,Centre,"sb/ring.png",320,240 M,0,28764,,247,256 F,0,28764,29464,0.9,0 S,0,28764,29464,0.3,0.6 P,0,28764,29464,A
Sprite,Foreground,Centre,"sb/spotlight.png",320,240 M,0,35313,,252,360 F,0,35313,36013,0.9,0.3 S,0,35313,36013,2.3,2.1 P,0,35313,36013,A
Sprite,Foreground,Centre,"sb/ring.png",320,240 M,0,35313,,252,360 F,0,35313,36013,0.9,0 S,0,35313,36013,0.3,0.6 P,0,35313,36013,A
Sprite,Foreground,Centre,"sb/spotlight.png",320,240 M,0,35524,,252,360 F,0,35524,36224,0.9,0.3 S,0,35524,36224,2.3,2.1 P,0,35524,36224,A
Sprite,Foreground,Centre,"sb/ring.png",320,240 M,0,35524,,252,360 F,0,35524,36224,0.9,0 S,0,35524,36224,0.3,0.6 P,0,35524,36224,A
Sprite,Foreground,Centre,"sb/spotlight.png",320,240 M,0,38905,,152,116 F,0,38905,39605,0.9,0.3 S,0,38905,39605,2.3,2.1 P,0,38905,39605,A
Sprite,Foreground,Centre,"sb/ring.png",320,240 M,0,38905,,152,116 F,0,38905,39605,0.9,0 S,0,38905,39605,0.3,0.6 P,0,38905,39605,A
Sprite,Foreground,Centre,"sb/spotlight.png",320,240 M,0,39327,,256,128 F,0,39327,40027,0.9,0.3 S,0,39327,40027,2.3,2.1 P,0,39327,40027,A
Sprite,Foreground,Centre,"sb/ring.png",320,240 M,0,39327,,256,128 F,0,39327,40027,0.9,0 S,0,39327,40027,0.3,0.6 P,0,39327,40027,A
Sprite,Foreground,Centre,"sb/spotlight.png",320,240 M,0,39750,,360,140 F,0,39750,40450,0.9,0.3 S,0,39750,40450,2.3,2.1 P,0,39750,40450,A
Sprite,Foreground,Centre,"sb/ring.png",320,240 M,0,39750,,360,140 F,0,39750,40450,0.9,0 S,0,39750,40450,0.3,0.6 P,0,39750,40450,A
Sprite,Foreground,Centre,"sb/spotlight.png",320,240 M,0,40172,,464,152 F,0,40172,40872,0.9,0.3 S,0,40172,40872,2.3,2.1 P,0,40172,40872,A
Sprite,Foreground,Centre,"sb/ring.png",320,240 M,0,40172,,464,152 F,0,40172,40872,0.9,0 S,0,40172,40872,0.3,0.6 P,0,40172,40872,A
Sprite,Foreground,Centre,"sb/spotlight.png",320,240 M,0,40595,,568,160 F,0,40595,41295,0.9,0.3 S,0,40595,41295,2.3,2.1 P,0,40595,41295,A
Sprite,Foreground,Centre,"sb/ring.png",320,240 M,0,40595,,568,160 F,0,40595,41295,0.9,0 S,0,40595,41295,0.3,0.6 P,0,40595,41295,A
Sprite,Foreground,Centre,"sb/spotlight.png",320,240 M,0,41862,,320,196 F,0,41862,42562,0.9,0.3 S,0,41862,42562,2.3,2.1 P,0,41862,42562,A
Sprite,Foreground,Centre,"sb/ring.png",320,240 M,0,41862,,320,196 F,0,41862,42562,0.9,0 S,0,41862,42562,0.3,0.6 P,0,41862,42562,A
Sprite,Foreground,Centre,"sb/spotlight.png",320,240 M,0,42285,,226,243 F,0,42285,42985,0.9,0.3 S,0,42285,42985,2.3,2.1 P,0,42285,42985,A
Sprite,Foreground,Centre,"sb/ring.png",320,240 M,0,42285,,226,243 F,0,42285,42985,0.9,0 S,0,42285,42985,0.3,0.6 P,0,42285,42985,A
Sprite,Foreground,Centre,"sb/spotlight.png",320,240 M,0,43552,,176,152 F,0,43552,44252,0.9,0.3 S,0,43552,44252,2.3,2.1 P,0,43552,44252,A
Sprite,Foreground,Centre,"sb/ring.png",320,240 M,0,43552,,176,152 F,0,43552,44252,0.9,0 S,0,43552,44252,0.3,0.6 P,0,43552,44252,A
Sprite,Foreground,Centre,"sb/spotlight.png",320,240 M,0,43975,,280,156 F,0,43975,44675,0.9,0.3 S,0,43975,44675,2.3,2.1 P,0,43975,44675,A
Sprite,Foreground,Centre,"sb/ring.png",320,240 M,0,43975,,280,156 F,0,43975,44675,0.9,0 S,0,43975,44675,0.3,0.6 P,0,43975,44675,A
Sprite,Foreground,Centre,"sb/spotlight.png",320,240 M,0,45243,,184,360 F,0,45243,45943,0.9,0.3 S,0,45243,45943,2.3,2.1 P,0,45243,45943,A
Sprite,Foreground,Centre,"sb/ring.png",320,240 M,0,45243,,184,360 F,0,45243,45943,0.9,0 S,0,45243,45943,0.3,0.6 P,0,45243,45943,A
Sprite,Foreground,Centre,"sb/spotlight.png",320,240 M,0,45665,,260,432 F,0,45665,46365,0.9,0.3 S,0,45665,46365,2.3,2.1 P,0,45665,46365,A
Sprite,Foreground,Centre,"sb/ring.png",320,240 M,0,45665,,260,432 F,0,45665,46365,0.9,0 S,0,45665,46365,0.3,0.6 P,0,45665,46365,A
Sprite,Foreground,Centre,"sb/spotlight.png",320,240 M,0,46510,,412,312 F,0,46510,47210,0.9,0.3 S,0,46510,47210,2.3,2.1 P,0,46510,47210,A
Sprite,Foreground,Centre,"sb/ring.png",320,240 M,0,46510,,412,312 F,0,46510,47210,0.9,0 S,0,46510,47210,0.3,0.6 P,0,46510,47210,A
Sprite,Foreground,Centre,"sb/spotlight.png",320,240 M,0,46933,,412,208 F,0,46933,47633,0.9,0.3 S,0,46933,47633,2.3,2.1 P,0,46933,47633,A
Sprite,Foreground,Centre,"sb/ring.png",320,240 M,0,46933,,412,208 F,0,46933,47633,0.9,0 S,0,46933,47633,0.3,0.6 P,0,46933,47633,A
Sprite,Foreground,Centre,"sb/spotlight.png",320,240 M,0,47144,,387,161 F,0,47144,47844,0.9,0.3 S,0,47144,47844,2.3,2.1 P,0,47144,47844,A
Sprite,Foreground,Centre,"sb/ring.png",320,240 M,0,47144,,387,161 F,0,47144,47844,0.9,0 S,0,47144,47844,0.3,0.6 P,0,47144,47844,A
Sprite,Foreground,Centre,"sb/spotlight.png",320,240 M,0,47355,,355,118 F,0,47355,48055,0.9,0.3 S,0,47355,48055,2.3,2.1 P,0,47355,48055,A
Sprite,Foreground,Centre,"sb/ring.png",320,240 M,0,47355,,355,118 F,0,47355,48055,0.9,0 S,0,47355,48055,0.3,0.6 P,0,47355,48055,A
Sprite,Foreground,Centre,"sb/spotlight.png",320,240 M,0,48200,,168,140 F,0,48200,48900,0.9,0.3 S,0,48200,48900,2.3,2.1 P,0,48200,48900,A
Sprite,Foreground,Centre,"sb/ring.png",320,240 M,0,48200,,168,140 F,0,48200,48900,0.9,0 S,0,48200,48900,0.3,0.6 P,0,48200,48900,A
Sprite,Foreground,Centre,"sb/spotlight.png",320,240 M,0,48834,,196,292 F,0,48834,49534,0.9,0.3 S,0,48834,49534,2.3,2.1 P,0,48834,49534,A
Sprite,Foreground,Centre,"sb/ring.png",320,240 M,0,48834,,196,292 F,0,48834,49534,0.9,0 S,0,48834,49534,0.3,0.6 P,0,48834,49534,A
Sprite,Foreground,Centre,"sb/spotlight.png",320,240 M,0,49045,,224,336 F,0,49045,49745,0.9,0.3 S,0,49045,49745,2.3,2.1 P,0,49045,49745,A
Sprite,Foreground,Centre,"sb/ring.png",320,240 M,0,49045,,224,336 F,0,49045,49745,0.9,0 S,0,49045,49745,0.3,0.6 P,0,49045,49745,A
Sprite,Foreground,Centre,"sb/spotlight.png",320,240 M,0,49891,,408,412 F,0,49891,50591,0.9,0.3 S,0,49891,50591,2.3,2.1 P,0,49891,50591,A
Sprite,Foreground,Centre,"sb/ring.png",320,240 M,0,49891,,408,412 F,0,49891,50591,0.9,0 S,0,49891,50591,0.3,0.6 P,0,49891,50591,A
Sprite,Foreground,Centre,"sb/spotlight.png",320,240 M,0,50524,,540,356 F,0,50524,51224,0.9,0.3 S,0,50524,51224,2.3,2.1 P,0,50524,51224,A
Sprite,Foreground,Centre,"sb/ring.png",320,240 M,0,50524,,540,356 F,0,50524,51224,0.9,0 S,0,50524,51224,0.3,0.6 P,0,50524,51224,A
Sprite,Foreground,Centre,"sb/spotlight.png",320,240 M,0,50736,,552,304 F,0,50736,51436,0.9,0.3 S,0,50736,51436,2.3,2.1 P,0,50736,51436,A
Sprite,Foreground,Centre,"sb/ring.png",320,240 M,0,50736,,552,304 F,0,50736,51436,0.9,0 S,0,50736,51436,0.3,0.6 P,0,50736,51436,A
Sprite,Foreground,Centre,"sb/spotlight.png",320,240 M,0,51581,,568,96 F,0,51581,52281,0.9,0.3 S,0,51581,52281,2.3,2.1 P,0,51581,52281,A
Sprite,Foreground,Centre,"sb/ring.png",320,240 M,0,51581,,568,96 F,0,51581,52281,0.9,0 S,0,51581,52281,0.3,0.6 P,0,51581,52281,A
Sprite,Foreground,Centre,"sb/spotlight.png",320,240 M,0,52214,,440,128 F,0,52214,52914,0.9,0.3 S,0,52214,52914,2.3,2.1 P,0,52214,52914,A
Sprite,Foreground,Centre,"sb/ring.png",320,240 M,0,52214,,440,128 F,0,52214,52914,0.9,0 S,0,52214,52914,0.3,0.6 P,0,52214,52914,A
Sprite,Foreground,Centre,"sb/spotlight.png",320,240 M,0,52426,,412,172 F,0,52426,53126,0.9,0.3 S,0,52426,53126,2.3,2.1 P,0,52426,53126,A
Sprite,Foreground,Centre,"sb/ring.png",320,240 M,0,52426,,412,172 F,0,52426,53126,0.9,0 S,0,52426,53126,0.3,0.6 P,0,52426,53126,A
Sprite,Foreground,Centre,"sb/spotlight.png",320,240 M,0,53271,,208,180 F,0,53271,53971,0.9,0.3 S,0,53271,53971,2.3,2.1 P,0,53271,53971,A
Sprite,Foreground,Centre,"sb/ring.png",320,240 M,0,53271,,208,180 F,0,53271,53971,0.9,0 S,0,53271,53971,0.3,0.6 P,0,53271,53971,A
Sprite,Foreground,Centre,"sb/spotlight.png",320,240 M,0,53693,,232,80 F,0,53693,54393,0.9,0.3 S,0,53693,54393,2.3,2.1 P,0,53693,54393,A
Sprite,Foreground,Centre,"sb/ring.png",320,240 M,0,53693,,232,80 F,0,53693,54393,0.9,0 S,0,53693,54393,0.3,0.6 P,0,53693,54393,A
Sprite,Foreground,Centre,"sb/spotlight.png",320,240 M,0,55806,,184,276 F,0,55806,56506,0.9,0.3 S,0,55806,56506,2.3,2.1 P,0,55806,56506,A
Sprite,Foreground,Centre,"sb/ring.png",320,240 M,0,55806,,184,276 F,0,55806,56506,0.9,0 S,0,55806,56506,0.3,0.6 P,0,55806,56506,A
Sprite,Foreground,Centre,"sb/spotlight.png",320,240 M,0,56651,,392,308 F,0,56651,57351,0.9,0.3 S,0,56651,57351,2.3,2.1 P,0,56651,57351,A
Sprite,Foreground,Centre,"sb/ring.png",320,240 M,0,56651,,392,308 F,0,56651,57351,0.9,0 S,0,56651,57351,0.3,0.6 P,0,56651,57351,A
Sprite,Foreground,Centre,"sb/spotlight.png",320,240 M,0,57285,,544,284 F,0,57285,57985,0.9,0.3 S,0,57285,57985,2.3,2.1 P,0,57285,57985,A
Sprite,Foreground,Centre,"sb/ring.png",320,240 M,0,57285,,544,284 F,0,57285,57985,0.9,0 S,0,57285,57985,0.3,0.6 P,0,57285,57985,A
Sprite,Foreground,Centre,"sb/spotlight.png",320,240 M,0,57496,,544,284 F,0,57496,58196,0.9,0.3 S,0,57496,58196,2.3,2.1 P,0,57496,58196,A
Sprite,Foreground,Centre,"sb/ring.png",320,240 M,0,57496,,544,284 F,0,57496,58196,0.9,0 S,0,57496,58196,0.3,0.6 P,0,57496,58196,A
Sprite,Foreground,Centre,"sb/spotlight.png",320,240 M,0,58341,,448,448 F,0,58341,59041,0.9,0.3 S,0,58341,59041,2.3,2.1 P,0,58341,59041,A
Sprite,Foreground,Centre,"sb/ring.png",320,240 M,0,58341,,448,448 F,0,58341,59041,0.9,0 S,0,58341,59041,0.3,0.6 P,0,58341,59041,A
Sprite,Foreground,Centre,"sb/spotlight.png",320,240 M,0,58764,,356,400 F,0,58764,59464,0.9,0.3 S,0,58764,59464,2.3,2.1 P,0,58764,59464,A
Sprite,Foreground,Centre,"sb/ring.png",320,240 M,0,58764,,356,400 F,0,58764,59464,0.9,0 S,0,58764,59464,0.3,0.6 P,0,58764,59464,A
Sprite,Foreground,Centre,"sb/spotlight.png",320,240 M,0,59186,,252,400 F,0,59186,59886,0.9,0.3 S,0,59186,59886,2.3,2.1 P,0,59186,59886,A
Sprite,Foreground,Centre,"sb/ring.png",320,240 M,0,59186,,252,400 F,0,59186,59886,0.9,0 S,0,59186,59886,0.3,0.6 P,0,59186,59886,A
Sprite,Foreground,Centre,"sb/spotlight.png",320,240 M,0,60454,,224,300 F,0,60454,61154,0.9,0.3 S,0,60454,61154,2.3,2.1 P,0,60454,61154,A
Sprite,Foreground,Centre,"sb/ring.png",320,240 M,0,60454,,224,300 F,0,60454,61154,0.9,0 S,0,60454,61154,0.3,0.6 P,0,60454,61154,A
Sprite,Foreground,Centre,"sb/spotlight.png",320,240 M,0,60876,,200,204 F,0,60876,61576,0.9,0.3 S,0,60876,61576,2.3,2.1 P,0,60876,61576,A
Sprite,Foreground,Centre,"sb/ring.png",320,240 M,0,60876,,200,204 F,0,60876,61576,0.9,0 S,0,60876,61576,0.3,0.6 P,0,60876,61576,A
Sprite,Foreground,Centre,"sb/spotlight.png",320,240 M,0,61722,,372,108 F,0,61722,62422,0.9,0.3 S,0,61722,62422,2.3,2.1 P,0,61722,62422,A
Sprite,Foreground,Centre,"sb/ring.png",320,240 M,0,61722,,372,108 F,0,61722,62422,0.9,0 S,0,61722,62422,0.3,0.6 P,0,61722,62422,A
Sprite,Foreground,Centre,"sb/spotlight.png",320,240 M,0,62144,,408,208 F,0,62144,62844,0.9,0.3 S,0,62144,62844,2.3,2.1 P,0,62144,62844,A
Sprite,Foreground,Centre,"sb/ring.png",320,240 M,0,62144,,408,208 F,0,62144,62844,0.9,0 S,0,62144,62844,0.3,0.6 P,0,62144,62844,A
Sprite,Foreground,Centre,"sb/spotlight.png",320,240 M,0,62567,,392,308 F,0,62567,63267,0.9,0.3 S,0,62567,63267,2.3,2.1 P,0,62567,63267,A
Sprite,Foreground,Centre,"sb/ring.png",320,240 M,0,62567,,392,308 F,0,62567,63267,0.9,0 S,0,62567,63267,0.3,0.6 P,0,62567,63267,A
Sprite,Foreground,Centre,"sb/spotlight.png",320,240 M,0,63412,,424,408 F,0,63412,64112,0.9,0.3 S,0,63412,64112,2.3,2.1 P,0,63412,64112,A
Sprite,Foreground,Centre,"sb/ring.png",320,240 M,0,63412,,424,408 F,0,63412,64112,0.9,0 S,0,63412,64112,0.3,0.6 P,0,63412,64112,A
Sprite,Foreground,Centre,"sb/spotlight.png",320,240 M,0,63834,,320,384 F,0,63834,64534,0.9,0.3 S,0,63834,64534,2.3,2.1 P,0,63834,64534,A
Sprite,Foreground,Centre,"sb/ring.png",320,240 M,0,63834,,320,384 F,0,63834,64534,0.9,0 S,0,63834,64534,0.3,0.6 P,0,63834,64534,A
Sprite,Foreground,Centre,"sb/spotlight.png",320,240 M,0,64257,,248,308 F,0,64257,64957,0.9,0.3 S,0,64257,64957,2.3,2.1 P,0,64257,64957,A
Sprite,Foreground,Centre,"sb/ring.png",320,240 M,0,64257,,248,308 F,0,64257,64957,0.9,0 S,0,64257,64957,0.3,0.6 P,0,64257,64957,A
Sprite,Foreground,Centre,"sb/spotlight.png",320,240 M,0,65102,,216,408 F,0,65102,65802,0.9,0.3 S,0,65102,65802,2.3,2.1 P,0,65102,65802,A
Sprite,Foreground,Centre,"sb/ring.png",320,240 M,0,65102,,216,408 F,0,65102,65802,0.9,0 S,0,65102,65802,0.3,0.6 P,0,65102,65802,A
Sprite,Foreground,Centre,"sb/spotlight.png",320,240 M,0,65524,,320,384 F,0,65524,66224,0.9,0.3 S,0,65524,66224,2.3,2.1 P,0,65524,66224,A
Sprite,Foreground,Centre,"sb/ring.png",320,240 M,0,65524,,320,384 F,0,65524,66224,0.9,0 S,0,65524,66224,0.3,0.6 P,0,65524,66224,A
Sprite,Foreground,Centre,"sb/spotlight.png",320,240 M,0,65736,,336,334 F,0,65736,66436,0.9,0.3 S,0,65736,66436,2.3,2.1 P,0,65736,66436,A
Sprite,Foreground,Centre,"sb/ring.png",320,240 M,0,65736,,336,334 F,0,65736,66436,0.9,0 S,0,65736,66436,0.3,0.6 P,0,65736,66436,A
Sprite,Foreground,Centre,"sb/spotlight.png",320,240 M,0,65947,,352,284 F,0,65947,66647,0.9,0.3 S,0,65947,66647,2.3,2.1 P,0,65947,66647,A
Sprite,Foreground,Centre,"sb/ring.png",320,240 M,0,65947,,352,284 F,0,65947,66647,0.9,0 S,0,65947,66647,0.3,0.6 P,0,65947,66647,A
Sprite,Foreground,Centre,"sb/spotlight.png",320,240 M,0,66792,,264,228 F,0,66792,67492,0.9,0.3 S,0,66792,67492,2.3,2.1 P,0,66792,67492,A
Sprite,Foreground,Centre,"sb/ring.png",320,240 M,0,66792,,264,228 F,0,66792,67492,0.9,0 S,0,66792,67492,0.3,0.6 P,0,66792,67492,A
Sprite,Foreground,Centre,"sb/spotlight.png",320,240 M,0,67637,,180,68 F,0,67637,68337,0.9,0.3 S,0,67637,68337,2.3,2.1 P,0,67637,68337,A
Sprite,Foreground,Centre,"sb/ring.png",320,240 M,0,67637,,180,68 F,0,67637,68337,0.9,0 S,0,67637,68337,0.3,0.6 P,0,67637,68337,A
Sprite,Foreground,Centre,"sb/spotlight.png",320,240 M,0,68060,,164,172 F,0,68060,68760,0.9,0.3 S,0,68060,68760,2.3,2.1 P,0,68060,68760,A
Sprite,Foreground,Centre,"sb/ring.png",320,240 M,0,68060,,164,172 F,0,68060,68760,0.9,0 S,0,68060,68760,0.3,0.6 P,0,68060,68760,A
Sprite,Foreground,Centre,"sb/spotlight.png",320,240 M,0,68482,,148,276 F,0,68482,69182,0.9,0.3 S,0,68482,69182,2.3,2.1 P,0,68482,69182,A
Sprite,Foreground,Centre,"sb/ring.png",320,240 M,0,68482,,148,276 F,0,68482,69182,0.9,0 S,0,68482,69182,0.3,0.6 P,0,68482,69182,A
Sprite,Foreground,Centre,"sb/spotlight.png",320,240 M,0,69116,,193,400 F,0,69116,69816,0.9,0.3 S,0,69116,69816,2.3,2.1 P,0,69116,69816,A
Sprite,Foreground,Centre,"sb/ring.png",320,240 M,0,69116,,193,400 F,0,69116,69816,0.9,0 S,0,69116,69816,0.3,0.6 P,0,69116,69816,A
Sprite,Foreground,Centre,"sb/spotlight.png",320,240 M,0,69327,,244,412 F,0,69327,70027,0.9,0.3 S,0,69327,70027,2.3,2.1 P,0,69327,70027,A
Sprite,Foreground,Centre,"sb/ring.png",320,240 M,0,69327,,244,412 F,0,69327,70027,0.9,0 S,0,69327,70027,0.3,0.6 P,0,69327,70027,A
Sprite,Foreground,Centre,"sb/spotlight.png",320,240 M,0,70172,,428,340 F,0,70172,70872,0.9,0.3 S,0,70172,70872,2.3,2.1 P,0,70172,70872,A
Sprite,Foreground,Centre,"sb/ring.png",320,240 M,0,70172,,428,340 F,0,70172,70872,0.9,0 S,0,70172,70872,0.3,0.6 P,0,70172,70872,A
Sprite,Foreground,Centre,"sb/spotlight.png",320,240 M,0,70806,,440,184 F,0,70806,71506,0.9,0.3 S,0,70806,71506,2.3,2.1 P,0,70806,71506,A
Sprite,Foreground,Centre,"sb/ring.png",320,240 M,0,70806,,440,184 F,0,70806,71506,0.9,0 S,0,70806,71506,0.3,0.6 P,0,70806,71506,A
Sprite,Foreground,Centre,"sb/spotlight.png",320,240 M,0,71017,,468,140 F,0,71017,71717,0.9,0.3 S,0,71017,71717,2.3,2.1 P,0,71017,71717,A
Sprite,Foreground,Centre,"sb/ring.png",320,240 M,0,71017,,468,140 F,0,71017,71717,0.9,0 S,0,71017,71717,0.3,0.6 P,0,71017,71717,A
Sprite,Foreground,Centre,"sb/spotlight.png",320,240 M,0,71862,,280,64 F,0,71862,72562,0.9,0.3 S,0,71862,72562,2.3,2.1 P,0,71862,72562,A
Sprite,Foreground,Centre,"sb/ring.png",320,240 M,0,71862,,280,64 F,0,71862,72562,0.9,0 S,0,71862,72562,0.3,0.6 P,0,71862,72562,A
Sprite,Foreground,Centre,"sb/spotlight.png",320,240 M,0,72285,,268,168 F,0,72285,72985,0.9,0.3 S,0,72285,72985,2.3,2.1 P,0,72285,72985,A
Sprite,Foreground,Centre,"sb/ring.png",320,240 M,0,72285,,268,168 F,0,72285,72985,0.9,0 S,0,72285,72985,0.3,0.6 P,0,72285,72985,A
Sprite,Foreground,Centre,"sb/spotlight.png",320,240 M,0,72707,,244,264 F,0,72707,73407,0.9,0.3 S,0,72707,73407,2.3,2.1 P,0,72707,73407,A
Sprite,Foreground,Centre,"sb/ring.png",320,240 M,0,72707,,244,264 F,0,72707,73407,0.9,0 S,0,72707,73407,0.3,0.6 P,0,72707,73407,A
Sprite,Foreground,Centre,"sb/spotlight.png",320,240 M,0,73975,,348,284 F,0,73975,74675,0.9,0.3 S,0,73975,74675,2.3,2.1 P,0,73975,74675,A
Sprite,Foreground,Centre,"sb/ring.png",320,240 M,0,73975,,348,284 F,0,73975,74675,0.9,0 S,0,73975,74675,0.3,0.6 P,0,73975,74675,A
Sprite,Foreground,Centre,"sb/spotlight.png",320,240 M,0,74186,,400,294 F,0,74186,74886,0.9,0.3 S,0,74186,74886,2.3,2.1 P,0,74186,74886,A
Sprite,Foreground,Centre,"sb/ring.png",320,240 M,0,74186,,400,294 F,0,74186,74886,0.9,0 S,0,74186,74886,0.3,0.6 P,0,74186,74886,A
Sprite,Foreground,Centre,"sb/spotlight.png",320,240 M,0,74398,,452,304 F,0,74398,75098,0.9,0.3 S,0,74398,75098,2.3,2.1 P,0,74398,75098,A
Sprite,Foreground,Centre,"sb/ring.png",320,240 M,0,74398,,452,304 F,0,74398,75098,0.9,0 S,0,74398,75098,0.3,0.6 P,0,74398,75098,A
Sprite,Foreground,Centre,"sb/spotlight.png",320,240 M,0,75665,,380,380 F,0,75665,76365,0.9,0.3 S,0,75665,76365,2.3,2.1 P,0,75665,76365,A
Sprite,Foreground,Centre,"sb/ring.png",320,240 M,0,75665,,380,380 F,0,75665,76365,0.9,0 S,0,75665,76365,0.3,0.6 P,0,75665,76365,A
Sprite,Foreground,Centre,"sb/spotlight.png",320,240 M,0,76088,,284,412 F,0,76088,76788,0.9,0.3 S,0,76088,76788,2.3,2.1 P,0,76088,76788,A
Sprite,Foreground,Centre,"sb/ring.png",320,240 M,0,76088,,284,412 F,0,76088,76788,0.9,0 S,0,76088,76788,0.3,0.6 P,0,76088,76788,A
Sprite,Foreground,Centre,"sb/spotlight.png",320,240 M,0,76722,,136,376 F,0,76722,77422,0.9,0.3 S,0,76722,77422,2.3,2.1 P,0,76722,77422,A
Sprite,Foreground,Centre,"sb/ring.png",320,240 M,0,76722,,136,376 F,0,76722,77422,0.9,0 S,0,76722,77422,0.3,0.6 P,0,76722,77422,A
Sprite,Foreground,Centre,"sb/spotlight.png",320,240 M,0,77144,,132,272 F,0,77144,77844,0.9,0.3 S,0,77144,77844,2.3,2.1 P,0,77144,77844,A
Sprite,Foreground,Centre,"sb/ring.png",320,240 M,0,77144,,132,272 F,0,77144,77844,0.9,0 S,0,77144,77844,0.3,0.6 P,0,77144,77844,A
Sprite,Foreground,Centre,"sb/spotlight.png",320,240 M,0,77989,,224,320 F,0,77989,78689,0.9,0.3 S,0,77989,78689,2.3,2.1 P,0,77989,78689,A
Sprite,Foreground,Centre,"sb/ring.png",320,240 M,0,77989,,224,320 F,0,77989,78689,0.9,0 S,0,77989,78689,0.3,0.6 P,0,77989,78689,A
Sprite,Foreground,Centre,"sb/spotlight.png",320,240 M,0,78200,,276,312 F,0,78200,78900,0.9,0.3 S,0,78200,78900,2.3,2.1 P,0,78200,78900,A
Sprite,Foreground,Centre,"sb/ring.png",320,240 M,0,78200,,276,312 F,0,78200,78900,0.9,0 S,0,78200,78900,0.3,0.6 P,0,78200,78900,A
Sprite,Foreground,Centre,"sb/spotlight.png",320,240 M,0,78834,,416,360 F,0,78834,79534,0.9,0.3 S,0,78834,79534,2.3,2.1 P,0,78834,79534,A
Sprite,Foreground,Centre,"sb/ring.png",320,240 M,0,78834,,416,360 F,0,78834,79534,0.9,0 S,0,78834,79534,0.3,0.6 P,0,78834,79534,A
Sprite,Foreground,Centre,"sb/spotlight.png",320,240 M,0,79468,,420,308 F,0,79468,80168,0.9,0.3 S,0,79468,80168,2.3,2.1 P,0,79468,80168,A
Sprite,Foreground,Centre,"sb/ring.png",320,240 M,0,79468,,420,308 F,0,79468,80168,0.9,0 S,0,79468,80168,0.3,0.6 P,0,79468,80168,A
Sprite,Foreground,Centre,"sb/spotlight.png",320,240 M,0,80313,,456,208 F,0,80313,81013,0.9,0.3 S,0,80313,81013,2.3,2.1 P,0,80313,81013,A
Sprite,Foreground,Centre,"sb/ring.png",320,240 M,0,80313,,456,208 F,0,80313,81013,0.9,0 S,0,80313,81013,0.3,0.6 P,0,80313,81013,A
Sprite,Foreground,Centre,"sb/spotlight.png",320,240 M,0,80736,,352,228 F,0,80736,81436,0.9,0.3 S,0,80736,81436,2.3,2.1 P,0,80736,81436,A
Sprite,Foreground,Centre,"sb/ring.png",320,240 M,0,80736,,352,228 F,0,80736,81436,0.9,0 S,0,80736,81436,0.3,0.6 P,0,80736,81436,A
Sprite,Foreground,Centre,"sb/spotlight.png",320,240 M,0,81158,,248,224 F,0,81158,81858,0.9,0.3 S,0,81158,81858,2.3,2.1 P,0,81158,81858,A
Sprite,Foreground,Centre,"sb/ring.png",320,240 M,0,81158,,248,224 F,0,81158,81858,0.9,0 S,0,81158,81858,0.3,0.6 P,0,81158,81858,A
Sprite,Foreground,Centre,"sb/spotlight.png",320,240 M,0,82848,,320,256 F,0,82848,83548,0.9,0.3 S,0,82848,83548,2.3,2.1 P,0,82848,83548,A
Sprite,Foreground,Centre,"sb/ring.png",320,240 M,0,82848,,320,256 F,0,82848,83548,0.9,0 S,0,82848,83548,0.3,0.6 P,0,82848,83548,A
Sprite,Foreground,Centre,"sb/spotlight.png",320,240 M,0,96369,,244,372 F,0,96369,97069,0.9,0.3 S,0,96369,97069,2.3,2.1 P,0,96369,97069,A
Sprite,Foreground,Centre,"sb/ring.png",320,240 M,0,96369,,244,372 F,0,96369,97069,0.9,0 S,0,96369,97069,0.3,0.6 P,0,96369,97069,A
Sprite,Foreground,Centre,"sb/spotlight.png",320,240 M,0,97637,,516,256 F,0,97637,98337,0.9,0.3 S,0,97637,98337,2.3,2.1 P,0,97637,98337,A
Sprite,Foreground,Centre,"sb/ring.png",320,240 M,0,97637,,516,256 F,0,97637,98337,0.9,0 S,0,97637,98337,0.3,0.6 P,0,97637,98337,A
Sprite,Foreground,Centre,"sb/spotlight.png",320,240 M,0,98482,,376,100 F,0,98482,99182,0.9,0.3 S,0,98482,99182,2.3,2.1 P,0,98482,99182,A
Sprite,Foreground,Centre,"sb/ring.png",320,240 M,0,98482,,376,100 F,0,98482,99182,0.9,0 S,0,98482,99182,0.3,0.6 P,0,98482,99182,A
Sprite,Foreground,Centre,"sb/spotlight.png",320,240 M,0,99327,,192,200 F,0,99327,100027,0.9,0.3 S,0,99327,100027,2.3,2.1 P,0,99327,100027,A
Sprite,Foreground,Centre,"sb/ring.png",320,240 M,0,99327,,192,200 F,0,99327,100027,0.9,0 S,0,99327,100027,0.3,0.6 P,0,99327,100027,A
Sprite,Foreground,Centre,"sb/spotlight.png",320,240 M,0,99750,,172,296 F,0,99750,100450,0.9,0.3 S,0,99750,100450,2.3,2.1 P,0,99750,100450,A
Sprite,Foreground,Centre,"sb/ring.png",320,240 M,0,99750,,172,296 F,0,99750,100450,0.9,0 S,0,99750,100450,0.3,0.6 P,0,99750,100450,A
Sprite,Foreground,Centre,"sb/spotlight.png",320,240 M,0,101018,,444,180 F,0,101018,101718,0.9,0.3 S,0,101018,101718,2.3,2.1 P,0,101018,101718,A
Sprite,Foreground,Centre,"sb/ring.png",320,240 M,0,101018,,444,180 F,0,101018,101718,0.9,0 S,0,101018,101718,0.3,0.6 P,0,101018,101718,A
Sprite,Foreground,Centre,"sb/spotlight.png",320,240 M,0,101862,,244,116 F,0,101862,102562,0.9,0.3 S,0,101862,102562,2.3,2.1 P,0,101862,102562,A
Sprite,Foreground,Centre,"sb/ring.png",320,240 M,0,101862,,244,116 F,0,101862,102562,0.9,0 S,0,101862,102562,0.3,0.6 P,0,101862,102562,A
Sprite,Foreground,Centre,"sb/spotlight.png",320,240 M,0,102707,,296,320 F,0,102707,103407,0.9,0.3 S,0,102707,103407,2.3,2.1 P,0,102707,103407,A
Sprite,Foreground,Centre,"sb/ring.png",320,240 M,0,102707,,296,320 F,0,102707,103407,0.9,0 S,0,102707,103407,0.3,0.6 P,0,102707,103407,A
Sprite,Foreground,Centre,"sb/spotlight.png",320,240 M,0,103130,,296,424 F,0,103130,103830,0.9,0.3 S,0,103130,103830,2.3,2.1 P,0,103130,103830,A
Sprite,Foreground,Centre,"sb/ring.png",320,240 M,0,103130,,296,424 F,0,103130,103830,0.9,0 S,0,103130,103830,0.3,0.6 P,0,103130,103830,A
Sprite,Foreground,Centre,"sb/spotlight.png",320,240 M,0,104398,,560,324 F,0,104398,105098,0.9,0.3 S,0,104398,105098,2.3,2.1 P,0,104398,105098,A
Sprite,Foreground,Centre,"sb/ring.png",320,240 M,0,104398,,560,324 F,0,104398,105098,0.9,0 S,0,104398,105098,0.3,0.6 P,0,104398,105098,A
Sprite,Foreground,Centre,"sb/spotlight.png",320,240 M,0,105243,,520,120 F,0,105243,105943,0.9,0.3 S,0,105243,105943,2.3,2.1 P,0,105243,105943,A
Sprite,Foreground,Centre,"sb/ring.png",320,240 M,0,105243,,520,120 F,0,105243,105943,0.9,0 S,0,105243,105943,0.3,0.6 P,0,105243,105943,A
Sprite,Foreground,Centre,"sb/spotlight.png",320,240 M,0,105876,,376,180 F,0,105876,106576,0.9,0.3 S,0,105876,106576,2.3,2.1 P,0,105876,106576,A
Sprite,Foreground,Centre,"sb/ring.png",320,240 M,0,105876,,376,180 F,0,105876,106576,0.9,0 S,0,105876,106576,0.3,0.6 P,0,105876,106576,A
Sprite,Foreground,Centre,"sb/spotlight.png",320,240 M,0,106299,,276,196 F,0,106299,106999,0.9,0.3 S,0,106299,106999,2.3,2.1 P,0,106299,106999,A
Sprite,Foreground,Centre,"sb/ring.png",320,240 M,0,106299,,276,196 F,0,106299,106999,0.9,0 S,0,106299,106999,0.3,0.6 P,0,106299,106999,A
Sprite,Foreground,Centre,"sb/spotlight.png",320,240 M,0,106933,,124,160 F,0,106933,107633,0.9,0.3 S,0,106933,107633,2.3,2.1 P,0,106933,107633,A
Sprite,Foreground,Centre,"sb/ring.png",320,240 M,0,106933,,124,160 F,0,106933,107633,0.9,0 S,0,106933,107633,0.3,0.6 P,0,106933,107633,A
Sprite,Foreground,Centre,"sb/spotlight.png",320,240 M,0,107144,,124,160 F,0,107144,107844,0.9,0.3 S,0,107144,107844,2.3,2.1 P,0,107144,107844,A
Sprite,Foreground,Centre,"sb/ring.png",320,240 M,0,107144,,124,160 F,0,107144,107844,0.9,0 S,0,107144,107844,0.3,0.6 P,0,107144,107844,A
Sprite,Foreground,Centre,"sb/spotlight.png",320,240 M,0,108200,,96,408 F,0,108200,108900,0.9,0.3 S,0,108200,108900,2.3,2.1 P,0,108200,108900,A
Sprite,Foreground,Centre,"sb/ring.png",320,240 M,0,108200,,96,408 F,0,108200,108900,0.9,0 S,0,108200,108900,0.3,0.6 P,0,108200,108900,A
Sprite,Foreground,Centre,"sb/spotlight.png",320,240 M,0,108623,,200,388 F,0,108623,109323,0.9,0.3 S,0,108623,109323,2.3,2.1 P,0,108623,109323,A
Sprite,Foreground,Centre,"sb/ring.png",320,240 M,0,108623,,200,388 F,0,108623,109323,0.9,0 S,0,108623,109323,0.3,0.6 P,0,108623,109323,A
Sprite,Foreground,Centre,"sb/spotlight.png",320,240 M,0,109045,,276,316 F,0,109045,109745,0.9,0.3 S,0,109045,109745,2.3,2.1 P,0,109045,109745,A
Sprite,Foreground,Centre,"sb/ring.png",320,240 M,0,109045,,276,316 F,0,109045,109745,0.9,0 S,0,109045,109745,0.3,0.6 P,0,109045,109745,A
Sprite,Foreground,Centre,"sb/spotlight.png",320,240 M,0,109468,,292,212 F,0,109468,110168,0.9,0.3 S,0,109468,110168,2.3,2.1 P,0,109468,110168,A
Sprite,Foreground,Centre,"sb/ring.png",320,240 M,0,109468,,292,212 F,0,109468,110168,0.9,0 S,0,109468,110168,0.3,0.6 P,0,109468,110168,A
Sprite,Foreground,Centre,"sb/spotlight.png",320,240 M,0,109891,,256,112 F,0,109891,110591,0.9,0.3 S,0,109891,110591,2.3,2.1 P,0,109891,110591,A
Sprite,Foreground,Centre,"sb/ring.png",320,240 M,0,109891,,256,112 F,0,109891,110591,0.9,0 S,0,109891,110591,0.3,0.6 P,0,109891,110591,A
Sprite,Foreground,Centre,"sb/spotlight.png",320,240 M,0,111158,,520,256 F,0,111158,111858,0.9,0.3 S,0,111158,111858,2.3,2.1 P,0,111158,111858,A
Sprite,Foreground,Centre,"sb/ring.png",320,240 M,0,111158,,520,256 F,0,111158,111858,0.9,0 S,0,111158,111858,0.3,0.6 P,0,111158,111858,A
Sprite,Foreground,Centre,"sb/spotlight.png",320,240 M,0,111581,,436,320 F,0,111581,112281,0.9,0.3 S,0,111581,112281,2.3,2.1 P,0,111581,112281,A
Sprite,Foreground,Centre,"sb/ring.png",320,240 M,0,111581,,436,320 F,0,111581,112281,0.9,0 S,0,111581,112281,0.3,0.6 P,0,111581,112281,A
Sprite,Foreground,Centre,"sb/spotlight.png",320,240 M,0,112848,,192,316 F,0,112848,113548,0.9,0.3 S,0,112848,113548,2.3,2.1 P,0,112848,113548,A
Sprite,Foreground,Centre,"sb/ring.png",320,240 M,0,112848,,192,316 F,0,112848,113548,0.9,0 S,0,112848,113548,0.3,0.6 P,0,112848,113548,A
Sprite,Foreground,Centre,"sb/spotlight.png",320,240 M,0,113271,,238,221 F,0,113271,113971,0.9,0.3 S,0,113271,113971,2.3,2.1 P,0,113271,113971,A
Sprite,Foreground,Centre,"sb/ring.png",320,240 M,0,113271,,238,221 F,0,113271,113971,0.9,0 S,0,113271,113971,0.3,0.6 P,0,113271,113971,A
Sprite,Foreground,Centre,"sb/spotlight.png",320,240 M,0,114116,,340,208 F,0,114116,114816,0.9,0.3 S,0,114116,114816,2.3,2.1 P,0,114116,114816,A
Sprite,Foreground,Centre,"sb/ring.png",320,240 M,0,114116,,340,208 F,0,114116,114816,0.9,0 S,0,114116,114816,0.3,0.6 P,0,114116,114816,A
Sprite,Foreground,Centre,"sb/spotlight.png",320,240 M,0,114750,,330,108 F,0,114750,115450,0.9,0.3 S,0,114750,115450,2.3,2.1 P,0,114750,115450,A
Sprite,Foreground,Centre,"sb/ring.png",320,240 M,0,114750,,330,108 F,0,114750,115450,0.9,0 S,0,114750,115450,0.3,0.6 P,0,114750,115450,A
Sprite,Foreground,Centre,"sb/spotlight.png",320,240 M,0,114961,,280,124 F,0,114961,115661,0.9,0.3 S,0,114961,115661,2.3,2.1 P,0,114961,115661,A
Sprite,Foreground,Centre,"sb/ring.png",320,240 M,0,114961,,280,124 F,0,114961,115661,0.9,0 S,0,114961,115661,0.3,0.6 P,0,114961,115661,A
Sprite,Foreground,Centre,"sb/spotlight.png",320,240 M,0,115806,,80,100 F,0,115806,116506,0.9,0.3 S,0,115806,116506,2.3,2.1 P,0,115806,116506,A
Sprite,Foreground,Centre,"sb/ring.png",320,240 M,0,115806,,80,100 F,0,115806,116506,0.9,0 S,0,115806,116506,0.3,0.6 P,0,115806,116506,A
Sprite,Foreground,Centre,"sb/spotlight.png",320,240 M,0,116440,,112,252 F,0,116440,117140,0.9,0.3 S,0,116440,117140,2.3,2.1 P,0,116440,117140,A
Sprite,Foreground,Centre,"sb/ring.png",320,240 M,0,116440,,112,252 F,0,116440,117140,0.9,0 S,0,116440,117140,0.3,0.6 P,0,116440,117140,A
Sprite,Foreground,Centre,"sb/spotlight.png",320,240 M,0,116651,,140,296 F,0,116651,117351,0.9,0.3 S,0,116651,117351,2.3,2.1 P,0,116651,117351,A
Sprite,Foreground,Centre,"sb/ring.png",320,240 M,0,116651,,140,296 F,0,116651,117351,0.9,0 S,0,116651,117351,0.3,0.6 P,0,116651,117351,A
Sprite,Foreground,Centre,"sb/spotlight.png",320,240 M,0,117496,,244,444 F,0,117496,118196,0.9,0.3 S,0,117496,118196,2.3,2.1 P,0,117496,118196,A
Sprite,Foreground,Centre,"sb/ring.png",320,240 M,0,117496,,244,444 F,0,117496,118196,0.9,0 S,0,117496,118196,0.3,0.6 P,0,117496,118196,A
Sprite,Foreground,Centre,"sb/spotlight.png",320,240 M,0,118130,,276,292 F,0,118130,118830,0.9,0.3 S,0,118130,118830,2.3,2.1 P,0,118130,118830,A
Sprite,Foreground,Centre,"sb/ring.png",320,240 M,0,118130,,276,292 F,0,118130,118830,0.9,0 S,0,118130,118830,0.3,0.6 P,0,118130,118830,A
Sprite,Foreground,Centre,"sb/spotlight.png",320,240 M,0,118341,,304,248 F,0,118341,119041,0.9,0.3 S,0,118341,119041,2.3,2.1 P,0,118341,119041,A
Sprite,Foreground,Centre,"sb/ring.png",320,240 M,0,118341,,304,248 F,0,118341,119041,0.9,0 S,0,118341,119041,0.3,0.6 P,0,118341,119041,A
Sprite,Foreground,Centre,"sb/spotlight.png",320,240 M,0,119186,,400,84 F,0,119186,119886,0.9,0.3 S,0,119186,119886,2.3,2.1 P,0,119186,119886,A
Sprite,Foreground,Centre,"sb/ring.png",320,240 M,0,119186,,400,84 F,0,119186,119886,0.9,0 S,0,119186,119886,0.3,0.6 P,0,119186,119886,A
Sprite,Foreground,Centre,"sb/spotlight.png",320,240 M,0,119819,,436,232 F,0,119819,120519,0.9,0.3 S,0,119819,120519,2.3,2.1 P,0,119819,120519,A
Sprite,Foreground,Centre,"sb/ring.png",320,240 M,0,119819,,436,232 F,0,119819,120519,0.9,0 S,0,119819,120519,0.3,0.6 P,0,119819,120519,A
Sprite,Foreground,Centre,"sb/spotlight.png",320,240 M,0,120031,,460,280 F,0,120031,120731,0.9,0.3 S,0,120031,120731,2.3,2.1 P,0,120031,120731,A
Sprite,Foreground,Centre,"sb/ring.png",320,240 M,0,120031,,460,280 F,0,120031,120731,0.9,0 S,0,120031,120731,0.3,0.6 P,0,120031,120731,A
Sprite,Foreground,Centre,"sb/spotlight.png",320,240 M,0,120876,,368,356 F,0,120876,121576,0.9,0.3 S,0,120876,121576,2.3,2.1 P,0,120876,121576,A
Sprite,Foreground,Centre,"sb/ring.png",320,240 M,0,120876,,368,356 F,0,120876,121576,0.9,0 S,0,120876,121576,0.3,0.6 P,0,120876,121576,A
Sprite,Foreground,Centre,"sb/spotlight.png",320,240 M,0,121299,,268,340 F,0,121299,121999,0.9,0.3 S,0,121299,121999,2.3,2.1 P,0,121299,121999,A
Sprite,Foreground,Centre,"sb/ring.png",320,240 M,0,121299,,268,340 F,0,121299,121999,0.9,0 S,0,121299,121999,0.3,0.6 P,0,121299,121999,A
Sprite,Foreground,Centre,"sb/spotlight.png",320,240 M,0,123412,,496,212 F,0,123412,124112,0.9,0.3 S,0,123412,124112,2.3,2.1 P,0,123412,124112,A
Sprite,Foreground,Centre,"sb/ring.png",320,240 M,0,123412,,496,212 F,0,123412,124112,0.9,0 S,0,123412,124112,0.3,0.6 P,0,123412,124112,A
Sprite,Foreground,Centre,"sb/spotlight.png",320,240 M,0,124257,,300,156 F,0,124257,124957,0.9,0.3 S,0,124257,124957,2.3,2.1 P,0,124257,124957,A
Sprite,Foreground,Centre,"sb/ring.png",320,240 M,0,124257,,300,156 F,0,124257,124957,0.9,0 S,0,124257,124957,0.3,0.6 P,0,124257,124957,A
Sprite,Foreground,Centre,"sb/spotlight.png",320,240 M,0,124890,,148,156 F,0,124890,125590,0.9,0.3 S,0,124890,125590,2.3,2.1 P,0,124890,125590,A
Sprite,Foreground,Centre,"sb/ring.png",320,240 M,0,124890,,148,156 F,0,124890,125590,0.9,0 S,0,124890,125590,0.3,0.6 P,0,124890,125590,A
Sprite,Foreground,Centre,"sb/spotlight.png",320,240 M,0,125102,,96,168 F,0,125102,125802,0.9,0.3 S,0,125102,125802,2.3,2.1 P,0,125102,125802,A
Sprite,Foreground,Centre,"sb/ring.png",320,240 M,0,125102,,96,168 F,0,125102,125802,0.9,0 S,0,125102,125802,0.3,0.6 P,0,125102,125802,A
Sprite,Foreground,Centre,"sb/spotlight.png",320,240 M,0,125947,,84,376 F,0,125947,126647,0.9,0.3 S,0,125947,126647,2.3,2.1 P,0,125947,126647,A
Sprite,Foreground,Centre,"sb/ring.png",320,240 M,0,125947,,84,376 F,0,125947,126647,0.9,0 S,0,125947,126647,0.3,0.6 P,0,125947,126647,A
Sprite,Foreground,Centre,"sb/spotlight.png",320,240 M,0,126581,,208,304 F,0,126581,127281,0.9,0.3 S,0,126581,127281,2.3,2.1 P,0,126581,127281,A
Sprite,Foreground,Centre,"sb/ring.png",320,240 M,0,126581,,208,304 F,0,126581,127281,0.9,0 S,0,126581,127281,0.3,0.6 P,0,126581,127281,A
Sprite,Foreground,Centre,"sb/spotlight.png",320,240 M,0,126792,,236,260 F,0,126792,127492,0.9,0.3 S,0,126792,127492,2.3,2.1 P,0,126792,127492,A
Sprite,Foreground,Centre,"sb/ring.png",320,240 M,0,126792,,236,260 F,0,126792,127492,0.9,0 S,0,126792,127492,0.3,0.6 P,0,126792,127492,A
Sprite,Foreground,Centre,"sb/spotlight.png",320,240 M,0,127637,,296,348 F,0,127637,128337,0.9,0.3 S,0,127637,128337,2.3,2.1 P,0,127637,128337,A
Sprite,Foreground,Centre,"sb/ring.png",320,240 M,0,127637,,296,348 F,0,127637,128337,0.9,0 S,0,127637,128337,0.3,0.6 P,0,127637,128337,A
Sprite,Foreground,Centre,"sb/spotlight.png",320,240 M,0,128271,,452,336 F,0,128271,128971,0.9,0.3 S,0,128271,128971,2.3,2.1 P,0,128271,128971,A
Sprite,Foreground,Centre,"sb/ring.png",320,240 M,0,128271,,452,336 F,0,128271,128971,0.9,0 S,0,128271,128971,0.3,0.6 P,0,128271,128971,A
Sprite,Foreground,Centre,"sb/spotlight.png",320,240 M,0,128482,,500,316 F,0,128482,129182,0.9,0.3 S,0,128482,129182,2.3,2.1 P,0,128482,129182,A
Sprite,Foreground,Centre,"sb/ring.png",320,240 M,0,128482,,500,316 F,0,128482,129182,0.9,0 S,0,128482,129182,0.3,0.6 P,0,128482,129182,A
Sprite,Foreground,Centre,"sb/spotlight.png",320,240 M,0,129750,,536,216 F,0,129750,130450,0.9,0.3 S,0,129750,130450,2.3,2.1 P,0,129750,130450,A
Sprite,Foreground,Centre,"sb/ring.png",320,240 M,0,129750,,536,216 F,0,129750,130450,0.9,0 S,0,129750,130450,0.3,0.6 P,0,129750,130450,A
Sprite,Foreground,Centre,"sb/spotlight.png",320,240 M,0,130172,,504,120 F,0,130172,130872,0.9,0.3 S,0,130172,130872,2.3,2.1 P,0,130172,130872,A
Sprite,Foreground,Centre,"sb/ring.png",320,240 M,0,130172,,504,120 F,0,130172,130872,0.9,0 S,0,130172,130872,0.3,0.6 P,0,130172,130872,A
Sprite,Foreground,Centre,"sb/spotlight.png",320,240 M,0,131017,,296,144 F,0,131017,131717,0.9,0.3 S,0,131017,131717,2.3,2.1 P,0,131017,131717,A
Sprite,Foreground,Centre,"sb/ring.png",320,240 M,0,131017,,296,144 F,0,131017,131717,0.9,0 S,0,131017,131717,0.3,0.6 P,0,131017,131717,A
Sprite,Foreground,Centre,"sb/spotlight.png",320,240 M,0,131651,,144,164 F,0,131651,132351,0.9,0.3 S,0,131651,132351,2.3,2.1 P,0,131651,132351,A
Sprite,Foreground,Centre,"sb/ring.png",320,240 M,0,131651,,144,164 F,0,131651,132351,0.9,0 S,0,131651,132351,0.3,0.6 P,0,131651,132351,A
Sprite,Foreground,Centre,"sb/spotlight.png",320,240 M,0,131862,,100,192 F,0,131862,132562,0.9,0.3 S,0,131862,132562,2.3,2.1 P,0,131862,132562,A
Sprite,Foreground,Centre,"sb/ring.png",320,240 M,0,131862,,100,192 F,0,131862,132562,0.9,0 S,0,131862,132562,0.3,0.6 P,0,131862,132562,A
Sprite,Foreground,Centre,"sb/spotlight.png",320,240 M,0,132707,,156,360 F,0,132707,133407,0.9,0.3 S,0,132707,133407,2.3,2.1 P,0,132707,133407,A
Sprite,Foreground,Centre,"sb/ring.png",320,240 M,0,132707,,156,360 F,0,132707,133407,0.9,0 S,0,132707,133407,0.3,0.6 P,0,132707,133407,A
Sprite,Foreground,Centre,"sb/spotlight.png",320,240 M,0,133341,,308,340 F,0,133341,134041,0.9,0.3 S,0,133341,134041,2.3,2.1 P,0,133341,134041,A
Sprite,Foreground,Centre,"sb/ring.png",320,240 M,0,133341,,308,340 F,0,133341,134041,0.9,0 S,0,133341,134041,0.3,0.6 P,0,133341,134041,A
Sprite,Foreground,Centre,"sb/spotlight.png",320,240 M,0,133552,,351,312 F,0,133552,134252,0.9,0.3 S,0,133552,134252,2.3,2.1 P,0,133552,134252,A
Sprite,Foreground,Centre,"sb/ring.png",320,240 M,0,133552,,351,312 F,0,133552,134252,0.9,0 S,0,133552,134252,0.3,0.6 P,0,133552,134252,A
Sprite,Foreground,Centre,"sb/spotlight.png",320,240 M,0,134398,,289,149 F,0,134398,135098,0.9,0.3 S,0,134398,135098,2.3,2.1 P,0,134398,135098,A
Sprite,Foreground,Centre,"sb/ring.png",320,240 M,0,134398,,289,149 F,0,134398,135098,0.9,0 S,0,134398,135098,0.3,0.6 P,0,134398,135098,A
Sprite,Foreground,Centre,"sb/spotlight.png",320,240 M,0,135243,,370,215 F,0,135243,135943,0.9,0.3 S,0,135243,135943,2.3,2.1 P,0,135243,135943,A
Sprite,Foreground,Centre,"sb/ring.png",320,240 M,0,135243,,370,215 F,0,135243,135943,0.9,0 S,0,135243,135943,0.3,0.6 P,0,135243,135943,A
Sprite,Foreground,Centre,"sb/spotlight.png",320,240 M,0,135665,,384,116 F,0,135665,136365,0.9,0.3 S,0,135665,136365,2.3,2.1 P,0,135665,136365,A
Sprite,Foreground,Centre,"sb/ring.png",320,240 M,0,135665,,384,116 F,0,135665,136365,0.9,0 S,0,135665,136365,0.3,0.6 P,0,135665,136365,A
Sprite,Foreground,Centre,"sb/spotlight.png",320,240 M,0,136510,,488,140 F,0,136510,137210,0.9,0.3 S,0,136510,137210,2.3,2.1 P,0,136510,137210,A
Sprite,Foreground,Centre,"sb/ring.png",320,240 M,0,136510,,488,140 F,0,136510,137210,0.9,0 S,0,136510,137210,0.3,0.6 P,0,136510,137210,A
Sprite,Foreground,Centre,"sb/spotlight.png",320,240 M,0,136722,,480,192 F,0,136722,137422,0.9,0.3 S,0,136722,137422,2.3,2.1 P,0,136722,137422,A
Sprite,Foreground,Centre,"sb/ring.png",320,240 M,0,136722,,480,192 F,0,136722,137422,0.9,0 S,0,136722,137422,0.3,0.6 P,0,136722,137422,A
Sprite,Foreground,Centre,"sb/spotlight.png",320,240 M,0,136933,,476,244 F,0,136933,137633,0.9,0.3 S,0,136933,137633,2.3,2.1 P,0,136933,137633,A
Sprite,Foreground,Centre,"sb/ring.png",320,240 M,0,136933,,476,244 F,0,136933,137633,0.9,0 S,0,136933,137633,0.3,0.6 P,0,136933,137633,A
Sprite,Foreground,Centre,"sb/spotlight.png",320,240 M,0,137778,,404,416 F,0,137778,138478,0.9,0.3 S,0,137778,138478,2.3,2.1 P,0,137778,138478,A
Sprite,Foreground,Centre,"sb/ring.png",320,240 M,0,137778,,404,416 F,0,137778,138478,0.9,0 S,0,137778,138478,0.3,0.6 P,0,137778,138478,A
Sprite,Foreground,Centre,"sb/spotlight.png",320,240 M,0,138412,,260,372 F,0,138412,139112,0.9,0.3 S,0,138412,139112,2.3,2.1 P,0,138412,139112,A
Sprite,Foreground,Centre,"sb/ring.png",320,240 M,0,138412,,260,372 F,0,138412,139112,0.9,0 S,0,138412,139112,0.3,0.6 P,0,138412,139112,A
Sprite,Foreground,Centre,"sb/spotlight.png",320,240 M,0,138623,,208,380 F,0,138623,139323,0.9,0.3 S,0,138623,139323,2.3,2.1 P,0,138623,139323,A
Sprite,Foreground,Centre,"sb/ring.png",320,240 M,0,138623,,208,380 F,0,138623,139323,0.9,0 S,0,138623,139323,0.3,0.6 P,0,138623,139323,A
Sprite,Foreground,Centre,"sb/spotlight.png",320,240 M,0,139468,,168,284 F,0,139468,140168,0.9,0.3 S,0,139468,140168,2.3,2.1 P,0,139468,140168,A
Sprite,Foreground,Centre,"sb/ring.png",320,240 M,0,139468,,168,284 F,0,139468,140168,0.9,0 S,0,139468,140168,0.3,0.6 P,0,139468,140168,A
Sprite,Foreground,Centre,"sb/spotlight.png",320,240 M,0,139891,,132,188 F,0,139891,140591,0.9,0.3 S,0,139891,140591,2.3,2.1 P,0,139891,140591,A
Sprite,Foreground,Centre,"sb/ring.png",320,240 M,0,139891,,132,188 F,0,139891,140591,0.9,0 S,0,139891,140591,0.3,0.6 P,0,139891,140591,A
Sprite,Foreground,Centre,"sb/spotlight.png",320,240 M,0,140313,,232,200 F,0,140313,141013,0.9,0.3 S,0,140313,141013,2.3,2.1 P,0,140313,141013,A
Sprite,Foreground,Centre,"sb/ring.png",320,240 M,0,140313,,232,200 F,0,140313,141013,0.9,0 S,0,140313,141013,0.3,0.6 P,0,140313,141013,A
Sprite,Foreground,Centre,"sb/spotlight.png",320,240 M,0,141581,,320,140 F,0,141581,142281,0.9,0.3 S,0,141581,142281,2.3,2.1 P,0,141581,142281,A
Sprite,Foreground,Centre,"sb/ring.png",320,240 M,0,141581,,320,140 F,0,141581,142281,0.9,0 S,0,141581,142281,0.3,0.6 P,0,141581,142281,A
Sprite,Foreground,Centre,"sb/spotlight.png",320,240 M,0,141792,,365,169 F,0,141792,142492,0.9,0.3 S,0,141792,142492,2.3,2.1 P,0,141792,142492,A
Sprite,Foreground,Centre,"sb/ring.png",320,240 M,0,141792,,365,169 F,0,141792,142492,0.9,0 S,0,141792,142492,0.3,0.6 P,0,141792,142492,A
Sprite,Foreground,Centre,"sb/spotlight.png",320,240 M,0,142003,,408,200 F,0,142003,142703,0.9,0.3 S,0,142003,142703,2.3,2.1 P,0,142003,142703,A
Sprite,Foreground,Centre,"sb/ring.png",320,240 M,0,142003,,408,200 F,0,142003,142703,0.9,0 S,0,142003,142703,0.3,0.6 P,0,142003,142703,A
Sprite,Foreground,Centre,"sb/spotlight.png",320,240 M,0,143271,,360,292 F,0,143271,143971,0.9,0.3 S,0,143271,143971,2.3,2.1 P,0,143271,143971,A
Sprite,Foreground,Centre,"sb/ring.png",320,240 M,0,143271,,360,292 F,0,143271,143971,0.9,0 S,0,143271,143971,0.3,0.6 P,0,143271,143971,A
Sprite,Foreground,Centre,"sb/spotlight.png",320,240 M,0,143693,,368,396 F,0,143693,144393,0.9,0.3 S,0,143693,144393,2.3,2.1 P,0,143693,144393,A
Sprite,Foreground,Centre,"sb/ring.png",320,240 M,0,143693,,368,396 F,0,143693,144393,0.9,0 S,0,143693,144393,0.3,0.6 P,0,143693,144393,A
Sprite,Foreground,Centre,"sb/spotlight.png",320,240 M,0,144116,,264,420 F,0,144116,144816,0.9,0.3 S,0,144116,144816,2.3,2.1 P,0,144116,144816,A
Sprite,Foreground,Centre,"sb/ring.png",320,240 M,0,144116,,264,420 F,0,144116,144816,0.9,0 S,0,144116,144816,0.3,0.6 P,0,144116,144816,A
Sprite,Foreground,Centre,"sb/spotlight.png",320,240 M,0,144750,,176,316 F,0,144750,145450,0.9,0.3 S,0,144750,145450,2.3,2.1 P,0,144750,145450,A
Sprite,Foreground,Centre,"sb/ring.png",320,240 M,0,144750,,176,316 F,0,144750,145450,0.9,0 S,0,144750,145450,0.3,0.6 P,0,144750,145450,A
Sprite,Foreground,Centre,"sb/spotlight.png",320,240 M,0,145595,,196,212 F,0,145595,146295,0.9,0.3 S,0,145595,146295,2.3,2.1 P,0,145595,146295,A
Sprite,Foreground,Centre,"sb/ring.png",320,240 M,0,145595,,196,212 F,0,145595,146295,0.9,0 S,0,145595,146295,0.3,0.6 P,0,145595,146295,A
Sprite,Foreground,Centre,"sb/spotlight.png",320,240 M,0,146440,,180,108 F,0,146440,147140,0.9,0.3 S,0,146440,147140,2.3,2.1 P,0,146440,147140,A
Sprite,Foreground,Centre,"sb/ring.png",320,240 M,0,146440,,180,108 F,0,146440,147140,0.9,0 S,0,146440,147140,0.3,0.6 P,0,146440,147140,A
Sprite,Foreground,Centre,"sb/spotlight.png",320,240 M,0,146651,,228,128 F,0,146651,147351,0.9,0.3 S,0,146651,147351,2.3,2.1 P,0,146651,147351,A
Sprite,Foreground,Centre,"sb/ring.png",320,240 M,0,146651,,228,128 F,0,146651,147351,0.9,0 S,0,146651,147351,0.3,0.6 P,0,146651,147351,A
Sprite,Foreground,Centre,"sb/spotlight.png",320,240 M,0,147074,,332,132 F,0,147074,147774,0.9,0.3 S,0,147074,147774,2.3,2.1 P,0,147074,147774,A
Sprite,Foreground,Centre,"sb/ring.png",320,240 M,0,147074,,332,132 F,0,147074,147774,0.9,0 S,0,147074,147774,0.3,0.6 P,0,147074,147774,A
Sprite,Foreground,Centre,"sb/spotlight.png",320,240 M,0,147919,,540,112 F,0,147919,148619,0.9,0.3 S,0,147919,148619,2.3,2.1 P,0,147919,148619,A
Sprite,Foreground,Centre,"sb/ring.png",320,240 M,0,147919,,540,112 F,0,147919,148619,0.9,0 S,0,147919,148619,0.3,0.6 P,0,147919,148619,A
Sprite,Foreground,Centre,"sb/spotlight.png",320,240 M,0,148341,,500,208 F,0,148341,149041,0.9,0.3 S,0,148341,149041,2.3,2.1 P,0,148341,149041,A
Sprite,Foreground,Centre,"sb/ring.png",320,240 M,0,148341,,500,208 F,0,148341,149041,0.9,0 S,0,148341,149041,0.3,0.6 P,0,148341,149041,A
Sprite,Foreground,Centre,"sb/spotlight.png",320,240 M,0,148764,,500,312 F,0,148764,149464,0.9,0.3 S,0,148764,149464,2.3,2.1 P,0,148764,149464,A
Sprite,Foreground,Centre,"sb/ring.png",320,240 M,0,148764,,500,312 F,0,148764,149464,0.9,0 S,0,148764,149464,0.3,0.6 P,0,148764,149464,A
Sprite,Foreground,Centre,"sb/spotlight.png",320,240 M,0,150454,,320,256 F,0,150454,151154,0.9,0.3 S,0,150454,151154,2.3,2.1 P,0,150454,151154,A
Sprite,Foreground,Centre,"sb/ring.png",320,240 M,0,150454,,320,256 F,0,150454,151154,0.9,0 S,0,150454,151154,0.3,0.6 P,0,150454,151154,A
Sprite,Foreground,Centre,"sb/spotlight.png",320,240 M,0,163975,,272,204 F,0,163975,164675,0.9,0.3 S,0,163975,164675,2.3,2.1 P,0,163975,164675,A
Sprite,Foreground,Centre,"sb/ring.png",320,240 M,0,163975,,272,204 F,0,163975,164675,0.9,0 S,0,163975,164675,0.3,0.6 P,0,163975,164675,A
Sprite,Foreground,Centre,"sb/spotlight.png",320,240 M,0,164820,,368,308 F,0,164820,165520,0.9,0.3 S,0,164820,165520,2.3,2.1 P,0,164820,165520,A
Sprite,Foreground,Centre,"sb/ring.png",320,240 M,0,164820,,368,308 F,0,164820,165520,0.9,0 S,0,164820,165520,0.3,0.6 P,0,164820,165520,A
Sprite,Foreground,Centre,"sb/spotlight.png",320,240 M,0,165665,,180,356 F,0,165665,166365,0.9,0.3 S,0,165665,166365,2.3,2.1 P,0,165665,166365,A
Sprite,Foreground,Centre,"sb/ring.png",320,240 M,0,165665,,180,356 F,0,165665,166365,0.9,0 S,0,165665,166365,0.3,0.6 P,0,165665,166365,A
Sprite,Foreground,Centre,"sb/spotlight.png",320,240 M,0,167355,,508,264 F,0,167355,168055,0.9,0.3 S,0,167355,168055,2.3,2.1 P,0,167355,168055,A
Sprite,Foreground,Centre,"sb/ring.png",320,240 M,0,167355,,508,264 F,0,167355,168055,0.9,0 S,0,167355,168055,0.3,0.6 P,0,167355,168055,A
Sprite,Foreground,Centre,"sb/spotlight.png",320,240 M,0,168200,,416,212 F,0,168200,168900,0.9,0.3 S,0,168200,168900,2.3,2.1 P,0,168200,168900,A
Sprite,Foreground,Centre,"sb/ring.png",320,240 M,0,168200,,416,212 F,0,168200,168900,0.9,0 S,0,168200,168900,0.3,0.6 P,0,168200,168900,A
Sprite,Foreground,Centre,"sb/spotlight.png",320,240 M,0,169045,,232,284 F,0,169045,169745,0.9,0.3 S,0,169045,169745,2.3,2.1 P,0,169045,169745,A
Sprite,Foreground,Centre,"sb/ring.png",320,240 M,0,169045,,232,284 F,0,169045,169745,0.9,0 S,0,169045,169745,0.3,0.6 P,0,169045,169745,A
Sprite,Foreground,Centre,"sb/spotlight.png",320,240 M,0,170736,,311,216 F,0,170736,171436,0.9,0.3 S,0,170736,171436,2.3,2.1 P,0,170736,171436,A
Sprite,Foreground,Centre,"sb/ring.png",320,240 M,0,170736,,311,216 F,0,170736,171436,0.9,0 S,0,170736,171436,0.3,0.6 P,0,170736,171436,A
Sprite,Foreground,Centre,"sb/spotlight.png",320,240 M,0,171581,,280,404 F,0,171581,172281,0.9,0.3 S,0,171581,172281,2.3,2.1 P,0,171581,172281,A
Sprite,Foreground,Centre,"sb/ring.png",320,240 M,0,171581,,280,404 F,0,171581,172281,0.9,0 S,0,171581,172281,0.3,0.6 P,0,171581,172281,A
Sprite,Foreground,Centre,"sb/spotlight.png",320,240 M,0,172848,,412,216 F,0,172848,173548,0.9,0.3 S,0,172848,173548,2.3,2.1 P,0,172848,173548,A
Sprite,Foreground,Centre,"sb/ring.png",320,240 M,0,172848,,412,216 F,0,172848,173548,0.9,0 S,0,172848,173548,0.3,0.6 P,0,172848,173548,A
Sprite,Foreground,Centre,"sb/spotlight.png",320,240 M,0,173271,,512,248 F,0,173271,173971,0.9,0.3 S,0,173271,173971,2.3,2.1 P,0,173271,173971,A
Sprite,Foreground,Centre,"sb/ring.png",320,240 M,0,173271,,512,248 F,0,173271,173971,0.9,0 S,0,173271,173971,0.3,0.6 P,0,173271,173971,A
Sprite,Foreground,Centre,"sb/spotlight.png",320,240 M,0,174116,,433,318 F,0,174116,174816,0.9,0.3 S,0,174116,174816,2.3,2.1 P,0,174116,174816,A
Sprite,Foreground,Centre,"sb/ring.png",320,240 M,0,174116,,433,318 F,0,174116,174816,0.9,0 S,0,174116,174816,0.3,0.6 P,0,174116,174816,A
Sprite,Foreground,Centre,"sb/spotlight.png",320,240 M,0,177074,,412,216 F,0,177074,177774,0.9,0.3 S,0,177074,177774,2.3,2.1 P,0,177074,177774,A
Sprite,Foreground,Centre,"sb/ring.png",320,240 M,0,177074,,412,216 F,0,177074,177774,0.9,0 S,0,177074,177774,0.3,0.6 P,0,177074,177774,A
Sprite,Foreground,Centre,"sb/spotlight.png",320,240 M,0,177496,,391,114 F,0,177496,178196,0.9,0.3 S,0,177496,178196,2.3,2.1 P,0,177496,178196,A
Sprite,Foreground,Centre,"sb/ring.png",320,240 M,0,177496,,391,114 F,0,177496,178196,0.9,0 S,0,177496,178196,0.3,0.6 P,0,177496,178196,A
Sprite,Foreground,Centre,"sb/spotlight.png",320,240 M,0,184257,,136,263 F,0,184257,184957,0.9,0.3 S,0,184257,184957,2.3,2.1 P,0,184257,184957,A
Sprite,Foreground,Centre,"sb/ring.png",320,240 M,0,184257,,136,263 F,0,184257,184957,0.9,0 S,0,184257,184957,0.3,0.6 P,0,184257,184957,A
Sprite,Foreground,Centre,"sb/spotlight.png",320,240 M,0,185524,,320,416 F,0,185524,186224,0.9,0.3 S,0,185524,186224,2.3,2.1 P,0,185524,186224,A
Sprite,Foreground,Centre,"sb/ring.png",320,240 M,0,185524,,320,416 F,0,185524,186224,0.9,0 S,0,185524,186224,0.3,0.6 P,0,185524,186224,A
Sprite,Foreground,Centre,"sb/spotlight.png",320,240 M,0,185947,,424,428 F,0,185947,186647,0.9,0.3 S,0,185947,186647,2.3,2.1 P,0,185947,186647,A
Sprite,Foreground,Centre,"sb/ring.png",320,240 M,0,185947,,424,428 F,0,185947,186647,0.9,0 S,0,185947,186647,0.3,0.6 P,0,185947,186647,A
Sprite,Foreground,Centre,"sb/spotlight.png",320,240 M,0,187637,,320,164 F,0,187637,188337,0.9,0.3 S,0,187637,188337,2.3,2.1 P,0,187637,188337,A
Sprite,Foreground,Centre,"sb/ring.png",320,240 M,0,187637,,320,164 F,0,187637,188337,0.9,0 S,0,187637,188337,0.3,0.6 P,0,187637,188337,A
Sprite,Foreground,Centre,"sb/spotlight.png",320,240 M,0,188060,,268,256 F,0,188060,188760,0.9,0.3 S,0,188060,188760,2.3,2.1 P,0,188060,188760,A
Sprite,Foreground,Centre,"sb/ring.png",320,240 M,0,188060,,268,256 F,0,188060,188760,0.9,0 S,0,188060,188760,0.3,0.6 P,0,188060,188760,A
Sprite,Foreground,Centre,"sb/spotlight.png",320,240 M,0,188482,,372,256 F,0,188482,189182,0.9,0.3 S,0,188482,189182,2.3,2.1 P,0,188482,189182,A
Sprite,Foreground,Centre,"sb/ring.png",320,240 M,0,188482,,372,256 F,0,188482,189182,0.9,0 S,0,188482,189182,0.3,0.6 P,0,188482,189182,A
Sprite,Foreground,Centre,"sb/spotlight.png",320,240 M,0,188905,,320,348 F,0,188905,189605,0.9,0.3 S,0,188905,189605,2.3,2.1 P,0,188905,189605,A
Sprite,Foreground,Centre,"sb/ring.png",320,240 M,0,188905,,320,348 F,0,188905,189605,0.9,0 S,0,188905,189605,0.3,0.6 P,0,188905,189605,A
Sprite,Foreground,Centre,"sb/spotlight.png",320,240 M,0,189327,,424,348 F,0,189327,190027,0.9,0.3 S,0,189327,190027,2.3,2.1 P,0,189327,190027,A
Sprite,Foreground,Centre,"sb/ring.png",320,240 M,0,189327,,424,348 F,0,189327,190027,0.9,0 S,0,189327,190027,0.3,0.6 P,0,189327,190027,A
Sprite,Foreground,Centre,"sb/spotlight.png",320,240 M,0,191017,,228,212 F,0,191017,191717,0.9,0.3 S,0,191017,191717,2.3,2.1 P,0,191017,191717,A
Sprite,Foreground,Centre,"sb/ring.png",320,240 M,0,191017,,228,212 F,0,191017,191717,0.9,0 S,0,191017,191717,0.3,0.6 P,0,191017,191717,A
Sprite,Foreground,Centre,"sb/spotlight.png",320,240 M,0,191862,,196,116 F,0,191862,192562,0.9,0.3 S,0,191862,192562,2.3,2.1 P,0,191862,192562,A
Sprite,Foreground,Centre,"sb/ring.png",320,240 M,0,191862,,196,116 F,0,191862,192562,0.9,0 S,0,191862,192562,0.3,0.6 P,0,191862,192562,A
Sprite,Foreground,Centre,"sb/spotlight.png",320,240 M,0,192285,,300,136 F,0,192285,192985,0.9,0.3 S,0,192285,192985,2.3,2.1 P,0,192285,192985,A
Sprite,Foreground,Centre,"sb/ring.png",320,240 M,0,192285,,300,136 F,0,192285,192985,0.9,0 S,0,192285,192985,0.3,0.6 P,0,192285,192985,A
Sprite,Foreground,Centre,"sb/spotlight.png",320,240 M,0,192707,,392,168 F,0,192707,193407,0.9,0.3 S,0,192707,193407,2.3,2.1 P,0,192707,193407,A
Sprite,Foreground,Centre,"sb/ring.png",320,240 M,0,192707,,392,168 F,0,192707,193407,0.9,0 S,0,192707,193407,0.3,0.6 P,0,192707,193407,A
Sprite,Foreground,Centre,"sb/spotlight.png",320,240 M,0,193552,,488,136 F,0,193552,194252,0.9,0.3 S,0,193552,194252,2.3,2.1 P,0,193552,194252,A
Sprite,Foreground,Centre,"sb/ring.png",320,240 M,0,193552,,488,136 F,0,193552,194252,0.9,0 S,0,193552,194252,0.3,0.6 P,0,193552,194252,A
Sprite,Foreground,Centre,"sb/spotlight.png",320,240 M,0,193975,,468,240 F,0,193975,194675,0.9,0.3 S,0,193975,194675,2.3,2.1 P,0,193975,194675,A
Sprite,Foreground,Centre,"sb/ring.png",320,240 M,0,193975,,468,240 F,0,193975,194675,0.9,0 S,0,193975,194675,0.3,0.6 P,0,193975,194675,A
Sprite,Foreground,Centre,"sb/spotlight.png",320,240 M,0,194398,,452,340 F,0,194398,195098,0.9,0.3 S,0,194398,195098,2.3,2.1 P,0,194398,195098,A
Sprite,Foreground,Centre,"sb/ring.png",320,240 M,0,194398,,452,340 F,0,194398,195098,0.9,0 S,0,194398,195098,0.3,0.6 P,0,194398,195098,A
Sprite,Foreground,Centre,"sb/spotlight.png",320,240 M,0,195665,,484,436 F,0,195665,196365,0.9,0.3 S,0,195665,196365,2.3,2.1 P,0,195665,196365,A
Sprite,Foreground,Centre,"sb/ring.png",320,240 M,0,195665,,484,436 F,0,195665,196365,0.9,0 S,0,195665,196365,0.3,0.6 P,0,195665,196365,A
Sprite,Foreground,Centre,"sb/spotlight.png",320,240 M,0,196088,,380,416 F,0,196088,196788,0.9,0.3 S,0,196088,196788,2.3,2.1 P,0,196088,196788,A
Sprite,Foreground,Centre,"sb/ring.png",320,240 M,0,196088,,380,416 F,0,196088,196788,0.9,0 S,0,196088,196788,0.3,0.6 P,0,196088,196788,A
Sprite,Foreground,Centre,"sb/spotlight.png",320,240 M,0,196510,,348,320 F,0,196510,197210,0.9,0.3 S,0,196510,197210,2.3,2.1 P,0,196510,197210,A
Sprite,Foreground,Centre,"sb/ring.png",320,240 M,0,196510,,348,320 F,0,196510,197210,0.9,0 S,0,196510,197210,0.3,0.6 P,0,196510,197210,A
Sprite,Foreground,Centre,"sb/spotlight.png",320,240 M,0,196933,,404,236 F,0,196933,197633,0.9,0.3 S,0,196933,197633,2.3,2.1 P,0,196933,197633,A
Sprite,Foreground,Centre,"sb/ring.png",320,240 M,0,196933,,404,236 F,0,196933,197633,0.9,0 S,0,196933,197633,0.3,0.6 P,0,196933,197633,A
Sprite,Foreground,Centre,"sb/spotlight.png",320,240 M,0,197567,,264,184 F,0,197567,198267,0.9,0.3 S,0,197567,198267,2.3,2.1 P,0,197567,198267,A
Sprite,Foreground,Centre,"sb/ring.png",320,240 M,0,197567,,264,184 F,0,197567,198267,0.9,0 S,0,197567,198267,0.3,0.6 P,0,197567,198267,A
Sprite,Foreground,Centre,"sb/spotlight.png",320,240 M,0,197778,,240,136 F,0,197778,198478,0.9,0.3 S,0,197778,198478,2.3,2.1 P,0,197778,198478,A
Sprite,Foreground,Centre,"sb/ring.png",320,240 M,0,197778,,240,136 F,0,197778,198478,0.9,0 S,0,197778,198478,0.3,0.6 P,0,197778,198478,A
Sprite,Foreground,Centre,"sb/spotlight.png",320,240 M,0,198200,,160,204 F,0,198200,198900,0.9,0.3 S,0,198200,198900,2.3,2.1 P,0,198200,198900,A
Sprite,Foreground,Centre,"sb/ring.png",320,240 M,0,198200,,160,204 F,0,198200,198900,0.9,0 S,0,198200,198900,0.3,0.6 P,0,198200,198900,A
Sprite,Foreground,Centre,"sb/spotlight.png",320,240 M,0,198834,,172,360 F,0,198834,199534,0.9,0.3 S,0,198834,199534,2.3,2.1 P,0,198834,199534,A
Sprite,Foreground,Centre,"sb/ring.png",320,240 M,0,198834,,172,360 F,0,198834,199534,0.9,0 S,0,198834,199534,0.3,0.6 P,0,198834,199534,A
Sprite,Foreground,Centre,"sb/spotlight.png",320,240 M,0,199679,,260,304 F,0,199679,200379,0.9,0.3 S,0,199679,200379,2.3,2.1 P,0,199679,200379,A
Sprite,Foreground,Centre,"sb/ring.png",320,240 M,0,199679,,260,304 F,0,199679,200379,0.9,0 S,0,199679,200379,0.3,0.6 P,0,199679,200379,A
Sprite,Foreground,Centre,"sb/spotlight.png",320,240 M,0,199891,,312,316 F,0,199891,200591,0.9,0.3 S,0,199891,200591,2.3,2.1 P,0,199891,200591,A
Sprite,Foreground,Centre,"sb/ring.png",320,240 M,0,199891,,312,316 F,0,199891,200591,0.9,0 S,0,199891,200591,0.3,0.6 P,0,199891,200591,A
Sprite,Foreground,Centre,"sb/spotlight.png",320,240 M,0,200524,,428,420 F,0,200524,201224,0.9,0.3 S,0,200524,201224,2.3,2.1 P,0,200524,201224,A
Sprite,Foreground,Centre,"sb/ring.png",320,240 M,0,200524,,428,420 F,0,200524,201224,0.9,0 S,0,200524,201224,0.3,0.6 P,0,200524,201224,A
Sprite,Foreground,Centre,"sb/spotlight.png",320,240 M,0,200736,,480,408 F,0,200736,201436,0.9,0.3 S,0,200736,201436,2.3,2.1 P,0,200736,201436,A
Sprite,Foreground,Centre,"sb/ring.png",320,240 M,0,200736,,480,408 F,0,200736,201436,0.9,0 S,0,200736,201436,0.3,0.6 P,0,200736,201436,A
Sprite,Foreground,Centre,"sb/spotlight.png",320,240 M,0,201158,,544,328 F,0,201158,201858,0.9,0.3 S,0,201158,201858,2.3,2.1 P,0,201158,201858,A
Sprite,Foreground,Centre,"sb/ring.png",320,240 M,0,201158,,544,328 F,0,201158,201858,0.9,0 S,0,201158,201858,0.3,0.6 P,0,201158,201858,A
Sprite,Foreground,Centre,"sb/spotlight.png",320,240 M,0,202003,,552,120 F,0,202003,202703,0.9,0.3 S,0,202003,202703,2.3,2.1 P,0,202003,202703,A
Sprite,Foreground,Centre,"sb/ring.png",320,240 M,0,202003,,552,120 F,0,202003,202703,0.9,0 S,0,202003,202703,0.3,0.6 P,0,202003,202703,A
Sprite,Foreground,Centre,"sb/spotlight.png",320,240 M,0,202426,,458,168 F,0,202426,203126,0.9,0.3 S,0,202426,203126,2.3,2.1 P,0,202426,203126,A
Sprite,Foreground,Centre,"sb/ring.png",320,240 M,0,202426,,458,168 F,0,202426,203126,0.9,0 S,0,202426,203126,0.3,0.6 P,0,202426,203126,A
Sprite,Foreground,Centre,"sb/spotlight.png",320,240 M,0,202848,,357,191 F,0,202848,203548,0.9,0.3 S,0,202848,203548,2.3,2.1 P,0,202848,203548,A
Sprite,Foreground,Centre,"sb/ring.png",320,240 M,0,202848,,357,191 F,0,202848,203548,0.9,0 S,0,202848,203548,0.3,0.6 P,0,202848,203548,A
Sprite,Foreground,Centre,"sb/spotlight.png",320,240 M,0,204538,,263,168 F,0,204538,205238,0.9,0.3 S,0,204538,205238,2.3,2.1 P,0,204538,205238,A
Sprite,Foreground,Centre,"sb/ring.png",320,240 M,0,204538,,263,168 F,0,204538,205238,0.9,0 S,0,204538,205238,0.3,0.6 P,0,204538,205238,A
Sprite,Foreground,Centre,"sb/spotlight.png",320,240 M,0,205383,,66,111 F,0,205383,206083,0.9,0.3 S,0,205383,206083,2.3,2.1 P,0,205383,206083,A
Sprite,Foreground,Centre,"sb/ring.png",320,240 M,0,205383,,66,111 F,0,205383,206083,0.9,0 S,0,205383,206083,0.3,0.6 P,0,205383,206083,A
Sprite,Foreground,Centre,"sb/spotlight.png",320,240 M,0,205805,,71,217 F,0,205805,206505,0.9,0.3 S,0,205805,206505,2.3,2.1 P,0,205805,206505,A
Sprite,Foreground,Centre,"sb/ring.png",320,240 M,0,205805,,71,217 F,0,205805,206505,0.9,0 S,0,205805,206505,0.3,0.6 P,0,205805,206505,A
Sprite,Foreground,Centre,"sb/spotlight.png",320,240 M,0,206228,,109,310 F,0,206228,206928,0.9,0.3 S,0,206228,206928,2.3,2.1 P,0,206228,206928,A
Sprite,Foreground,Centre,"sb/ring.png",320,240 M,0,206228,,109,310 F,0,206228,206928,0.9,0 S,0,206228,206928,0.3,0.6 P,0,206228,206928,A
Sprite,Foreground,Centre,"sb/spotlight.png",320,240 M,0,207284,,263,168 F,0,207284,207984,0.9,0.3 S,0,207284,207984,2.3,2.1 P,0,207284,207984,A
Sprite,Foreground,Centre,"sb/ring.png",320,240 M,0,207284,,263,168 F,0,207284,207984,0.9,0 S,0,207284,207984,0.3,0.6 P,0,207284,207984,A
Sprite,Foreground,Centre,"sb/spotlight.png",320,240 M,0,207495,,315,164 F,0,207495,208195,0.9,0.3 S,0,207495,208195,2.3,2.1 P,0,207495,208195,A
Sprite,Foreground,Centre,"sb/ring.png",320,240 M,0,207495,,315,164 F,0,207495,208195,0.9,0 S,0,207495,208195,0.3,0.6 P,0,207495,208195,A
Sprite,Foreground,Centre,"sb/spotlight.png",320,240 M,0,207919,,404,216 F,0,207919,208619,0.9,0.3 S,0,207919,208619,2.3,2.1 P,0,207919,208619,A
Sprite,Foreground,Centre,"sb/ring.png",320,240 M,0,207919,,404,216 F,0,207919,208619,0.9,0 S,0,207919,208619,0.3,0.6 P,0,207919,208619,A
Sprite,Foreground,Centre,"sb/spotlight.png",320,240 M,0,208764,,532,304 F,0,208764,209464,0.9,0.3 S,0,208764,209464,2.3,2.1 P,0,208764,209464,A
Sprite,Foreground,Centre,"sb/ring.png",320,240 M,0,208764,,532,304 F,0,208764,209464,0.9,0 S,0,208764,209464,0.3,0.6 P,0,208764,209464,A
Sprite,Foreground,Centre,"sb/spotlight.png",320,240 M,0,209186,,476,392 F,0,209186,209886,0.9,0.3 S,0,209186,209886,2.3,2.1 P,0,209186,209886,A
Sprite,Foreground,Centre,"sb/ring.png",320,240 M,0,209186,,476,392 F,0,209186,209886,0.9,0 S,0,209186,209886,0.3,0.6 P,0,209186,209886,A
Sprite,Foreground,Centre,"sb/spotlight.png",320,240 M,0,209609,,376,412 F,0,209609,210309,0.9,0.3 S,0,209609,210309,2.3,2.1 P,0,209609,210309,A
Sprite,Foreground,Centre,"sb/ring.png",320,240 M,0,209609,,376,412 F,0,209609,210309,0.9,0 S,0,209609,210309,0.3,0.6 P,0,209609,210309,A
Sprite,Foreground,Centre,"sb/spotlight.png",320,240 M,0,210243,,220,424 F,0,210243,210943,0.9,0.3 S,0,210243,210943,2.3,2.1 P,0,210243,210943,A
Sprite,Foreground,Centre,"sb/ring.png",320,240 M,0,210243,,220,424 F,0,210243,210943,0.9,0 S,0,210243,210943,0.3,0.6 P,0,210243,210943,A
Sprite,Foreground,Centre,"sb/spotlight.png",320,240 M,0,210876,,216,272 F,0,210876,211576,0.9,0.3 S,0,210876,211576,2.3,2.1 P,0,210876,211576,A
Sprite,Foreground,Centre,"sb/ring.png",320,240 M,0,210876,,216,272 F,0,210876,211576,0.9,0 S,0,210876,211576,0.3,0.6 P,0,210876,211576,A
Sprite,Foreground,Centre,"sb/spotlight.png",320,240 M,0,211299,,136,208 F,0,211299,211999,0.9,0.3 S,0,211299,211999,2.3,2.1 P,0,211299,211999,A
Sprite,Foreground,Centre,"sb/ring.png",320,240 M,0,211299,,136,208 F,0,211299,211999,0.9,0 S,0,211299,211999,0.3,0.6 P,0,211299,211999,A
Sprite,Foreground,Centre,"sb/spotlight.png",320,240 M,0,211722,,228,160 F,0,211722,212422,0.9,0.3 S,0,211722,212422,2.3,2.1 P,0,211722,212422,A
Sprite,Foreground,Centre,"sb/ring.png",320,240 M,0,211722,,228,160 F,0,211722,212422,0.9,0 S,0,211722,212422,0.3,0.6 P,0,211722,212422,A
Sprite,Foreground,Centre,"sb/spotlight.png",320,240 M,0,212144,,320,112 F,0,212144,212844,0.9,0.3 S,0,212144,212844,2.3,2.1 P,0,212144,212844,A
Sprite,Foreground,Centre,"sb/ring.png",320,240 M,0,212144,,320,112 F,0,212144,212844,0.9,0 S,0,212144,212844,0.3,0.6 P,0,212144,212844,A
Sprite,Foreground,Centre,"sb/spotlight.png",320,240 M,0,212567,,312,216 F,0,212567,213267,0.9,0.3 S,0,212567,213267,2.3,2.1 P,0,212567,213267,A
Sprite,Foreground,Centre,"sb/ring.png",320,240 M,0,212567,,312,216 F,0,212567,213267,0.9,0 S,0,212567,213267,0.3,0.6 P,0,212567,213267,A
Sprite,Foreground,Centre,"sb/spotlight.png",320,240 M,0,212989,,392,276 F,0,212989,213689,0.9,0.3 S,0,212989,213689,2.3,2.1 P,0,212989,213689,A
Sprite,Foreground,Centre,"sb/ring.png",320,240 M,0,212989,,392,276 F,0,212989,213689,0.9,0 S,0,212989,213689,0.3,0.6 P,0,212989,213689,A
Sprite,Foreground,Centre,"sb/spotlight.png",320,240 M,0,214045,,488,416 F,0,214045,214745,0.9,0.3 S,0,214045,214745,2.3,2.1 P,0,214045,214745,A
Sprite,Foreground,Centre,"sb/ring.png",320,240 M,0,214045,,488,416 F,0,214045,214745,0.9,0 S,0,214045,214745,0.3,0.6 P,0,214045,214745,A
Sprite,Foreground,Centre,"sb/spotlight.png",320,240 M,0,214257,,492,364 F,0,214257,214957,0.9,0.3 S,0,214257,214957,2.3,2.1 P,0,214257,214957,A
Sprite,Foreground,Centre,"sb/ring.png",320,240 M,0,214257,,492,364 F,0,214257,214957,0.9,0 S,0,214257,214957,0.3,0.6 P,0,214257,214957,A
Sprite,Foreground,Centre,"sb/spotlight.png",320,240 M,0,214679,,496,260 F,0,214679,215379,0.9,0.3 S,0,214679,215379,2.3,2.1 P,0,214679,215379,A
Sprite,Foreground,Centre,"sb/ring.png",320,240 M,0,214679,,496,260 F,0,214679,215379,0.9,0 S,0,214679,215379,0.3,0.6 P,0,214679,215379,A
Sprite,Foreground,Centre,"sb/spotlight.png",320,240 M,0,215102,,392,276 F,0,215102,215802,0.9,0.3 S,0,215102,215802,2.3,2.1 P,0,215102,215802,A
Sprite,Foreground,Centre,"sb/ring.png",320,240 M,0,215102,,392,276 F,0,215102,215802,0.9,0 S,0,215102,215802,0.3,0.6 P,0,215102,215802,A
Sprite,Foreground,Centre,"sb/spotlight.png",320,240 M,0,215524,,288,284 F,0,215524,216224,0.9,0.3 S,0,215524,216224,2.3,2.1 P,0,215524,216224,A
Sprite,Foreground,Centre,"sb/ring.png",320,240 M,0,215524,,288,284 F,0,215524,216224,0.9,0 S,0,215524,216224,0.3,0.6 P,0,215524,216224,A
Sprite,Foreground,Centre,"sb/spotlight.png",320,240 M,0,216158,,152,228 F,0,216158,216858,0.9,0.3 S,0,216158,216858,2.3,2.1 P,0,216158,216858,A
Sprite,Foreground,Centre,"sb/ring.png",320,240 M,0,216158,,152,228 F,0,216158,216858,0.9,0 S,0,216158,216858,0.3,0.6 P,0,216158,216858,A
Sprite,Foreground,Centre,"sb/spotlight.png",320,240 M,0,216369,,140,176 F,0,216369,217069,0.9,0.3 S,0,216369,217069,2.3,2.1 P,0,216369,217069,A
Sprite,Foreground,Centre,"sb/ring.png",320,240 M,0,216369,,140,176 F,0,216369,217069,0.9,0 S,0,216369,217069,0.3,0.6 P,0,216369,217069,A
Sprite,Foreground,Centre,"sb/spotlight.png",320,240 M,0,217003,,208,80 F,0,217003,217703,0.9,0.3 S,0,217003,217703,2.3,2.1 P,0,217003,217703,A
Sprite,Foreground,Centre,"sb/ring.png",320,240 M,0,217003,,208,80 F,0,217003,217703,0.9,0 S,0,217003,217703,0.3,0.6 P,0,217003,217703,A
Sprite,Foreground,Centre,"sb/spotlight.png",320,240 M,0,217637,,365,86 F,0,217637,218337,0.9,0.3 S,0,217637,218337,2.3,2.1 P,0,217637,218337,A
Sprite,Foreground,Centre,"sb/ring.png",320,240 M,0,217637,,365,86 F,0,217637,218337,0.9,0 S,0,217637,218337,0.3,0.6 P,0,217637,218337,A
Sprite,Foreground,Centre,"sb/spotlight.png",320,240 M,0,218060,,368,188 F,0,218060,218760,0.9,0.3 S,0,218060,218760,2.3,2.1 P,0,218060,218760,A
Sprite,Foreground,Centre,"sb/ring.png",320,240 M,0,218060,,368,188 F,0,218060,218760,0.9,0 S,0,218060,218760,0.3,0.6 P,0,218060,218760,A
Sprite,Foreground,Centre,"sb/spotlight.png",320,240 M,0,218905,,172,128 F,0,218905,219605,0.9,0.3 S,0,218905,219605,2.3,2.1 P,0,218905,219605,A
Sprite,Foreground,Centre,"sb/ring.png",320,240 M,0,218905,,172,128 F,0,218905,219605,0.9,0 S,0,218905,219605,0.3,0.6 P,0,218905,219605,A
Sprite,Foreground,Centre,"sb/spotlight.png",320,240 M,0,219327,,168,232 F,0,219327,220027,0.9,0.3 S,0,219327,220027,2.3,2.1 P,0,219327,220027,A
Sprite,Foreground,Centre,"sb/ring.png",320,240 M,0,219327,,168,232 F,0,219327,220027,0.9,0 S,0,219327,220027,0.3,0.6 P,0,219327,220027,A
Sprite,Foreground,Centre,"sb/spotlight.png",320,240 M,0,219538,,148,280 F,0,219538,220238,0.9,0.3 S,0,219538,220238,2.3,2.1 P,0,219538,220238,A
Sprite,Foreground,Centre,"sb/ring.png",320,240 M,0,219538,,148,280 F,0,219538,220238,0.9,0 S,0,219538,220238,0.3,0.6 P,0,219538,220238,A
Sprite,Foreground,Centre,"sb/spotlight.png",320,240 M,0,219750,,128,328 F,0,219750,220450,0.9,0.3 S,0,219750,220450,2.3,2.1 P,0,219750,220450,A
Sprite,Foreground,Centre,"sb/ring.png",320,240 M,0,219750,,128,328 F,0,219750,220450,0.9,0 S,0,219750,220450,0.3,0.6 P,0,219750,220450,A
Sprite,Foreground,Centre,"sb/spotlight.png",320,240 M,0,220595,,316,388 F,0,220595,221295,0.9,0.3 S,0,220595,221295,2.3,2.1 P,0,220595,221295,A
Sprite,Foreground,Centre,"sb/ring.png",320,240 M,0,220595,,316,388 F,0,220595,221295,0.9,0 S,0,220595,221295,0.3,0.6 P,0,220595,221295,A
Sprite,Foreground,Centre,"sb/spotlight.png",320,240 M,0,221440,,524,380 F,0,221440,222140,0.9,0.3 S,0,221440,222140,2.3,2.1 P,0,221440,222140,A
Sprite,Foreground,Centre,"sb/ring.png",320,240 M,0,221440,,524,380 F,0,221440,222140,0.9,0 S,0,221440,222140,0.3,0.6 P,0,221440,222140,A
Sprite,Foreground,Centre,"sb/spotlight.png",320,240 M,0,221862,,464,292 F,0,221862,222562,0.9,0.3 S,0,221862,222562,2.3,2.1 P,0,221862,222562,A
Sprite,Foreground,Centre,"sb/ring.png",320,240 M,0,221862,,464,292 F,0,221862,222562,0.9,0 S,0,221862,222562,0.3,0.6 P,0,221862,222562,A
Sprite,Foreground,Centre,"sb/spotlight.png",320,240 M,0,222285,,404,204 F,0,222285,222985,0.9,0.3 S,0,222285,222985,2.3,2.1 P,0,222285,222985,A
Sprite,Foreground,Centre,"sb/ring.png",320,240 M,0,222285,,404,204 F,0,222285,222985,0.9,0 S,0,222285,222985,0.3,0.6 P,0,222285,222985,A
Sprite,Foreground,Centre,"sb/spotlight.png",320,240 M,0,222919,,256,188 F,0,222919,223619,0.9,0.3 S,0,222919,223619,2.3,2.1 P,0,222919,223619,A
Sprite,Foreground,Centre,"sb/ring.png",320,240 M,0,222919,,256,188 F,0,222919,223619,0.9,0 S,0,222919,223619,0.3,0.6 P,0,222919,223619,A
Sprite,Foreground,Centre,"sb/spotlight.png",320,240 M,0,223130,,208,208 F,0,223130,223830,0.9,0.3 S,0,223130,223830,2.3,2.1 P,0,223130,223830,A
Sprite,Foreground,Centre,"sb/ring.png",320,240 M,0,223130,,208,208 F,0,223130,223830,0.9,0 S,0,223130,223830,0.3,0.6 P,0,223130,223830,A
Sprite,Foreground,Centre,"sb/spotlight.png",320,240 M,0,223552,,244,308 F,0,223552,224252,0.9,0.3 S,0,223552,224252,2.3,2.1 P,0,223552,224252,A
Sprite,Foreground,Centre,"sb/ring.png",320,240 M,0,223552,,244,308 F,0,223552,224252,0.9,0 S,0,223552,224252,0.3,0.6 P,0,223552,224252,A
Sprite,Foreground,Centre,"sb/spotlight.png",320,240 M,0,223975,,336,256 F,0,223975,224675,0.9,0.3 S,0,223975,224675,2.3,2.1 P,0,223975,224675,A
Sprite,Foreground,Centre,"sb/ring.png",320,240 M,0,223975,,336,256 F,0,223975,224675,0.9,0 S,0,223975,224675,0.3,0.6 P,0,223975,224675,A
Sprite,Foreground,Centre,"sb/spotlight.png",320,240 M,0,224398,,372,356 F,0,224398,225098,0.9,0.3 S,0,224398,225098,2.3,2.1 P,0,224398,225098,A
Sprite,Foreground,Centre,"sb/ring.png",320,240 M,0,224398,,372,356 F,0,224398,225098,0.9,0 S,0,224398,225098,0.3,0.6 P,0,224398,225098,A
Sprite,Foreground,Centre,"sb/spotlight.png",320,240 M,0,224820,,463,302 F,0,224820,225520,0.9,0.3 S,0,224820,225520,2.3,2.1 P,0,224820,225520,A
Sprite,Foreground,Centre,"sb/ring.png",320,240 M,0,224820,,463,302 F,0,224820,225520,0.9,0 S,0,224820,225520,0.3,0.6 P,0,224820,225520,A
Sprite,Foreground,Centre,"sb/spotlight.png",320,240 M,0,225665,,412,104 F,0,225665,226365,0.9,0.3 S,0,225665,226365,2.3,2.1 P,0,225665,226365,A
Sprite,Foreground,Centre,"sb/ring.png",320,240 M,0,225665,,412,104 F,0,225665,226365,0.9,0 S,0,225665,226365,0.3,0.6 P,0,225665,226365,A
Sprite,Foreground,Centre,"sb/spotlight.png",320,240 M,0,226299,,256,112 F,0,226299,226999,0.9,0.3 S,0,226299,226999,2.3,2.1 P,0,226299,226999,A
Sprite,Foreground,Centre,"sb/ring.png",320,240 M,0,226299,,256,112 F,0,226299,226999,0.9,0 S,0,226299,226999,0.3,0.6 P,0,226299,226999,A
Sprite,Foreground,Centre,"sb/spotlight.png",320,240 M,0,226510,,204,124 F,0,226510,227210,0.9,0.3 S,0,226510,227210,2.3,2.1 P,0,226510,227210,A
Sprite,Foreground,Centre,"sb/ring.png",320,240 M,0,226510,,204,124 F,0,226510,227210,0.9,0 S,0,226510,227210,0.3,0.6 P,0,226510,227210,A
Sprite,Foreground,Centre,"sb/spotlight.png",320,240 M,0,227355,,148,212 F,0,227355,228055,0.9,0.3 S,0,227355,228055,2.3,2.1 P,0,227355,228055,A
Sprite,Foreground,Centre,"sb/ring.png",320,240 M,0,227355,,148,212 F,0,227355,228055,0.9,0 S,0,227355,228055,0.3,0.6 P,0,227355,228055,A
Sprite,Foreground,Centre,"sb/spotlight.png",320,240 M,0,228200,,172,316 F,0,228200,228900,0.9,0.3 S,0,228200,228900,2.3,2.1 P,0,228200,228900,A
Sprite,Foreground,Centre,"sb/ring.png",320,240 M,0,228200,,172,316 F,0,228200,228900,0.9,0 S,0,228200,228900,0.3,0.6 P,0,228200,228900,A
Sprite,Foreground,Centre,"sb/spotlight.png",320,240 M,0,229468,,244,240 F,0,229468,230168,0.9,0.3 S,0,229468,230168,2.3,2.1 P,0,229468,230168,A
Sprite,Foreground,Centre,"sb/ring.png",320,240 M,0,229468,,244,240 F,0,229468,230168,0.9,0 S,0,229468,230168,0.3,0.6 P,0,229468,230168,A
Sprite,Foreground,Centre,"sb/spotlight.png",320,240 M,0,229890,,340,268 F,0,229890,230590,0.9,0.3 S,0,229890,230590,2.3,2.1 P,0,229890,230590,A
Sprite,Foreground,Centre,"sb/ring.png",320,240 M,0,229890,,340,268 F,0,229890,230590,0.9,0 S,0,229890,230590,0.3,0.6 P,0,229890,230590,A
Sprite,Foreground,Centre,"sb/spotlight.png",320,240 M,0,230313,,412,344 F,0,230313,231013,0.9,0.3 S,0,230313,231013,2.3,2.1 P,0,230313,231013,A
Sprite,Foreground,Centre,"sb/ring.png",320,240 M,0,230313,,412,344 F,0,230313,231013,0.9,0 S,0,230313,231013,0.3,0.6 P,0,230313,231013,A
Sprite,Foreground,Centre,"sb/spotlight.png",320,240 M,0,230736,,444,244 F,0,230736,231436,0.9,0.3 S,0,230736,231436,2.3,2.1 P,0,230736,231436,A
Sprite,Foreground,Centre,"sb/ring.png",320,240 M,0,230736,,444,244 F,0,230736,231436,0.9,0 S,0,230736,231436,0.3,0.6 P,0,230736,231436,A
Sprite,Foreground,Centre,"sb/spotlight.png",320,240 M,0,231158,,476,144 F,0,231158,231858,0.9,0.3 S,0,231158,231858,2.3,2.1 P,0,231158,231858,A
Sprite,Foreground,Centre,"sb/ring.png",320,240 M,0,231158,,476,144 F,0,231158,231858,0.9,0 S,0,231158,231858,0.3,0.6 P,0,231158,231858,A
//Storyboard Sound Samples

[TimingPoints]
1722,422.535211267606,4,2,0,32,1,0
7426,-100,4,2,0,42,0,0
8376,-100,4,2,0,5,0,0
8482,-100,4,2,0,44,0,0
14186,-100,4,2,0,51,0,0
15243,-100,4,1,69,69,0,0
18940,-100,4,1,69,5,0,0
19045,-100,4,1,69,69,0,0
20630,-100,4,1,69,5,0,0
20736,-100,4,1,69,69,0,0
22320,-100,4,1,69,5,0,0
22426,-100,4,1,69,69,0,0
24010,-100,4,1,69,5,0,0
24116,-100,4,1,69,69,0,0
25700,-100,4,1,69,5,0,0
25806,-100,4,1,69,69,0,0
27391,-100,4,1,69,5,0,0
27496,-100,4,1,69,69,0,0
28764,-100,4,1,69,51,0,0
28869,-100,4,1,69,5,0,0
29398,-100,4,1,69,51,0,0
35630,-100,4,1,69,5,0,0
36158,-100,4,1,69,51,0,0
38905,-100,4,2,0,32,0,0
40595,-100,4,1,69,51,0,0
41440,-100,4,1,69,69,0,0
55806,-100,4,1,69,69,0,1
68482,-100,4,2,0,69,0,1
69327,-100,4,1,69,69,0,1
76088,-100,4,1,69,51,0,0
82954,-100,4,1,69,5,0,0
96369,-100,4,2,0,44,0,0
99538,-100,4,2,0,69,0,0
99961,-100,4,2,0,44,0,0
108200,-100,4,1,69,69,0,0
123412,-100,4,1,69,69,0,1
136088,-100,4,2,0,69,0,1
136933,-100,4,1,69,69,0,1
143693,-100,4,1,69,51,0,0
150560,-100,4,1,69,5,0,0
163975,-100,4,1,69,69,0,0
184257,-100,4,1,69,51,0,0
189327,-100,4,1,69,69,0,0
190383,-100,4,2,0,69,0,0
191017,-100,4,1,69,69,0,1
218060,-100,4,2,0,42,0,0

[Colours]
Combo1 : 248,154,226
Combo2 : 102,255,255
Combo3 : 18,124,255
Combo4 : 25,225,255
SliderBorder : 255,255,255

[HitObjects]
80,148,1722,6,0,B|132:156|132:156|180:136,1,105,2|0,0:0|0:0,0:0:0:0:
276,92,2567,2,0,B|324:72|324:72|376:80,1,105,2|0,0:0|0:0,0:0:0:0:
428,92,3200,1,2,0:0:0:0:
480,104,3412,6,0,L|472:212,1,105,2|0,0:0|0:0,0:0:0:0:
488,312,4257,2,0,P|444:312|392:280,1,105,2|0,0:0|0:0,0:0:0:0:
364,240,4891,1,0,0:0:0:0:
336,196,5102,6,0,L|228:188,1,105,2|0,0:0|0:0,0:0:0:0:
272,288,5947,2,0,L|164:280,1,105,2|0,0:0|0:0,0:0:0:0:
116,276,6581,1,2,0:0:0:0:
68,256,6792,6,0,P|80:304|76:360,2,105,2|0|2,0:0|0:0|0:0,0:0:0:0:
32,156,8060,2,0,P|29:129|36:104,1,52.5,0|0,0:0|0:0,0:0:0:0:
64,60,8482,6,0,L|168:56,1,105,0|8,0:0|0:1,0:0:0:0:
220,56,9116,1,2,0:0:0:0:
324,72,9538,2,0,P|326:45|319:20,2,52.5,2|8|2,0:0|0:1|0:0,0:0:0:0:
256,152,10383,2,0,P|249:177|251:203,1,52.5,2|8,0:0|0:1,0:0:0:0:
268,252,10806,2,0,L|434:245,1,157.5,2|8,0:0|0:1,0:0:0:0:
404,348,11862,6,0,P|448:348|500:316,2,105,0|8|0,0:0|0:1|0:0,0:0:0:0:
300,332,13130,2,0,L|247:334,1,52.5,8|2,0:1|0:0,0:0:0:0:
204,364,13552,6,0,B|212:312|212:312|192:264,1,105,0|0,0:0|0:0,0:0:0:0:
172,216,14186,1,0,1:0:0:0:
152,168,14398,2,0,L|72:164,2,78.75,0|0|0,1:0|1:0|1:0,0:0:0:0:
132,120,15243,6,0,B|184:128|184:128|232:108,1,105,4|8,1:0|0:0,0:0:0:0:
328,60,16088,1,2,1:2:0:0:
324,164,16510,2,0,P|324:192|328:216,1,52.5,10|0,1:2|2:0,0:0:0:0:
356,260,16933,6,0,P|268:256|220:300,1,157.5,2|2,0:2|2:0,0:0:0:0:
312,352,17989,1,2,2:0:0:0:
364,356,18200,2,0,P|392:348|416:334,1,52.5,10|2,0:2|2:0,0:0:0:0:
444,296,18623,6,0,L|448:192,1,105,0|10,0:0|0:2,0:0:0:0:
484,92,19468,1,2,1:2:0:0:
380,108,19891,2,0,P|352:112|316:108,1,52.5,10|0,0:2|2:0,0:0:0:0:
276,96,20313,6,0,P|292:140|284:196,1,105,2|10,0:2|0:2,0:0:0:0:
260,244,20947,2,0,P|220:277|169:287,1,105,2|4,2:0|0:3,0:0:0:0:
116,284,21581,1,10,0:2:0:0:
94,236,21792,1,2,2:0:0:0:
72,188,22003,6,0,B|68:84,1,105,0|10,0:0|0:2,0:0:0:0:
168,48,22848,2,0,B|172:152,1,105,2|2,1:2|0:2,0:0:0:0:
188,204,23482,1,0,2:0:0:0:
208,252,23693,6,0,P|256:296|344:296,1,157.5,2|2,0:2|2:0,0:0:0:0:
300,200,24750,1,2,2:0:0:0:
296,148,24961,2,0,L|292:96,1,52.5,10|2,0:2|2:0,0:0:0:0:
252,60,25383,6,0,P|296:60|348:28,1,105,0|10,0:0|0:2,0:0:0:0:
416,108,26229,2,0,B|412:212,1,105,2|10,0:2|0:2,0:0:0:0:
428,264,26862,1,0,2:0:0:0:
448,312,27074,6,0,P|404:312|352:344,1,105,2|10,0:2|0:2,0:0:0:0:
312,372,27707,2,0,P|268:372|216:340,1,105,2|0,2:0|2:0,0:0:0:0:
188,296,28341,1,10,0:2:0:0:
183,192,28764,6,0,P|255:216|292:284,1,157.5,4|0,0:0|0:0,0:0:0:0:
188,296,35313,5,0,0:0:0:0:
188,296,35524,2,0,P|115:271|79:204,1,157.5,0|0,0:0|0:0,0:0:0:0:
88,52,38905,5,2,0:0:0:0:
192,64,39327,1,0,0:0:0:0:
296,76,39750,1,2,0:0:0:0:
400,88,40172,1,0,0:0:0:0:
504,96,40595,6,0,P|480:156|344:176,1,210,0|0,0:0|0:0,0:0:0:0:
256,132,41862,1,2,0:2:0:0:
162,179,42285,6,0,P|62:180|8:96,1,210,4|0,0:0|0:0,0:0:0:0:
112,88,43552,1,8,0:0:0:0:
216,92,43975,2,0,P|267:178|221:267,1,210,2|2,0:2|0:2,0:0:0:0:
120,296,45243,1,8,0:0:0:0:
196,368,45665,6,0,P|240:368|292:336,1,105,0|8,0:0|0:0,0:0:0:0:
348,248,46510,1,0,0:0:0:0:
348,144,46933,1,10,0:2:0:0:
323,97,47144,1,2,2:0:0:0:
291,54,47355,2,0,P|247:26|196:24,1,105,0|8,0:0|0:0,0:0:0:0:
104,76,48200,2,0,L|108:184,1,105,2|8,0:2|0:0,0:0:0:0:
132,228,48834,1,4,0:3:0:0:
160,272,49045,6,0,P|212:268|260:288,1,105,4|8,0:0|0:0,0:0:0:0:
344,348,49891,2,0,P|396:352|444:332,1,105,0|10,0:0|0:2,0:0:0:0:
476,292,50524,1,2,2:0:0:0:
488,240,50736,6,0,L|492:132,1,105,4|8,0:0|0:0,0:0:0:0:
504,32,51581,2,0,B|452:40|452:40|404:20,1,105,0|10,0:0|0:2,0:0:0:0:
376,64,52214,1,4,0:3:0:0:
348,108,52426,6,0,B|300:88|300:88|248:96,1,105,4|2,0:0|0:2,0:0:0:0:
144,116,53271,2,0,L|148:64,1,52.5,4|4,0:3|0:3,0:0:0:0:
168,16,53693,2,0,P|144:20|116:20,1,52.5,8|4,0:0|0:3,0:0:0:0:
120,212,55806,6,0,P|172:211|224:219,1,105,4|8,0:0|0:0,0:0:0:0:
328,244,56651,2,0,P|380:244|432:236,1,105,0|10,0:0|0:2,0:0:0:0:
480,220,57285,1,2,2:0:0:0:
480,220,57496,2,0,L|472:324,1,105,0|10,0:0|0:2,0:0:0:0:
384,384,58341,1,0,0:0:0:0:
292,336,58764,2,0,P|268:332|240:332,1,52.5,8|2,0:0|2:0,0:0:0:0:
188,336,59186,6,0,P|140:340|88:316,2,105,0|8|0,0:0|0:0|0:0,0:0:0:0:
160,236,60454,2,0,L|164:184,1,52.5,8|2,0:0|2:0,0:0:0:0:
136,140,60876,2,0,P|184:144|236:120,1,105,0|8,0:0|0:0,0:0:0:0:
308,44,61722,1,0,0:0:0:0:
344,144,62144,2,0,L|348:196,1,52.5,8|2,0:0|2:0,0:0:0:0:
328,244,62567,6,0,P|376:240|428:264,1,105,0|8,0:0|0:0,0:0:0:0:
360,344,63412,1,0,0:0:0:0:
256,320,63834,1,8,0:0:0:0:
184,244,64257,6,0,P|136:240|84:264,1,105,0|8,0:0|0:0,0:0:0:0:
152,344,65102,1,0,0:0:0:0:
256,320,65524,1,8,0:0:0:0:
272,270,65736,1,2,2:0:0:0:
288,220,65947,6,0,L|292:112,1,105,0|8,0:0|0:0,0:0:0:0:
200,164,66792,2,0,L|204:56,1,105,0|8,0:0|1:0,0:0:0:0:
116,4,67637,2,0,L|113:66,1,52.5,4|8,0:3|0:3,0:0:0:0:
100,108,68060,2,0,L|97:170,1,52.5,4|4,0:3|0:3,0:0:0:0:
84,212,68482,2,0,L|80:316,1,105,4|2,1:3|1:2,0:0:0:0:
129,336,69116,1,2,0:0:0:0:
180,348,69327,6,0,B|232:356|232:356|280:336,1,105,4|8,0:0|0:0,0:0:0:0:
364,276,70172,2,0,L|372:172,1,105,0|10,0:0|0:2,0:0:0:0:
376,120,70806,1,2,2:0:0:0:
404,76,71017,2,0,P|356:80|304:60,1,105,0|8,0:0|0:0,0:0:0:0:
216,0,71862,1,0,0:0:0:0:
204,104,72285,2,0,L|208:156,1,52.5,8|2,0:0|2:0,0:0:0:0:
180,200,72707,6,0,B|128:192|128:192|80:212,2,105,0|8|0,0:0|0:0|0:0,0:0:0:0:
284,220,73975,1,8,0:0:0:0:
336,230,74186,1,2,2:0:0:0:
388,240,74398,2,0,B|440:248|440:248|488:228,2,105,0|8|0,0:0|0:0|0:0,0:0:0:0:
316,316,75665,2,0,B|290:312|290:312|266:322,1,52.5,8|2,0:0|2:0,0:0:0:0:
220,348,76088,6,0,B|168:356|168:356|120:336,1,105,4|8,0:0|0:0,0:0:0:0:
72,312,76722,1,2,2:0:0:0:
68,208,77144,2,0,L|64:156,2,52.5,2|8|2,2:0|0:0|2:0,0:0:0:0:
160,256,77989,1,2,2:0:0:0:
212,248,78200,2,0,L|264:240,1,52.5,8|2,0:0|2:0,0:0:0:0:
352,296,78834,2,0,L|348:348,2,52.5,2|8|2,2:0|0:0|2:0,0:0:0:0:
356,244,79468,6,0,B|408:248|408:248|456:228,1,105,0|8,0:0|0:0,0:0:0:0:
392,144,80313,1,0,0:0:0:0:
288,164,80736,2,0,L|220:160,1,52.5,8|4,0:0|0:3,0:0:0:0:
184,160,81158,6,0,P|52:168|106:48,1,315,8|8,0:3|0:3,0:0:0:0:
256,192,82848,12,4,86229,0:0:0:0:
180,308,96369,6,0,L|337:300,1,157.5,4|4,1:0|0:3,0:0:0:0:
452,192,97637,1,0,1:0:0:0:
312,36,98482,1,0,1:0:0:0:
128,136,99327,2,0,L|136:188,1,52.5,0|4,1:0|0:3,0:0:0:0:
108,232,99750,6,0,L|265:224,1,157.5,4|4,0:3|0:3,0:0:0:0:
380,116,101018,1,0,1:0:0:0:
180,52,101862,1,0,1:0:0:0:
232,256,102707,2,0,P|236:280|236:308,1,52.5,0|4,1:0|0:3,0:0:0:0:
232,360,103130,6,0,B|274:341|309:363|309:363|343:384|383:368,1,157.5,4|4,0:3|0:3,0:0:0:0:
496,260,104398,1,0,1:0:0:0:
456,56,105243,1,0,1:0:0:0:
312,116,105876,2,0,L|252:112,1,52.5,4|0,0:3|1:0,0:0:0:0:
212,132,106299,2,0,L|152:128,1,52.5,4|4,0:3|0:3,0:0:0:0:
60,96,106933,5,0,1:0:0:0:
60,96,107144,2,0,B|41:138|63:173|63:173|84:207|68:247,1,157.5,4|0,0:3|1:0,0:0:0:0:
32,344,108200,5,0,0:0:0:0:
136,324,108623,1,8,0:0:0:0:
212,252,109045,1,0,0:0:0:0:
228,148,109468,1,8,0:0:0:0:
192,48,109891,6,0,B|252:28|300:68|300:68|372:128,1,210,4|0,0:0|0:0,0:0:0:0:
456,192,111158,1,8,0:0:0:0:
372,256,111581,2,0,B|300:316|300:316|252:356|192:336,1,210,0|0,0:0|0:0,0:0:0:0:
128,252,112848,1,8,0:0:0:0:
174,157,113271,6,0,P|213:191|232:240,1,105,0|8,0:0|0:0,0:0:0:0:
276,144,114116,2,0,P|286:93|318:52,1,105,0|8,0:0|0:0,0:0:0:0:
266,44,114750,1,2,2:0:0:0:
216,60,114961,2,0,P|166:76|115:68,1,105,0|8,0:0|0:0,0:0:0:0:
16,36,115806,2,0,L|24:140,1,105,0|0,0:0|0:0,0:0:0:0:
48,188,116440,1,0,0:0:0:0:
76,232,116651,6,0,L|84:336,1,105,4|8,0:0|0:0,0:0:0:0:
180,380,117496,2,0,L|188:276,1,105,0|0,0:0|0:0,0:0:0:0:
212,228,118130,1,2,2:0:0:0:
240,184,118341,6,0,L|248:80,1,105,4|8,0:0|0:0,0:0:0:0:
336,20,119186,2,0,L|344:124,1,105,0|8,0:0|0:0,0:0:0:0:
372,168,119819,1,0,0:0:0:0:
396,216,120031,6,0,L|404:320,1,105,4|8,0:0|0:0,0:0:0:0:
304,292,120876,2,0,P|280:280|252:276,1,52.5,4|4,0:3|0:3,0:0:0:0:
204,276,121299,2,0,P|177:277|150:288,1,52.5,8|4,0:0|0:3,0:0:0:0:
432,148,123412,6,0,B|380:156|380:156|332:136,1,105,4|8,0:0|0:0,0:0:0:0:
236,92,124257,2,0,B|188:72|188:72|136:80,1,105,0|10,0:0|0:2,0:0:0:0:
84,92,124890,1,2,2:0:0:0:
32,104,125102,2,0,L|40:212,1,105,0|10,0:0|0:2,0:0:0:0:
20,312,125947,2,0,P|64:312|116:280,1,105,0|8,0:0|0:0,0:0:0:0:
144,240,126581,1,2,2:0:0:0:
172,196,126792,6,0,L|280:188,1,105,0|8,0:0|0:0,0:0:0:0:
232,284,127637,2,0,L|340:276,1,105,0|8,0:0|0:0,0:0:0:0:
388,272,128271,1,2,2:0:0:0:
436,252,128482,2,0,P|424:300|428:356,2,105,0|8|0,0:0|0:0|0:0,0:0:0:0:
472,152,129750,2,0,P|475:125|468:100,1,52.5,8|4,0:0|0:3,0:0:0:0:
440,56,130172,6,0,L|336:52,1,105,0|8,0:0|0:0,0:0:0:0:
232,80,131017,2,0,L|128:76,1,105,0|8,0:0|0:0,0:0:0:0:
80,100,131651,1,2,2:0:0:0:
36,128,131862,6,0,P|12:168|16:224,1,105,0|8,0:0|0:0,0:0:0:0:
92,296,132707,2,0,L|196:300,1,105,0|8,0:0|0:0,0:0:0:0:
244,276,133341,1,2,2:0:0:0:
287,248,133552,6,0,P|312:202|306:151,1,105,0|8,0:0|0:0,0:0:0:0:
225,85,134398,2,0,P|199:130|205:181,1,105,0|8,0:0|0:0,0:0:0:0:
306,151,135243,2,0,P|320:132|328:88,1,52.5,4|8,0:3|0:3,0:0:0:0:
320,52,135665,2,0,P|310:30|276:1,2,52.5,4|4|4,2:3|2:3|1:3,0:0:0:0:
424,76,136510,1,2,1:2:0:0:
416,128,136722,1,2,0:0:0:0:
412,180,136933,6,0,P|408:236|420:284,1,105,4|8,0:0|0:0,0:0:0:0:
340,352,137778,2,0,P|293:320|245:306,1,105,4|8,2:3|0:0,0:0:0:0:
196,308,138412,1,2,2:0:0:0:
144,316,138623,2,0,P|88:320|40:308,1,105,0|8,0:0|0:0,0:0:0:0:
104,220,139468,1,0,1:0:0:0:
68,124,139891,2,0,P|98:116|129:119,1,52.5,8|2,0:0|2:0,0:0:0:0:
168,136,140313,6,0,P|148:84|156:36,2,105,0|8|0,0:0|0:0|0:0,0:0:0:0:
256,76,141581,1,8,0:0:0:0:
301,105,141792,1,2,2:0:0:0:
344,136,142003,2,0,P|364:84|356:36,2,105,0|8|0,0:0|0:0|0:0,0:0:0:0:
296,228,143271,2,0,L|300:280,1,52.5,8|0,0:0|0:0,0:0:0:0:
304,332,143693,5,4,0:0:0:0:
200,356,144116,2,0,L|148:352,1,52.5,8|2,0:0|2:0,0:0:0:0:
112,252,144750,2,0,L|164:248,2,52.5,2|8|2,2:0|0:0|2:0,0:0:0:0:
132,148,145595,2,0,L|80:144,2,52.5,2|8|2,2:0|0:0|2:0,0:0:0:0:
116,44,146440,1,2,2:0:0:0:
164,64,146651,2,0,L|216:60,1,52.5,8|2,0:0|2:0,0:0:0:0:
268,68,147074,6,0,L|372:60,1,105,0|8,0:0|0:0,0:0:0:0:
476,48,147919,1,0,0:0:0:0:
436,144,148341,2,0,P|428:176|432:212,1,52.5,8|0,0:0|0:0,0:0:0:0:
436,248,148764,6,0,B|352:210|282:254|282:254|214:296|134:264,1,315,8|8,0:3|0:3,0:0:0:0:
256,192,150454,12,0,153834,0:0:0:0:
208,140,163975,6,0,P|256:122|304:140,1,105,6|8,0:0|0:0,0:0:0:0:
304,244,164820,2,0,P|255:261|207:243,1,105,0|8,0:0|0:0,0:0:0:0:
116,292,165665,2,0,P|255:354|395:292,1,315,0|8,0:0|0:0,0:0:0:0:
444,200,167355,6,0,B|452:148|452:148|444:96,1,105,2|8,0:0|0:0,0:0:0:0:
352,148,168200,2,0,L|248:152,1,105,0|8,0:0|0:0,0:0:0:0:
168,220,169045,2,0,P|112:220|184:80,1,315,2|8,0:0|0:0,0:0:0:0:
247,152,170736,6,0,P|272:200|268:252,1,105,2|8,0:0|0:0,0:0:0:0:
216,340,171581,2,0,P|316:340|364:216,1,210,0|2,0:0|0:0,0:0:0:0:
348,152,172848,1,8,0:0:0:0:
448,184,173271,2,0,P|473:232|469:284,1,105,2|10,0:0|0:0,0:0:0:0:
369,254,174116,6,0,B|262:267|262:267|169:227|169:227|63:240,2,315,0|8|0,0:0|0:0|0:0,0:0:0:0:
348,152,177074,1,0,0:0:0:0:
327,50,177496,1,4,0:0:0:0:
72,199,184257,6,0,P|72:300|152:363,1,210,0|0,0:0|0:0,0:0:0:0:
256,352,185524,1,0,2:0:0:0:
360,364,185947,2,0,P|439:301|440:199,1,210,0|0,0:0|0:0,0:0:0:0:
256,100,187637,5,0,0:0:0:0:
204,192,188060,1,0,0:0:0:0:
308,192,188482,1,0,0:0:0:0:
256,284,188905,1,8,0:0:0:0:
360,284,189327,2,0,P|400:160|256:100,1,315,0|2,0:0|1:2,0:0:0:0:
164,148,191017,6,0,P|112:152|64:132,1,105,4|8,0:0|0:0,0:0:0:0:
132,52,191862,1,0,0:0:0:0:
236,72,192285,2,0,L|288:68,1,52.5,8|2,0:0|2:0,0:0:0:0:
328,104,192707,2,0,P|324:52|344:4,1,105,0|8,0:0|0:0,0:0:0:0:
424,72,193552,1,0,0:0:0:0:
404,176,193975,2,0,L|408:228,1,52.5,8|2,0:0|2:0,0:0:0:0:
388,276,194398,6,0,P|440:272|488:292,2,105,0|8|0,0:0|0:0|0:0,0:0:0:0:
420,372,195665,1,8,0:0:0:0:
316,352,196088,2,0,P|300:336|288:308,1,52.5,0|2,0:0|2:0,0:0:0:0:
284,256,196510,2,0,P|287:233|303:207,1,52.5,8|2,0:0|2:0,0:0:0:0:
340,172,196933,2,0,P|288:176|240:156,1,105,0|8,1:0|0:0,0:0:0:0:
200,120,197567,1,0,0:0:0:0:
176,72,197778,5,4,0:0:0:0:
96,140,198200,2,0,L|100:196,1,52.5,8|2,0:0|2:0,0:0:0:0:
108,296,198834,2,0,P|84:296|56:288,2,52.5,2|8|2,2:0|0:0|2:0,0:0:0:0:
196,240,199679,1,2,2:0:0:0:
248,252,199891,2,0,P|268:264|289:284,1,52.5,0|2,0:0|2:0,0:0:0:0:
364,356,200524,1,2,2:0:0:0:
416,344,200736,2,0,P|436:332|457:311,1,52.5,8|2,0:0|2:0,0:0:0:0:
480,264,201158,6,0,L|484:156,1,105,0|8,0:0|0:0,0:0:0:0:
488,56,202003,1,0,0:0:0:0:
394,104,202426,2,0,B|370:116|370:116|342:120,1,52.5,8|0,0:0|0:0,0:0:0:0:
293,127,202848,6,0,P|301:259|181:205,1,315,8|0,0:3|0:0,0:0:0:0:
199,104,204538,6,0,B|147:112|147:112|99:92,1,105,4|10,1:0|0:2,0:0:0:0:
2,47,205383,1,2,1:2:0:0:
7,153,205805,2,0,L|11:205,1,52.5,10|0,1:2|2:0,0:0:0:0:
45,246,206228,6,0,P|133:250|181:206,1,157.5,2|2,0:2|2:0,0:0:0:0:
199,104,207284,1,2,2:0:0:0:
251,100,207495,2,0,P|279:108|303:122,1,52.5,10|2,0:2|2:0,0:0:0:0:
340,152,207919,6,0,B|394:169|440:140,1,105,0|10,0:0|0:2,0:0:0:0:
468,240,208764,1,2,0:2:0:0:
412,328,209186,2,0,L|360:326,1,52.5,2|0,0:2|2:0,0:0:0:0:
312,348,209609,6,0,L|208:344,1,105,2|0,0:2|0:0,0:0:0:0:
156,360,210243,2,0,P|172:308|168:256,1,105,2|8,2:0|0:3,0:0:0:0:
152,208,210876,2,0,P|140:183|120:166,1,52.5,2|2,0:2|2:0,0:0:0:0:
72,144,211299,5,0,0:0:0:0:
164,96,211722,1,10,0:2:0:0:
256,48,212144,1,2,0:2:0:0:
248,152,212567,2,0,P|260:177|280:194,1,52.5,2|2,0:2|2:0,0:0:0:0:
328,212,212989,6,0,L|320:372,1,157.5,2|2,0:2|2:0,0:0:0:0:
424,352,214045,1,2,2:0:0:0:
428,300,214257,2,0,L|432:221,1,52.5,10|2,0:2|2:0,0:0:0:0:
432,196,214679,5,0,0:0:0:0:
328,212,215102,1,2,0:2:0:0:
224,220,215524,2,0,P|172:224|124:204,1,105,2|10,0:2|0:2,0:0:0:0:
88,164,216158,1,2,2:0:0:0:
76,112,216369,6,0,P|72:60|92:12,1,105,2|10,0:2|0:2,0:0:0:0:
144,16,217003,2,0,L|248:20,1,105,2|8,2:0|0:3,0:0:0:0:
301,22,217637,1,10,0:2:0:0:
304,124,218060,6,0,L|200:120,1,105,4|0,1:0|0:0,0:0:0:0:
108,64,218905,1,2,0:0:0:0:
104,168,219327,1,0,0:0:0:0:
84,216,219538,1,2,0:0:0:0:
64,264,219750,2,0,L|168:260,1,105,2|0,0:0|0:0,0:0:0:0:
252,324,220595,2,0,L|356:320,1,105,2|0,0:0|0:0,0:0:0:0:
460,316,221440,5,2,0:0:0:0:
400,228,221862,1,0,0:0:0:0:
340,140,222285,2,0,P|296:112|244:112,1,105,2|0,0:0|0:0,0:0:0:0:
192,124,222919,1,2,0:0:0:0:
144,144,223130,5,2,0:0:0:0:
180,244,223552,1,2,0:0:0:0:
272,192,223975,1,2,0:0:0:0:
308,292,224398,1,0,0:0:0:0:
399,238,224820,6,0,P|408:184|392:128,1,105,2|0,0:0|0:0,0:0:0:0:
348,40,225665,2,0,L|244:36,1,105,2|2,0:0|0:0,0:0:0:0:
192,48,226299,1,2,0:0:0:0:
140,60,226510,2,0,L|36:56,1,105,2|0,0:0|0:0,0:0:0:0:
84,148,227355,2,0,L|8:218,1,105,2|2,0:0|0:0,0:0:0:0:
108,252,228200,6,0,L|104:356,2,105,2|0|2,0:0|0:0|0:0,0:0:0:0:
180,176,229468,2,0,P|208:172|232:176,1,52.5,0|2,0:0|0:0,0:0:0:0:
276,204,229890,5,2,0:0:0:0:
348,280,230313,1,2,0:0:0:0:
380,180,230736,1,2,0:0:0:0:
412,80,231158,1,2,0:0:0:0:
