osu file format v5

[General]
AudioFilename: 04 Youth Of The Nation.mp3
AudioLeadIn: 0
PreviewTime: -1
Countdown: 1
SampleSet: Normal
StackLeniency: 0.7
Mode: 0
LetterboxInBreaks: 1
EditorBookmarks: 22538,32643,41217,52087,62039,71532,91589,101235,111034,121445,130479,155894,169827

[Metadata]
Title:Youth Of The Nation
Artist:P.O.D.
Creator:thanthos
Version:
Source:
Tags:

[Difficulty]
HPDrainRate:5
CircleSize:5
OverallDifficulty:5
SliderMultiplier:1.4
SliderTickRate:1

[Events]
//Background and Video events
0,0,"stairwell-light-graffiti1.jpg"
//Break Periods
2,41111,50887
2,60860,70332
2,91023,100035
2,121032,129432
//Storyboard Layer 0 (Background)
//Storyboard Layer 1 (Failing)
//Storyboard Layer 2 (Passing)
//Storyboard Layer 3 (Foreground)
//Storyboard Sound Samples
//Background Colour Transformations
3,100,163,162,255

[TimingPoints]
22538.0684080511,612.432377258344,4,1,0,100,1,0
41217,612.432377258344,4,1,0,100,1,0
71532,612.432377258344,4,1,0,100,1,1
91589,612.432377258344,4,1,0,100,1,0
130478,612.432377258344,4,1,0,100,1,1
149769,612.432377258344,4,1,0,100,1,0

[HitObjects]
283,90,22538,2,0,B|427:168|471:313|215:390|174:344|60:234|157:162|169:171,1,560
164,170,27437,2,0,B|157:162|60:234|174:344|215:390|471:313|427:168|283:90,1,560
96,64,32643,5,0
224,64,33408,1,0
224,64,33561,1,0
352,64,34174,1,0
352,256,35246,5,0
192,256,36012,1,0
192,256,36164,1,0
192,256,36318,1,0
80,144,37236,5,0
208,144,37848,1,0
240,144,38001,1,0
416,144,39379,1,0
400,320,39992,1,0
368,320,40145,1,0
80,320,40911,1,0
64,64,52393,5,0
192,64,53159,1,0
192,64,53312,1,0
192,64,53465,1,0
448,64,54537,5,0
448,256,55609,1,0
448,256,55762,1,0
448,256,55915,1,0
176,320,57293,6,0,B|32:208|176:64,1,280
240,80,58977,1,0
319,80,59436,2,0,B|448:208|304:320,1,280
48,48,71532,5,0
96,48,71838,2,0,B|384:48,2,280
48,208,75206,1,0
48,208,75360,2,0,B|160:320|308:199,1,280
298,206,77350,2,0,B|160:320|48:208,3,280
96,48,81637,6,0,B|384:48,2,280
48,208,85005,1,0
48,208,85159,2,0,B|160:320|308:199,1,280
298,206,87149,2,0,B|160:320|48:208,3,280
64,64,101235,5,0
208,64,102000,1,0
208,64,102154,1,0
208,64,102307,1,0
416,64,103378,5,0
416,256,104450,1,0
416,256,104603,1,0
416,256,104756,1,0
128,256,106134,5,0
176,208,106441,1,0
224,160,106747,1,0
288,160,107053,1,0
336,208,107359,1,0
384,256,107666,1,0
352,224,108278,2,0,B|256:48|144:224,2,280
432,304,111646,6,0,B|336:304,1,70
363,255,112259,2,0,B|288:256,1,70
288,112,113177,2,0,B|192:112,4,70
144,288,115933,6,0,B|368:96,4,280
48,336,130479,5,0
96,336,130785,2,0,B|384:336,2,280
48,176,134153,1,0
48,176,134307,2,0,B|160:64|308:185,1,280
298,178,136297,2,0,B|160:64|48:176,3,280
96,336,140584,6,0,B|384:336,2,280
48,176,143952,1,0
48,176,144106,2,0,B|160:64|308:185,1,280
298,178,146096,2,0,B|160:64|48:176,3,280
32,112,150076,6,0,B|464:112,3,420
32,336,159875,6,0,B|464:336,3,420
256,192,166459,12,0,168449
