osu file format v12

[General]
AudioFilename: P!nk - Try.mp3
AudioLeadIn: 0
PreviewTime: 50440
Countdown: 0
SampleSet: Soft
StackLeniency: 0.7
Mode: 0
LetterboxInBreaks: 1
EpilepsyWarning: 1
WidescreenStoryboard: 0

[Editor]
DistanceSpacing: 1
BeatDivisor: 4
GridSize: 4

[Metadata]
Title:Try
TitleUnicode:Try
Artist:P!nk
ArtistUnicode:P!nk
Creator:- Melody
Version:Hard
Source:
Tags:Mystyk MystykAMV Foreverends Pink The Truth About Love Rock Alecia Beth Moore
BeatmapID:315835
BeatmapSetID:123736

[Difficulty]
HPDrainRate:6
CircleSize:4
OverallDifficulty:6
ApproachRate:7
SliderMultiplier:1.4
SliderTickRate:2

[Events]
//Background and Video events
0,0,"trybg.jpg",0,0
//Break Periods
2,6216,9155
2,10832,13770
2,139863,146751
//Storyboard Layer 0 (Background)
//Storyboard Layer 1 (Fail)
//Storyboard Layer 2 (Pass)
//Storyboard Layer 3 (Foreground)
//Storyboard Sound Samples
//Background Colour Transformations
3,100,0,0,0

[TimingPoints]
5440,576.923076923077,4,2,0,10,1,0
14670,-80,4,2,0,45,0,0
51593,-80,4,1,3,45,0,1
76978,-80,4,2,0,45,0,0
113901,-80,4,1,3,45,0,1
121690,-80,4,1,0,45,0,1
121834,-80,4,2,0,45,0,1
122411,-80,4,1,3,45,0,1
132363,-80,4,1,3,45,0,1
139286,-80,4,2,0,45,0,0
171593,-80,4,1,3,45,0,1
197555,-80,4,1,0,45,0,0
199286,-80,4,1,3,45,0,0
216016,-80,4,2,0,45,0,0
225247,-80,4,2,0,40,0,0
225536,-80,4,2,0,35,0,0
225824,-80,4,2,0,30,0,0
226113,-80,4,2,0,25,0,0
226401,-80,4,2,0,20,0,0
226690,-80,4,2,0,15,0,0
226978,-80,4,2,0,10,0,0
227266,-80,4,2,0,5,0,0

[Colours]
Combo1 : 61,100,143
Combo2 : 234,140,130
Combo3 : 130,211,242
Combo4 : 139,52,52

[HitObjects]
183,38,5439,5,2,0:0:0:0:
100,117,5728,1,0,0:0:0:0:
152,216,6016,1,2,0:0:0:0:
309,354,10055,5,2,0:0:0:0:
392,276,10344,1,0,0:0:0:0:
340,177,10632,1,2,0:0:0:0:
139,65,14670,5,2,0:0:0:0:
124,152,14959,1,0,0:0:0:0:
204,124,15247,1,2,0:0:0:0:
88,248,15824,2,0,P|104:301|141:324,1,87.5,2|0,0:0|0:0,0:0:0:0:
212,340,16401,1,2,0:0:0:0:
388,340,16978,6,0,P|419:310|428:268,1,87.5,2|0,0:0|0:0,0:0:0:0:
412,184,17555,1,2,0:0:0:0:
236,192,18132,2,0,P|196:196|140:184,2,87.5,2|0|2,0:0|0:0|0:0,0:0:0:0:
324,180,18997,1,2,0:0:0:0:
376,112,19286,6,0,P|332:96|284:104,1,87.5,2|0,0:0|0:0,0:0:0:0:
216,140,19863,1,2,0:0:0:0:
276,276,20440,2,0,L|200:320,1,87.5,2|0,0:0|0:0,0:0:0:0:
120,352,21016,1,2,0:0:0:0:
276,276,21593,6,0,L|200:224,1,87.5,2|0,0:0|0:0,0:0:0:0:
132,176,22170,1,2,0:0:0:0:
100,4,22747,1,0,0:0:0:0:
32,104,23036,1,2,0:0:0:0:
32,116,23324,1,2,0:0:0:0:
32,128,23613,1,0,0:0:0:0:
112,168,23901,6,0,P|121:127|163:94,1,87.5,0|2,0:0|0:0,0:0:0:0:
236,72,24478,1,0,0:0:0:0:
324,88,24766,2,0,P|308:128|268:156,1,87.5,2|0,0:0|0:0,0:0:0:0:
204,208,25343,1,2,0:0:0:0:
116,220,25632,2,0,P|73:214|34:233,1,87.5,0|2,0:0|0:0,0:0:0:0:
88,300,26209,2,0,P|131:306|170:287,1,87.5,0|2,0:0|0:0,0:0:0:0:
204,208,26786,1,0,0:0:0:0:
276,256,27074,1,2,0:0:0:0:
328,328,27363,1,0,0:0:0:0:
396,272,27651,2,0,P|440:260|485:280,2,87.5,2|2|0,0:0|0:0|0:0,0:0:0:0:
247,346,28516,6,0,P|214:324|193:265,1,87.5,2|0,0:0|0:0,0:0:0:0:
280,268,29093,2,0,P|266:220|291:168,1,87.5,2|0,0:0|0:0,0:0:0:0:
320,108,29670,1,2,0:0:0:0:
320,108,29959,1,0,0:0:0:0:
232,112,30247,2,0,P|188:120|140:112,1,87.5,2|0,0:0|0:0,0:0:0:0:
92,44,30824,5,0,0:0:0:0:
48,120,31113,2,0,P|32:168|40:216,1,87.5,0|2,0:0|0:0,0:0:0:0:
52,300,31690,1,0,0:0:0:0:
52,300,31978,6,0,B|100:300|132:268|132:268|168:300|212:300,1,175,0|2,0:0|0:0,0:0:0:0:
292,332,32843,1,2,0:0:0:0:
380,328,33132,1,0,0:0:0:0:
380,328,33420,2,0,P|368:282|326:251,1,87.5,0|2,0:0|0:0,0:0:0:0:
256,224,33997,1,0,0:0:0:0:
320,164,34286,2,0,P|237:138|173:193,1,175,2|2,0:0|0:0,0:0:0:0:
124,272,35151,1,0,0:0:0:0:
40,248,35440,6,0,P|60:332|140:356,1,175,2|2,0:0|0:0,0:0:0:0:
224,348,36305,1,0,0:0:0:0:
224,348,36593,2,0,P|271:325|308:334,1,87.5
372,264,37170,2,0,P|328:256|296:224,1,87.5,2|0,0:0|0:0,0:0:0:0:
220,184,37747,6,0,P|252:152|304:144,1,87.5
380,156,38324,1,2,0:0:0:0:
436,88,38613,1,0,0:0:0:0:
352,72,38901,2,0,P|328:36|276:24,1,87.5
272,108,39478,1,2,0:0:0:0:
204,52,39766,1,0,0:0:0:0:
136,108,40055,2,0,P|126:149|144:192,1,87.5,0|0,0:0|0:0,0:0:0:0:
72,240,40632,2,0,P|102:269|148:275,1,87.5,2|0,0:0|0:0,0:0:0:0:
232,288,41209,1,0,0:0:0:0:
384,340,41497,5,2,0:0:0:0:
385,328,41786,1,2,0:0:0:0:
387,316,42074,1,0,0:0:0:0:
388,224,42363,6,0,P|368:180|312:156,1,87.5,2|0,0:0|0:0,0:0:0:0:
296,240,42940,1,0,0:0:0:0:
296,240,43228,1,0,0:0:0:0:
224,188,43516,6,0,P|205:229|213:278,1,87.5,2|0,0:0|0:0,0:0:0:0:
168,124,44093,2,0,P|124:116|68:132,1,87.5,2|0,0:0|0:0,0:0:0:0:
244,88,44670,2,0,P|252:44|236:-12,1,87.5,2|0,0:0|0:0,0:0:0:0:
300,148,45247,2,0,P|344:156|400:140,1,87.5,2|0,0:0|0:0,0:0:0:0:
468,120,45824,1,2,0:0:0:0:
468,120,46113,1,2,0:0:0:0:
472,208,46401,1,2,0:0:0:0:
408,268,46690,1,0,0:0:0:0:
332,308,46978,6,0,P|292:320|244:300,2,87.5,2|0|2,0:0|0:0|0:0,0:0:0:0:
292,236,47843,1,0,0:0:0:0:
292,236,48132,2,0,P|251:221|210:233,1,87.5,2|0,0:0|0:0,0:0:0:0:
136,184,48709,1,2,0:0:0:0:
55,149,48997,1,2,0:0:0:0:
55,149,49286,5,2,0:0:0:0:
63,62,49574,1,0,0:0:0:0:
148,42,49863,1,2,0:0:0:0:
193,117,50151,1,0,0:0:0:0:
136,184,50440,5,2,0:0:0:0:
280,96,50728,1,2,0:0:0:0:
256,340,51016,1,8,0:3:0:0:
396,232,51305,1,4,0:3:0:0:
396,232,51593,6,0,P|308:232|235:177,1,175,4|8,0:0|0:0,0:0:0:0:
183,113,52459,1,0,0:0:0:0:
204,28,52747,2,0,P|160:28|112:60,1,87.5
183,113,53324,2,0,P|227:113|279:73,1,87.5,8|0,0:0|0:0,0:0:0:0:
296,12,53901,6,0,B|326:26|344:50|349:79|349:79|380:102|434:82,1,175,4|8,0:0|0:0,0:0:0:0:
244,260,55055,1,0,0:0:0:0:
159,286,55343,1,0,0:0:0:0:
191,368,55632,1,8,0:0:0:0:
270,340,55920,1,0,0:0:0:0:
244,260,56209,6,0,P|256:184|200:96,1,175,4|8,0:0|0:0,0:0:0:0:
143,43,57074,1,0,0:0:0:0:
64,80,57363,1,0,0:0:0:0:
32,164,57651,1,0,0:0:0:0:
32,164,57940,2,0,P|48:208|88:236,1,87.5,8|0,0:0|0:0,0:0:0:0:
124,156,58516,6,0,P|164:240|128:308,1,175,0|8,0:0|0:0,0:0:0:0:
316,148,59670,1,0,0:0:0:0:
280,220,59959,1,0,0:0:0:0:
356,264,60247,1,8,0:0:0:0:
396,188,60536,1,0,0:0:0:0:
316,148,60824,6,0,P|232:156|200:240,1,175,4|8,0:0|0:0,0:0:0:0:
172,320,61690,1,0,0:0:0:0:
252,352,61978,2,0,P|296:352|352:332,1,87.5
412,296,62555,1,8,0:0:0:0:
449,216,62843,1,0,0:0:0:0:
392,152,63132,2,0,P|360:220|412:296,1,175,4|8,0:0|0:0,0:0:0:0:
448,216,63997,1,0,0:0:0:0:
316,112,64286,5,0,0:0:0:0:
316,112,64574,1,0,0:0:0:0:
255,179,64863,2,0,P|294:197|337:200,1,87.5,8|0,0:0|0:0,0:0:0:0:
400,136,65440,1,0,0:0:0:0:
316,112,65728,1,0,0:0:0:0:
316,112,66016,6,0,P|236:96|168:160,1,175,12|0,0:0|0:0,0:0:0:0:
168,244,66882,1,4,0:0:0:0:
196,328,67170,1,8,0:0:0:0:
284,336,67459,1,0,0:0:0:0:
256,256,67747,2,0,P|236:176|280:88,1,175,4|8,0:0|0:0,0:0:0:0:
351,54,68613,1,0,0:0:0:0:
389,132,68901,5,0,0:0:0:0:
410,216,69190,1,0,0:0:0:0:
325,193,69478,1,8,0:0:0:0:
325,193,69622,1,0,0:0:0:0:
325,193,69766,1,0,0:0:0:0:
236,192,70055,5,4,0:0:0:0:
156,152,70343,1,0,0:0:0:0:
236,192,70632,2,0,P|208:225|202:268,1,87.5,8|0,0:0|0:0,0:0:0:0:
292,260,71209,1,0,0:0:0:0:
366,214,71497,2,0,P|380:256|369:301,1,87.5,0|8,0:0|0:0,0:0:0:0:
292,348,72074,1,0,0:0:0:0:
200,332,72363,2,0,P|157:283|186:180,1,175,4|8,0:0|0:0,0:0:0:0:
336,100,73516,5,0,0:0:0:0:
336,100,73805,1,0,0:0:0:0:
420,116,74093,2,0,P|404:156|359:185,1,87.5,8|0,0:0|0:0,0:0:0:0:
295,228,74670,1,4,0:0:0:0:
208,216,74959,1,0,0:0:0:0:
130,255,75247,2,0,P|131:171|202:127,1,175,8|0,0:0|0:0,0:0:0:0:
292,128,76113,2,0,P|368:227|306:361,1,262.5,12|2,0:0|0:0,0:0:0:0:
240,332,77266,5,0,0:0:0:0:
160,296,77555,1,2,0:0:0:0:
128,216,77843,1,0,0:0:0:0:
152,128,78132,1,0,0:0:0:0:
236,100,78420,1,0,0:0:0:0:
236,100,78709,2,0,P|279:93|344:120,1,87.5,2|0,0:0|0:0,0:0:0:0:
394,150,79286,5,0,0:0:0:0:
478,172,79574,2,0,P|458:212|399:233,1,87.5,0|2,0:0|0:0,0:0:0:0:
341,266,80151,1,0,0:0:0:0:
261,228,80440,2,0,P|249:172|261:136,1,87.5
257,144,81016,1,2,0:0:0:0:
336,112,81305,1,2,0:0:0:0:
336,112,81593,6,0,P|311:77|267:59,1,87.5
192,93,82170,2,0,P|217:127|257:144,1,87.5,2|0,0:0|0:0,0:0:0:0:
328,192,82747,1,0,0:0:0:0:
383,259,83036,1,0,0:0:0:0:
348,340,83324,1,2,0:0:0:0:
348,340,83613,2,0,P|411:343|468:243,1,175
418,184,84478,2,0,P|390:215|382:258,1,87.5,2|0,0:0|0:0,0:0:0:0:
499,147,85055,1,0,0:0:0:0:
424,100,85343,5,2,0:0:0:0:
416,108,85632,1,2,0:0:0:0:
408,116,85920,1,0,0:0:0:0:
332,164,86209,6,0,P|288:164|253:127,1,87.5,0|2,0:0|0:0,0:0:0:0:
364,248,86786,2,0,P|324:272|284:272,1,87.5,0|2,0:0|0:0,0:0:0:0:
200,288,87363,1,0,0:0:0:0:
148,220,87651,1,2,0:0:0:0:
144,132,87940,2,0,P|168:88|216:64,1,87.5,0|2,0:0|0:0,0:0:0:0:
284,60,88516,5,0,0:0:0:0:
340,128,88805,2,0,P|356:168|352:220,1,87.5,0|2,0:0|0:0,0:0:0:0:
336,296,89382,1,0,0:0:0:0:
248,292,89670,1,2,0:0:0:0:
172,248,89959,1,0,0:0:0:0:
136,168,90247,6,0,P|156:132|208:104,1,87.5,2|2,0:0|0:0,0:0:0:0:
280,100,90824,1,0,0:0:0:0:
352,152,91113,1,0,0:0:0:0:
376,236,91401,1,2,0:0:0:0:
376,236,91690,1,0,0:0:0:0:
328,308,91978,6,0,P|293:321|241:317,1,87.5
160,296,92555,2,0,P|120:260|136:136,1,175,2|0,0:0|0:0,0:0:0:0:
180,80,93420,1,0,0:0:0:0:
248,136,93709,2,0,P|293:167|342:171,1,87.5,2|0,0:0|0:0,0:0:0:0:
412,172,94286,1,0,0:0:0:0:
492,136,94574,5,2,0:0:0:0:
484,126,94863,1,2,0:0:0:0:
477,116,95151,1,0,0:0:0:0:
470,106,95440,1,0,0:0:0:0:
404,52,95728,6,0,P|356:56|312:88,1,87.5,0|2,0:0|0:0,0:0:0:0:
348,160,96305,2,0,P|319:201|277:223,1,87.5,0|2,0:0|0:0,0:0:0:0:
260,136,96882,1,0,0:0:0:0:
204,68,97170,6,0,P|176:117|176:162,1,87.5,0|0,0:0|0:0,0:0:0:0:
88,144,97747,2,0,P|100:184|128:220,1,87.5
216,208,98324,1,2,0:0:0:0:
216,208,98613,1,0,0:0:0:0:
260,284,98901,2,0,P|308:304|349:294,1,87.5,2|0,0:0|0:0,0:0:0:0:
216,208,99478,2,0,P|180:236|172:292,1,87.5,0|2,0:0|0:0,0:0:0:0:
260,284,100055,6,0,P|308:304|349:294,1,87.5,2|0,0:0|0:0,0:0:0:0:
404,360,100632,2,0,P|428:312|424:272,1,87.5,2|0,0:0|0:0,0:0:0:0:
404,196,101209,1,2,0:0:0:0:
404,196,101497,1,0,0:0:0:0:
413,108,101786,2,0,P|481:157|480:249,1,175,2|0,0:0|0:0,0:0:0:0:
412,292,102651,1,2,0:0:0:0:
404,196,102940,2,0,P|356:192|312:152,1,87.5,0|2,0:0|0:0,0:0:0:0:
316,84,103516,1,0,0:0:0:0:
244,124,103805,5,2,0:0:0:0:
236,136,104094,1,2,0:0:0:0:
228,148,104382,1,0,0:0:0:0:
188,220,104670,6,0,L|152:304,2,87.5,2|0|2,0:0|0:0|0:0,0:0:0:0:
132,152,105536,2,0,L|92:240,1,87.5,0|2,0:0|0:0,0:0:0:0:
40,164,106113,2,0,L|76:80,1,87.5,0|2,0:0|0:0,0:0:0:0:
140,28,106690,1,2,0:0:0:0:
200,96,106978,6,0,P|192:144|220:192,1,87.5,2|0,0:0|0:0,0:0:0:0:
360,116,107555,2,0,P|332:84|276:72,1,87.5,2|0,0:0|0:0,0:0:0:0:
267,241,108132,2,0,P|288:208|289:158,1,87.5,2|0,0:0|0:0,0:0:0:0:
360,116,108709,2,0,P|418:100|457:105,1,87.5,2|2,0:0|0:0,0:0:0:0:
480,184,109286,5,2,0:0:0:0:
468,272,109574,1,0,0:0:0:0:
404,332,109863,1,2,0:0:0:0:
320,352,110151,1,0,0:0:0:0:
320,352,110440,2,0,P|298:314|292:272,1,87.5,2|0,0:0|0:0,0:0:0:0:
204,236,111016,6,0,P|152:196|312:144,1,350,2|2,0:0|0:0,0:0:0:0:
291,212,112459,1,2,0:0:0:0:
77,253,112747,5,8,0:3:0:0:
225,86,113036,1,4,0:3:0:0:
199,311,113324,1,2,0:0:0:0:
90,128,113613,1,0,0:0:0:0:
380,168,113901,6,0,P|429:189|437:301,1,175,4|8,0:0|0:0,0:0:0:0:
364,252,114766,1,0,0:0:0:0:
292,300,115055,2,0,L|192:336,1,87.5
124,344,115632,1,8,0:0:0:0:
72,272,115920,1,0,0:0:0:0:
60,184,116209,2,0,P|52:100|120:36,1,175,4|8,0:0|0:0,0:0:0:0:
380,108,117363,6,0,L|352:296,1,175,0|8,0:0|0:0,0:0:0:0:
432,316,118228,1,0,0:0:0:0:
432,316,118516,2,0,P|352:364|280:324,1,175,4|8,0:0|0:0,0:0:0:0:
232,260,119382,1,0,0:0:0:0:
232,260,119670,6,0,P|229:209|249:170,1,87.5
280,96,120247,1,8,0:0:0:0:
220,32,120536,1,0,0:0:0:0:
132,36,120824,2,0,P|64:88|56:184,1,175,4|8,0:0|0:0,0:0:0:0:
80,260,121690,1,0,0:0:0:0:
136,328,121979,5,2,0:0:0:0:
143,318,122267,1,2,0:0:0:0:
150,308,122556,1,8,0:0:0:0:
156,300,122843,1,4,0:3:0:0:
240,280,123132,6,0,P|321:274|364:192,1,175,4|8,0:0|0:0,0:0:0:0:
372,116,123997,1,0,0:0:0:0:
372,116,124286,2,0,P|336:84|284:76,1,87.5
304,164,124863,2,0,L|360:244,1,87.5,8|0,0:0|0:0,0:0:0:0:
440,232,125440,2,0,P|404:304|312:312,1,175,4|8,0:0|0:0,0:0:0:0:
232,288,126305,1,0,0:0:0:0:
144,292,126593,5,0,0:0:0:0:
84,228,126882,1,0,0:0:0:0:
84,140,127170,1,8,0:0:0:0:
84,140,127459,2,0,P|171:141|190:148,1,87.5,0|4,0:0|0:0,0:0:0:0:
244,188,128036,1,0,0:0:0:0:
244,188,128324,6,0,P|330:217|399:131,1,175,8|0,0:0|0:0,0:0:0:0:
311,129,129190,2,0,P|271:105|217:105,1,87.5,0|8,0:0|0:0,0:0:0:0:
145,82,129766,1,0,0:0:0:0:
59,63,130055,2,0,P|58:103|88:149,1,87.5,4|0,0:0|0:0,0:0:0:0:
129,216,130632,1,8,0:0:0:0:
280,308,131209,6,0,P|327:277|346:240,1,87.5
368,168,131786,1,8,0:0:0:0:
368,168,131930,1,0,0:0:0:0:
368,168,132074,1,0,0:0:0:0:
344,84,132363,5,4,0:0:0:0:
256,76,132651,1,0,0:0:0:0:
180,124,132940,2,0,P|184:212|257:253,1,175,8|0,0:0|0:0,0:0:0:0:
258,165,133805,2,0,P|334:213|332:292,1,175,0|0,0:0|0:0,0:0:0:0:
393,353,134670,6,0,P|421:288|410:183,1,175,4|8,0:0|0:0,0:0:0:0:
383,106,135536,1,0,0:0:0:0:
383,106,135824,2,0,P|322:114|292:100,1,87.5,0|0,0:0|0:0,0:0:0:0:
216,72,136401,1,8,0:0:0:0:
164,144,136690,1,0,0:0:0:0:
188,227,136978,5,4,0:0:0:0:
272,248,137266,1,0,0:0:0:0:
288,331,137555,2,0,P|207:308|188:227,1,175,8|0,0:0|0:0,0:0:0:0:
192,140,138420,2,0,B|212:100|264:101|264:101|301:53|332:102|332:102|396:100|408:140,1,262.5,12|2,0:0|0:0,0:0:0:0:
96,76,147651,5,2,0:0:0:0:
104,84,147940,1,2,0:0:0:0:
112,92,148228,1,0,0:0:0:0:
96,176,148516,6,0,P|131:204|182:205,1,87.5,0|2,0:0|0:0,0:0:0:0:
244,260,149093,2,0,P|260:212|256:176,1,87.5,0|2,0:0|0:0,0:0:0:0:
240,92,149670,2,0,P|290:69|413:100,1,175
452,168,150536,1,2,0:0:0:0:
444,256,150824,6,0,P|421:291|353:307,1,87.5,0|2,0:0|0:0,0:0:0:0:
368,224,151401,1,0,0:0:0:0:
368,224,151690,1,2,0:0:0:0:
338,141,151978,2,0,P|286:129|247:141,1,87.5,0|2,0:0|0:0,0:0:0:0:
180,180,152555,2,0,L|112:240,1,87.5,2|0,0:0|0:0,0:0:0:0:
60,304,153132,5,2,0:0:0:0:
60,304,153420,1,0,0:0:0:0:
140,336,153709,1,2,0:0:0:0:
140,336,153997,1,0,0:0:0:0:
228,332,154286,2,0,P|248:288|240:240,1,87.5,2|0,0:0|0:0,0:0:0:0:
220,168,154863,1,2,0:0:0:0:
152,224,155151,1,0,0:0:0:0:
152,224,155440,2,0,P|136:182|144:138,1,87.5
208,80,156016,2,0,P|164:52|116:56,1,87.5,2|0,0:0|0:0,0:0:0:0:
130,52,156593,1,0,0:0:0:0:
56,124,156882,5,2,0:0:0:0:
64,132,157170,1,2,0:0:0:0:
72,140,157459,1,0,0:0:0:0:
76,228,157747,6,0,P|120:256|172:264,1,87.5,2|0,0:0|0:0,0:0:0:0:
240,264,158324,2,0,P|277:233|280:188,1,87.5,2|0,0:0|0:0,0:0:0:0:
197,187,158901,2,0,P|205:145|240:120,1,87.5,2|0,0:0|0:0,0:0:0:0:
324,104,159478,1,0,0:0:0:0:
356,24,159766,1,2,0:0:0:0:
269,38,160055,1,0,0:0:0:0:
324,104,160343,5,2,0:0:0:0:
392,160,160632,2,0,P|418:206|400:255,1,87.5,0|2,0:0|0:0,0:0:0:0:
352,300,161209,2,0,P|326:254|344:205,1,87.5,0|2,0:0|0:0,0:0:0:0:
252,228,161786,2,0,P|257:178|236:136,1,87.5,2|0,0:0|0:0,0:0:0:0:
180,84,162363,1,0,0:0:0:0:
106,41,162651,1,2,0:0:0:0:
55,112,162940,1,0,0:0:0:0:
129,159,163228,1,2,0:0:0:0:
80,284,163516,5,2,0:0:0:0:
80,284,163805,1,0,0:0:0:0:
128,360,164093,2,0,P|160:328|168:284,1,87.5,2|0,0:0|0:0,0:0:0:0:
168,204,164670,1,0,0:0:0:0:
168,204,164959,1,2,0:0:0:0:
252,184,165247,2,0,B|287:161|287:161|339:160,1,87.5,0|2,0:0|0:0,0:0:0:0:
396,220,165824,2,0,B|361:243|361:243|309:244,1,87.5,0|2,0:0|0:0,0:0:0:0:
428,148,166401,5,2,0:0:0:0:
428,148,166690,1,0,0:0:0:0:
376,80,166978,1,2,0:0:0:0:
312,140,167266,1,0,0:0:0:0:
292,56,167555,1,2,0:0:0:0:
208,72,167843,1,0,0:0:0:0:
120,76,168132,1,2,0:0:0:0:
120,76,168420,1,0,0:0:0:0:
100,160,168709,6,0,L|72:260,1,87.5,0|0,1:0|0:0,0:0:0:0:
160,216,169286,2,0,L|176:304,1,87.5,0|0,1:0|0:0,0:0:0:0:
244,224,169863,2,0,L|316:284,1,87.5,0|0,1:0|0:0,0:0:0:0:
412,368,170440,1,2,0:0:0:0:
452,144,170728,1,2,0:0:0:0:
476,276,171016,1,2,0:0:0:0:
360,92,171305,1,2,0:0:0:0:
360,92,171593,6,8,P|301:62|181:87,1,175,4|8,0:0|0:0,0:0:0:0:
120,120,172459,1,0,0:0:0:0:
40,152,172747,2,0,P|68:188|116:204,1,87.5,0|0,0:0|0:0,0:0:0:0:
188,172,173324,2,0,P|191:220|172:260,1,87.5,8|0,0:0|0:0,0:0:0:0:
95,291,173901,2,0,P|145:338|248:305,1,175,4|8,0:0|0:0,0:0:0:0:
312,264,174766,5,0,0:0:0:0:
388,220,175055,1,0,0:0:0:0:
476,220,175343,1,0,0:0:0:0:
436,144,175632,1,8,0:0:0:0:
436,144,175920,1,0,0:0:0:0:
349,141,176209,6,0,P|313:91|201:68,1,175,4|8,0:0|0:0,0:0:0:0:
120,88,177074,1,0,0:0:0:0:
72,160,177363,2,0,P|110:210|142:225,1,87.5
212,256,177940,1,8,0:0:0:0:
212,256,178516,6,0,B|284:236|284:352|359:341,1,175,4|8,0:0|0:0,0:0:0:0:
444,340,179382,5,0,0:0:0:0:
460,256,179670,1,0,0:0:0:0:
444,168,179959,1,0,0:0:0:0:
392,96,180247,1,8,0:0:0:0:
316,52,180536,1,0,0:0:0:0:
316,52,180824,6,0,B|240:40|240:144|149:121,1,175,4|8,0:0|0:0,0:0:0:0:
84,156,181690,1,0,0:0:0:0:
48,236,181978,2,0,P|102:259|145:255,1,87.5
216,244,182555,1,8,0:0:0:0:
280,184,182843,1,0,0:0:0:0:
352,233,183132,2,0,P|368:185|358:138,1,87.5,4|0,0:0|0:0,0:0:0:0:
344,64,183709,1,8,0:0:0:0:
344,64,183997,5,0,0:0:0:0:
432,52,184286,2,0,P|472:98|475:145,1,87.5
484,208,184863,1,8,0:0:0:0:
480,296,185151,2,0,P|466:337|435:366,1,87.5,0|0,0:0|0:0,0:0:0:0:
348,360,185728,1,0,0:0:0:0:
260,352,186016,2,0,P|232:302|315:228,1,175,12|0,0:0|0:0,0:0:0:0:
372,280,186882,2,0,P|392:236|383:190,1,87.5,0|8,0:0|0:0,0:0:0:0:
364,112,187459,1,0,0:0:0:0:
288,68,187747,6,0,P|252:48|184:56,1,87.5,4|0,0:0|0:0,0:0:0:0:
120,64,188324,1,8,0:0:0:0:
24,216,188901,1,0,0:0:0:0:
24,216,189190,1,0,0:0:0:0:
84,308,189478,5,0,0:0:0:0:
84,308,189622,1,0,0:0:0:0:
84,308,189766,1,0,0:0:0:0:
200,348,190055,5,4,0:0:0:0:
300,304,190343,1,0,0:0:0:0:
300,304,190632,2,0,P|340:240|316:144,1,175,8|0,0:0|0:0,0:0:0:0:
237,126,191497,2,0,P|236:169|256:208,1,87.5,0|8,0:0|0:0,0:0:0:0:
300,64,192074,1,0,0:0:0:0:
216,44,192363,2,0,P|157:42|86:143,1,175,4|8,0:0|0:0,0:0:0:0:
92,212,193228,1,0,0:0:0:0:
176,236,193516,2,0,P|221:207|238:169,1,87.5,4|0,0:0|0:0,0:0:0:0:
308,128,194093,1,8,0:0:0:0:
308,128,194382,6,0,P|370:148|392:174,1,87.5
436,232,194959,1,0,0:0:0:0:
416,316,195247,2,0,P|371:340|327:346,1,87.5,12|0,0:0|0:0,0:0:0:0:
248,348,195824,1,0,0:0:0:0:
180,292,196113,6,0,B|160:248|180:208|180:208|200:168|176:108,1,175,4|0,0:0|0:0,0:0:0:0:
272,80,196978,2,0,B|252:124|272:164|272:164|292:204|273:249,1,175,4|0,0:0|0:0,0:0:0:0:
404,136,198132,5,0,0:0:0:0:
444,216,198420,1,0,0:0:0:0:
392,284,198709,1,0,0:0:0:0:
392,284,198997,1,0,0:0:0:0:
316,328,199286,5,4,0:0:0:0:
228,328,199574,1,0,0:0:0:0:
136,308,199863,2,0,P|180:244|272:252,1,175,8|0,0:0|0:0,0:0:0:0:
316,328,200728,2,0,P|348:296|356:240,1,87.5,0|8,0:0|0:0,0:0:0:0:
348,148,201305,1,0,0:0:0:0:
272,72,201593,2,0,P|225:48|127:112,1,175,4|8,0:0|0:0,0:0:0:0:
80,272,202747,6,0,P|136:323|159:327,1,87.5
212,268,203324,1,8,0:0:0:0:
272,332,203613,2,0,P|318:321|360:292,1,87.5,4|0,0:0|0:0,0:0:0:0:
400,228,204190,1,0,0:0:0:0:
400,228,204478,2,0,P|376:152|288:140,1,175,8|0,0:0|0:0,0:0:0:0:
312,224,205343,2,0,P|264:224|216:200,1,87.5,4|8,0:0|0:0,0:0:0:0:
160,152,205920,1,0,0:0:0:0:
100,88,206209,6,0,P|51:120|74:228,1,175,0|8,0:0|0:0,0:0:0:0:
132,284,207074,1,0,0:0:0:0:
220,328,207363,1,0,0:0:0:0:
320,328,207651,1,0,0:0:0:0:
392,264,207940,1,8,0:0:0:0:
392,264,208084,1,0,0:0:0:0:
392,264,208228,1,0,0:0:0:0:
384,164,208516,5,4,0:0:0:0:
346,65,208805,1,0,0:0:0:0:
346,65,209093,2,0,P|280:72|208:152,1,175,12|0,0:0|0:0,0:0:0:0:
288,184,209959,2,0,P|260:220|200:232,1,87.5,0|8,0:0|0:0,0:0:0:0:
180,312,210536,1,0,0:0:0:0:
100,281,210824,2,0,P|93:235|56:201,1,87.5,4|0,0:0|0:0,0:0:0:0:
60,120,211401,1,8,0:0:0:0:
128,64,211690,1,0,0:0:0:0:
216,64,211978,6,0,L|299:106,1,87.5
376,136,212555,1,8,0:0:0:0:
392,220,212843,2,0,L|355:308,1,87.5,4|0,0:0|0:0,0:0:0:0:
284,344,213420,1,0,0:0:0:0:
284,344,213709,2,0,B|285:291|250:265|250:265|285:239|284:191,1,175,12|0,0:0|0:0,0:0:0:0:
196,196,214574,2,0,B|195:143|230:117|230:117|195:91|196:43,1,175,8|0,0:0|0:0,0:0:0:0:
283,47,215440,1,4,0:0:0:0:
96,78,216016,5,2,0:0:0:0:
68,160,216305,1,0,0:0:0:0:
100,240,216593,1,2,0:0:0:0:
164,300,216882,2,0,L|215:310,2,43.75,2|0|2,0:0|0:0|0:0,0:0:0:0:
100,240,217459,1,2,0:0:0:0:
172,192,217747,1,0,0:0:0:0:
172,192,218036,6,0,P|216:237|250:243,1,87.5,0|2,0:0|0:0,0:0:0:0:
324,244,218613,1,0,0:0:0:0:
408,272,218901,1,2,0:0:0:0:
396,184,219190,2,0,L|444:184,2,43.75,2|0|2,0:0|0:0|0:0,0:0:0:0:
316,152,219766,2,0,P|343:118|391:102,1,87.5,2|0,0:0|0:0,0:0:0:0:
452,48,220343,1,0,0:0:0:0:
368,20,220632,6,0,P|306:16|268:36,1,87.5,2|0,0:0|0:0,0:0:0:0:
228,92,221209,2,0,P|198:127|140:152,1,87.5
76,164,221786,2,0,P|93:203|144:228,1,87.5,2|0,0:0|0:0,0:0:0:0:
212,248,222363,1,0,0:0:0:0:
248,328,222651,1,0,0:0:0:0:
328,292,222940,5,2,0:0:0:0:
296,212,223228,1,0,0:0:0:0:
384,212,223516,2,0,P|369:163|339:138,1,87.5
300,64,224093,1,2,0:0:0:0:
300,64,224382,2,0,P|262:105|255:144,1,87.5,2|0,0:0|0:0,0:0:0:0:
256,192,224959,12,2,227555,0:0:0:0:
