osu file format v9

[General]
AudioFilename: raiseyourglass.mp3
AudioLeadIn: 0
PreviewTime: 6336
Countdown: 0
SampleSet: Normal
StackLeniency: 0.7
Mode: 0
LetterboxInBreaks: 1

[Editor]
DistanceSpacing: 0.8
BeatDivisor: 4
GridSize: 8

[Metadata]
Title:Raise Your Glass
Artist:P!nk
Creator:misja056
Version:Just To Raise It
Source:
Tags:

[Difficulty]
HPDrainRate:1
CircleSize:3
OverallDifficulty:1
ApproachRate:2
SliderMultiplier:1.69
SliderTickRate:0.5

[Events]
//Background and Video events
0,0,"pink-raise-your-glass.jpg"
//Break Periods
2,110798,115924
//Storyboard Layer 0 (Background)
//Storyboard Layer 1 (Fail)
//Storyboard Layer 2 (Pass)
//Storyboard Layer 3 (Foreground)
//Storyboard Sound Samples
//Background Colour Transformations
3,100,163,162,255

[TimingPoints]
435,491.803278688525,4,2,0,100,1,0
16172,-100,4,1,0,60,0,0
16787,-100,4,2,0,100,0,0
17894,-100,4,2,0,100,0,0
36336,-100,4,2,0,70,0,0
37074,-100,4,2,0,40,0,0
37935,-100,4,2,0,10,0,0
39041,-100,4,1,0,100,0,1
55516,-100,4,1,0,100,0,0
63385,-100,4,2,0,100,0,0
90926,-100,4,2,0,100,0,0
91418,-100,4,2,0,80,0,0
92156,-100,4,2,0,50,0,0
93016,-100,4,2,0,10,0,0
94123,-100,4,1,0,100,0,1
110598,-100,4,1,0,100,0,0
125844,-100,4,1,0,60,0,0
134205,-100,4,2,0,100,0,0
149205,-100,4,1,0,100,0,0
149943,-100,4,1,0,100,0,1
151172,-100,4,1,0,100,0,0
183385,-100,4,1,0,100,0,0

[Colours]
Combo1 : 0,0,0
Combo2 : 255,0,128
Combo3 : 187,187,0

[HitObjects]
80,64,8303,1,8
216,64,8795,1,0
152,184,9287,2,0,B|152:280|224:280|224:280|224:320,1,169,8|0
360,288,10271,1,8
360,224,10516,1,0
360,160,10762,1,0
232,112,11254,1,8
144,216,11746,1,0
144,80,12238,6,0,B|336:80,1,169,8|0
312,144,12975,2,0,B|136:144,1,169,8|0
144,208,13713,2,0,B|400:208,2,253.5,0|8|0
56,104,15680,1,8
184,72,16172,5,2
320,64,16664,1,2
320,200,17156,1,0
272,248,17402,1,8
208,256,17648,1,0
72,240,18139,2,8,B|72:144|120:112|120:112|120:72,2,169
208,224,19615,1,0
320,152,20107,1,0
320,152,20475,1,8
320,152,20844,1,0
216,152,21213,2,0,B|120:152|120:80|56:80|64:176|-8:176|-8:120,1,253.5
24,224,22320,6,4,B|120:216,1,84.5
176,208,22812,2,4,B|264:208,1,84.5
328,216,23303,2,4,B|416:240,1,84.5
440,104,24041,5,8
176,32,25025,1,0
64,280,26008,1,8
328,344,26992,1,0
424,248,27484,1,8
360,128,27975,5,0
144,40,28959,1,8
48,296,29943,1,0
320,272,30926,1,8
344,136,31418,1,0
240,48,31910,5,8
112,80,32402,1,0
56,208,32894,1,0
136,320,33385,1,0
272,328,33877,1,0
344,216,34369,1,0
248,312,34861,2,0,B|248:40,1,253.5
248,58,35844,6,0,B|160:56|112:112|128:160|112:176,1,169
160,280,36828,2,0,B|336:280,1,169
440,208,37812,2,0,B|440:120|344:120|344:120|344:48|232:48|232:48|192:16,1,338
200,16,39041,6,2,B|199:192,1,169
200,184,39779,1,0
328,184,40271,1,0
328,320,40762,1,0
328,184,41254,2,0,B|328:120|264:112|264:112|264:48,1,169,2|0
264,49,41992,1,8
264,49,42238,1,8
160,136,42730,1,4
160,272,43221,1,12
296,288,43713,5,0
376,184,44205,1,12
272,96,44697,1,2
224,224,45189,2,0,B|224:40,1,169
88,72,46172,1,8
88,208,46664,2,0,B|88:352|160:352,2,169,0|8|0
152,88,48139,5,0
288,88,48631,1,0
408,152,49123,1,8
408,288,49615,1,0
344,288,49861,1,8
312,232,50107,2,0,B|272:184|224:184|208:216|208:264|152:264,1,169,0|8
72,176,51090,1,0
128,56,51582,5,0
264,56,52074,1,4
360,152,52566,1,4
368,288,53057,1,8
256,192,53549,8,0,54533
256,112,55516,5,8
184,232,56008,1,0
320,232,56500,1,0
256,112,56992,1,8
184,232,57484,1,0
320,232,57975,1,0
256,192,58467,8,0,59451
256,192,59943,5,8
120,192,60435,1,0
256,192,60926,1,8
392,192,61418,1,0
256,192,61910,1,0
168,88,62402,6,10,B|88:160|88:232,1,169
184,328,63385,1,8
320,328,63877,1,0
360,200,64369,2,0,B|360:104|288:104|288:104|288:64,1,169,8|0
152,96,65353,1,8
152,160,65598,1,0
152,224,65844,1,0
280,272,66336,1,8
368,168,66828,1,0
368,304,67320,6,0,B|176:304,1,169,8|0
200,240,68057,2,0,B|376:240,1,169,8|0
368,176,68795,2,0,B|112:176,2,253.5,0|8|0
456,280,70762,1,8
328,312,71254,5,2
192,320,71746,1,2
192,184,72238,1,0
240,136,72484,1,8
304,128,72730,1,0
440,144,73221,2,8,B|440:240|392:272|392:272|392:312,2,169
304,160,74697,1,0
192,232,75189,1,0
192,232,75557,1,8
192,232,75926,1,0
224,136,76295,2,0,B|320:136|320:208|384:208|376:112|448:112|448:168,1,253.5
416,64,77402,6,4,B|320:72,1,84.5
264,80,77894,2,4,B|176:80,1,84.5
112,72,78385,2,4,B|24:48,1,84.5
0,184,79123,5,8
264,256,80107,1,0
376,8,81090,1,8
112,48,82074,1,0
64,176,82566,1,8
120,296,83057,1,0
384,352,84041,5,8
456,96,85025,1,0
184,112,86008,1,8
168,248,86500,1,0
272,336,86992,1,8
400,304,87484,5,0
456,176,87976,1,0
376,64,88467,1,0
240,56,88959,1,0
168,168,89451,1,0
264,72,89943,2,0,B|264:344,1,253.5
264,326,90926,6,0,B|352:328|400:272|384:224|400:208,1,169
424,104,91910,2,0,B|248:104,1,169
72,176,92894,2,0,B|72:264|168:264|168:264|168:336|280:336|280:336|320:368,1,338
312,368,94123,6,2,B|313:192,1,169
312,200,94861,1,0
184,200,95353,1,0
184,64,95844,1,0
184,200,96336,2,0,B|184:264|248:272|248:272|248:336,1,169,2|0
248,335,97074,1,8
248,335,97320,1,8
352,248,97812,1,4
352,112,98303,1,12
216,96,98795,5,0
136,200,99287,1,12
240,288,99779,1,2
288,160,100271,2,0,B|288:344,1,169
424,312,101254,1,8
424,176,101746,2,0,B|424:32|352:32,2,169,0|8|0
360,296,103221,5,0
224,296,103713,1,0
104,232,104205,1,8
104,96,104697,1,0
168,96,104943,1,8
200,152,105189,2,0,B|240:200|288:200|304:168|304:120|360:120,1,169,0|8
440,208,106172,1,0
384,328,106664,5,0
248,328,107156,1,4
152,232,107648,1,4
144,96,108139,1,8
256,192,108631,8,0,109615
256,184,110598,5,0
344,296,117484,6,0,B|424:224|424:152,1,169
312,80,118467,1,0
112,80,119205,1,0
232,240,119943,1,0
256,192,120435,8,0,121910
256,88,122402,5,0
80,192,123139,1,0
256,296,123877,1,0
416,80,124861,5,0
424,216,125353,1,0
288,224,125844,1,0
272,88,126336,1,0
136,104,126828,1,0
152,240,127320,1,0
256,192,127566,8,0,128795
256,192,130271,6,0,B|256:288|224:320|176:336|80:336,1,253.5
64,208,131500,1,0
80,144,131746,1,0
112,88,131992,1,0
112,88,132238,2,0,B|200:88|240:136|240:136|280:136|328:176|328:232,2,253.5
248,88,134205,5,0
368,160,134697,1,0
264,248,135189,1,0
128,248,135680,1,0
96,192,135926,1,0
96,192,136172,2,0,B|96:288|192:288|224:256|256:288|256:352,2,253.5
176,80,138139,6,0,B|368:80,1,169
344,144,138877,2,0,B|168:144,1,169
176,208,139615,2,0,B|360:208,1,169
384,336,140598,5,0
384,200,141090,1,0
256,152,141582,2,0,B|256:336,1,169
120,304,142566,2,0,B|120:144,1,84.5
72,168,143057,2,0,B|72:80,2,84.5
208,168,144041,2,0,B|208:80,2,84.5
144,288,145025,1,0
144,288,145516,1,0
240,192,146008,6,0,B|344:192|344:136|416:136,1,169
392,0,146992,2,0,B|304:0|304:40|248:40|216:32,1,169
168,152,147975,2,0,B|168:336,1,169
256,192,149205,8,0,149943
