osu file format v9

[General]
AudioFilename: raiseyourglass.mp3
AudioLeadIn: 0
PreviewTime: 6336
Countdown: 0
SampleSet: Soft
StackLeniency: 0.7
Mode: 0
LetterboxInBreaks: 1

[Editor]
DistanceSpacing: 0.8
BeatDivisor: 4
GridSize: 8

[Metadata]
Title:Raise Your Glass
Artist:P!nk
Creator:misja056
Version:Insane
Source:
Tags:

[Difficulty]
HPDrainRate:7
CircleSize:5
OverallDifficulty:6
ApproachRate:7
SliderMultiplier:2.5
SliderTickRate:1

[Events]
//Background and Video events
Video,-700,"Pnk_-_Raise_your_glass_HD__leg.flv"
0,0,"pink-raise-your-glass.jpg"
//Break Periods
2,61127,62485
2,124078,130600
//Storyboard Layer 0 (Background)
//Storyboard Layer 1 (Fail)
//Storyboard Layer 2 (Pass)
//Storyboard Layer 3 (Foreground)
//Storyboard Sound Samples
//Background Colour Transformations
3,100,163,162,255

[TimingPoints]
435,491.803278688525,4,2,0,100,1,0
16172,-100,4,1,0,60,0,0
16787,-100,4,2,0,100,0,0
17894,-100,4,2,0,100,0,0
36336,-100,4,2,0,70,0,0
37074,-100,4,2,0,40,0,0
37935,-100,4,2,0,10,0,0
39041,-100,4,1,0,100,0,1
55516,-100,4,1,0,100,0,0
63385,-100,4,2,0,100,0,0
90926,-100,4,2,0,100,0,0
91418,-100,4,2,0,80,0,0
92156,-100,4,2,0,50,0,0
93016,-100,4,2,0,10,0,0
94123,-100,4,1,0,100,0,1
110598,-100,4,1,0,100,0,0
125844,-100,4,1,0,60,0,0
131500,-200,4,2,0,30,0,0
134205,-100,4,2,0,100,0,0
149205,-100,4,1,0,100,0,0
149943,-100,4,1,0,100,0,1
183385,-100,4,1,0,100,0,0

[Colours]
Combo1 : 0,0,0
Combo2 : 255,0,128
Combo3 : 187,187,0

[HitObjects]
88,88,8303,1,8
288,96,8795,1,0
272,296,9287,1,0
272,296,9410,1,10
176,288,9656,1,0
176,288,9779,1,10
40,144,10271,5,0
128,96,10516,1,0
168,128,10639,1,0
208,160,10762,1,8
288,104,11008,1,0
360,176,11254,2,0,B|432:176|432:88|392:40,2,125,0|0|8
232,328,12238,1,0
96,272,12607,1,8
144,128,12975,1,4
288,104,13344,2,0,B|368:80|432:80|464:128|464:176,2,187.5,8|4|8
216,240,14451,1,8
88,160,14820,1,0
200,56,15189,1,0
200,56,15312,1,4
296,56,15557,1,0
296,56,15680,1,4
400,224,16172,5,0
216,296,16664,1,0
128,248,16910,1,0
112,200,17033,1,8
120,152,17156,1,0
200,88,17402,2,8,B|336:88,2,125
256,192,18139,1,0
192,272,18385,1,0
288,272,18631,1,0
360,200,18877,5,0
352,152,19000,1,0
336,104,19123,1,0
288,88,19246,1,0
240,80,19369,1,0
240,80,19615,2,8,B|160:80|128:144|160:208|200:232|248:224,1,250
392,248,20475,1,0
272,336,20844,1,8
152,240,21213,1,0
80,104,21582,2,0,B|160:72|224:80|280:128|280:208,1,250
344,264,22320,1,8
376,168,22566,1,0
328,80,22812,5,8
232,120,23057,1,0
248,216,23303,1,8
248,216,23549,1,0
472,336,24041,6,8,B|272:336,1,187.5
40,336,24779,2,8,B|240:336,1,187.5
408,280,25517,2,8,B|408:80,1,187.5
336,352,26255,2,8,B|336:128,1,187.5
256,192,26992,12,0,27484
40,48,27975,6,8,B|240:48,1,187.5
472,48,28713,2,8,B|272:48,1,187.5
104,104,29451,2,8,B|104:304,1,187.5
176,32,30189,2,8,B|176:256,1,187.5
256,192,30926,12,0,31418
472,336,31910,6,8,B|272:336,1,187.5
472,48,32648,2,8,B|272:48,1,187.5
104,104,33386,2,8,B|104:304,1,187.5
336,352,34124,2,8,B|336:128,1,187.5
336,164,34861,1,0
248,152,35107,1,0
168,192,35353,1,0
64,360,35844,6,0,B|288:208,1,250
400,64,36828,2,0,B|408:320,1,250
312,304,37566,2,0,B|240:304|176:248|184:168|240:128|240:48|152:48|120:112,1,375
424,88,39041,5,0
464,184,39287,1,0
416,272,39533,1,0
312,272,39779,2,2,B|240:272|208:224|208:160|264:112,1,187.5
112,64,40516,2,2,B|56:104|72:184|136:208|184:200,1,187.5
248,80,41254,2,8,B|328:80|384:128|376:200|312:240|248:240,1,250
192,216,41992,5,0
104,160,42238,1,0
88,256,42484,1,8
152,336,42730,1,8
248,328,42975,1,8
296,304,43098,1,8
312,256,43221,1,8
40,360,43713,6,0,B|40:152,1,187.5
152,40,44451,2,2,B|152:240,1,187.5
256,360,45189,2,8,B|256:96,1,250,8|0
424,216,46172,5,0
408,120,46418,1,0
312,88,46664,1,0
272,56,46787,1,0
232,88,46910,1,0
160,96,47156,1,8
128,56,47279,1,8
88,88,47402,1,8
256,192,47648,6,0,B|256:128|296:80|360:80|384:120,1,187.5
256,192,48385,2,2,B|256:256|216:304|152:304|128:264,1,187.5
256,192,49123,2,8,B|328:192|392:192|392:192|392:128|456:96,1,250,8|0
456,200,49861,2,0,B|456:336,1,125
400,136,50353,2,0,B|400:272,1,125
400,261,50844,1,2
336,88,51090,2,0,B|336:352,1,250
184,328,51951,6,0,B|184:128,1,187.5
128,280,52689,2,2,B|128:64,1,187.5
128,92,53303,1,8
128,92,53549,1,0
320,48,54041,5,0
400,112,54287,1,0
344,192,54533,1,0
304,160,54656,1,0
272,200,54779,1,0
168,200,55025,1,8
136,160,55148,1,8
104,200,55271,1,8
0,0,55516,5,4
512,0,56254,5,6
256,384,56992,5,4
256,192,58221,5,6
256,192,58467,5,0
216,160,58590,1,0
184,200,58713,1,0
256,192,58959,1,0
296,160,59082,1,0
328,192,59205,1,0
512,384,59451,5,6
0,384,60189,5,4
256,0,60927,5,6
424,296,63385,5,0
224,288,63877,1,0
168,96,64369,1,0
272,96,64615,1,0
376,96,64861,1,0
472,240,65353,5,0
384,288,65598,1,0
344,256,65721,1,0
304,224,65844,1,8
224,280,66090,1,0
152,208,66336,2,0,B|80:208|80:296|120:344,2,125,0|0|8
280,56,67320,1,0
416,112,67689,1,8
368,256,68057,1,4
224,280,68426,2,0,B|144:304|80:304|48:256|48:208,2,187.5,8|4|8
296,144,69533,1,0
424,224,69902,1,0
312,328,70271,1,0
312,328,70394,1,4
216,328,70639,1,0
216,328,70762,1,4
72,192,71254,5,0
248,96,71746,1,0
400,176,72238,1,0
376,224,72361,1,0
352,272,72484,1,0
256,256,72730,2,0,B|208:216|208:152|248:120|264:80|320:72|368:96,1,250
432,64,73467,1,0
456,104,73590,1,0
472,152,73713,1,0
472,256,73959,1,0
320,264,74205,1,0
256,184,74328,1,0
168,144,74574,1,0
48,48,74943,2,0,B|40:216,1,125
88,320,75557,6,0,B|288:320,1,187.5
280,216,76172,1,0
280,216,76295,2,0,B|80:216,1,187.5
160,24,77156,1,0
256,64,77402,1,8
344,112,77648,1,0
392,304,78139,5,8
256,248,78631,1,4
40,48,79123,6,8,B|240:48,1,187.5
472,48,79861,2,8,B|272:48,1,187.5
104,104,80599,2,8,B|104:304,1,187.5
176,32,81337,2,8,B|176:256,1,187.5
256,192,82074,12,0,82566
472,336,83057,6,8,B|272:336,1,187.5
40,336,83795,2,8,B|240:336,1,187.5
408,280,84533,2,8,B|408:80,1,187.5
336,352,85271,2,8,B|336:128,1,187.5
256,192,86008,12,0,86500
40,48,86992,6,8,B|240:48,1,187.5
40,336,87730,2,8,B|240:336,1,187.5
408,280,88468,2,8,B|408:80,1,187.5
176,32,89206,2,8,B|176:256,1,187.5
176,220,89943,1,0
264,232,90189,1,0
344,192,90435,1,0
448,24,90926,6,0,B|224:176,1,250
112,320,91910,2,0,B|104:64,1,250
200,80,92648,2,0,B|272:80|336:136|328:216|272:256|272:336|360:336|392:272,1,375
88,296,94123,5,0
48,200,94369,1,0
96,112,94615,1,0
200,112,94861,2,2,B|272:112|304:160|304:224|248:272,1,187.5
400,320,95598,2,2,B|456:280|440:200|376:176|328:184,1,187.5
264,304,96336,2,8,B|184:304|128:256|136:184|200:144|264:144,1,250
320,168,97074,1,0
408,224,97320,1,0
424,128,97566,1,8
360,48,97812,1,8
264,56,98057,1,8
216,80,98180,1,8
200,128,98303,1,8
472,24,98795,6,0,B|472:232,1,187.5
360,344,99533,2,2,B|360:144,1,187.5
256,24,100271,2,8,B|256:288,1,250,8|0
88,168,101254,5,0
104,264,101500,1,0
200,296,101746,1,0
240,328,101869,1,0
280,296,101992,1,0
352,288,102238,1,8
384,328,102361,1,8
424,296,102484,1,8
256,192,102730,2,0,B|256:256|216:304|152:304|128:264,1,187.5
256,192,103467,2,2,B|256:128|296:80|360:80|384:120,1,187.5
256,192,104205,2,8,B|184:192|120:192|120:192|120:256|56:288,1,250,8|0
56,184,104943,6,0,B|56:48,1,125
112,248,105435,2,0,B|112:112,1,125
112,123,105926,1,2
176,296,106172,2,0,B|176:32,1,250
328,56,107033,2,0,B|328:256,1,187.5
384,104,107771,2,2,B|384:320,1,187.5
384,292,108385,1,8
384,292,108631,1,0
192,336,109123,5,0
112,272,109369,1,0
168,192,109615,1,0
208,224,109738,1,0
240,184,109861,1,0
344,184,110107,1,8
376,224,110230,1,8
408,184,110353,1,8
512,384,110598,5,4
0,384,111336,5,6
256,0,112074,5,4
256,192,113303,5,6
256,192,113549,5,0
296,224,113672,1,0
328,184,113795,1,0
256,192,114041,1,0
216,224,114164,1,0
184,192,114287,1,0
0,0,114533,5,6
512,0,115271,5,4
256,384,116009,5,6
256,192,116992,5,0
256,192,117238,1,0
256,192,117484,5,0
216,160,117607,1,0
184,200,117730,1,0
256,192,117976,1,0
296,160,118099,1,0
328,192,118222,1,0
512,384,118468,5,6
0,384,119206,5,4
256,0,119944,5,6
256,192,121172,5,6
256,192,121418,5,0
296,224,121541,1,0
328,184,121664,1,0
256,192,121910,1,0
216,224,122033,1,0
184,192,122156,1,0
0,0,122402,5,6
512,0,123140,5,4
256,384,123878,5,6
112,96,131500,5,0
112,96,131746,2,0,B|176:96,1,62.5
174,96,132238,2,0,B|248:96|288:136|288:160,1,125
283,144,132975,1,8
283,144,133221,1,0
283,144,133713,2,2,B|288:208|240:264,1,125
72,152,134697,5,0
248,56,135189,1,8
424,152,135680,2,4,B|432:344|352:344|320:296|256:304,1,250
104,304,136664,2,8,B|104:160,1,125
248,80,137402,1,0
248,80,137648,2,0,B|392:80|392:176|360:216|288:216|240:280|320:320|304:368,1,375,8|0
120,184,138877,1,0
344,64,139615,1,0
320,160,139861,1,8
312,256,140107,1,0
216,280,140353,2,0,B|72:304,1,125,2|2
72,200,140844,1,0
216,112,141336,1,0
216,112,141582,2,0,B|416:112|416:160|400:216,1,250,0|8
24,72,143057,6,0,B|184:72,1,125
149,72,143549,2,8,B|288:72,1,125
272,176,144041,2,0,B|272:248|200:248|200:296|272:296|272:352|344:352,2,250,0|8|0
80,136,145516,1,0
160,80,145762,1,0
256,64,146008,2,8,B|256:328,1,250
320,24,146992,2,0,B|320:304,1,250
192,32,147853,2,0,B|192:360,1,312.5,0|4
352,96,149205,6,0,B|352:256,1,125
248,224,149697,1,0
168,168,149943,2,8,B|88:168,9,62.5
56,168,151172,1,0
88,72,151418,1,0
192,72,151664,1,0
288,40,151910,2,0,L|288:168|360:168,1,187.5
288,40,152648,2,2,L|288:168|216:168,1,187.5
288,40,153385,2,0,L|288:296,1,250,8|0
192,320,154123,6,0,B|104:232,1,125
72,136,154615,1,0
72,136,154861,2,2,B|72:72|136:40|208:40|248:56|248:152,1,250
440,88,155844,6,0,B|440:168|336:168|336:168|336:232,1,187.5
440,88,156582,2,2,B|368:88|368:0|368:0|296:0,1,187.5
440,88,157320,2,0,B|176:88,1,250,8|0
296,256,158303,5,0
192,256,158549,1,0
136,176,158795,1,0
168,136,158918,1,0
192,176,159041,1,0
288,184,159287,1,8
320,144,159410,1,8
344,184,159533,1,8
384,280,159779,6,0,B|312:312|264:312|200:280,1,187.5
56,288,160516,2,2,B|-3:287|-19:247|-11:207|21:183|69:183,1,187.5
213,176,161254,2,0,B|216:64|304:64|320:32|336:64|408:64|408:128,1,250,8|0
408,184,161992,1,0
400,280,162238,1,0
296,280,162484,1,0
296,176,162730,1,8
104,232,163221,1,8
88,32,163713,5,0
240,32,164082,1,0
248,184,164451,1,2
96,184,164820,1,2
168,312,165189,1,8
168,112,165680,1,0
368,72,166172,5,0
384,272,166664,1,0
192,312,167156,1,0
192,208,167402,1,0
104,152,167648,2,0,B|304:152,1,187.5
40,96,168385,2,2,B|232:96,1,187.5
0,40,169123,2,0,B|264:40,1,250,8|0
256,192,169861,12,0,171090
256,192,171582,6,0,B|256:0,1,187.5
256,192,172320,2,2,B|64:192,1,187.5
256,192,173057,2,0,B|256:328|376:320|376:192,1,250,8|0
496,360,174041,1,0
416,296,174287,1,0
344,224,174533,1,0
304,192,174656,1,0
272,232,174779,1,0
168,232,175025,1,8
136,192,175148,1,8
104,232,175271,1,8
48,152,175516,5,0
176,72,175885,1,0
312,128,176254,1,2
448,72,176623,1,2
448,224,176992,2,0,B|448:304|368:304|336:248|304:304|232:304,1,250,8|0
144,272,177730,5,0
80,192,177975,1,0
144,112,178221,1,0
216,184,178467,1,0
248,144,178590,1,0
280,184,178713,1,0
320,152,178836,1,0
352,192,178959,1,8
480,32,179451,5,0
480,184,179820,1,0
480,336,180189,1,2
352,192,180557,1,2
256,256,180926,2,0,B|184:256|160:216|160:168|184:128|216:104|304:104,1,250,8|0
416,240,181910,5,0
408,144,182156,1,0
312,112,182402,1,0
312,160,182525,1,0
312,208,182648,1,0
216,216,182894,1,8
216,168,183016,1,8
216,120,183139,1,8
512,384,183385,5,4
0,384,184123,5,6
256,0,184861,5,4
256,192,186090,5,6
256,192,186336,5,0
296,224,186459,1,0
328,184,186582,1,0
256,192,186828,1,0
216,224,186951,1,0
184,192,187074,1,0
0,0,187320,5,6
512,0,188058,5,4
256,384,188796,5,6
144,200,189779,5,0
224,136,190025,1,0
312,184,190271,5,0
336,144,190394,1,0
368,184,190516,1,0
240,184,190762,1,0
208,144,190885,1,0
176,184,191008,1,0
0,0,191254,5,6
512,0,191992,5,4
256,384,192730,5,6
96,144,193467,5,0
184,144,193713,1,0
288,144,193959,1,0
240,232,194205,1,0
208,200,194328,1,0
176,240,194451,1,0
80,248,194697,1,8
80,200,194820,1,8
80,152,194943,1,8
0,0,195189,5,6
512,0,195927,5,4
256,384,196665,5,6
96,192,197648,5,0
256,72,198139,1,0
336,128,198385,1,0
416,192,198631,1,0
256,192,199123,12,0,200107
