osu file format v13

[General]
AudioFilename: Family Portrait.mp3
AudioLeadIn: 1500
PreviewTime: 62635
Countdown: 0
SampleSet: Soft
StackLeniency: 0.7
Mode: 0
LetterboxInBreaks: 0
WidescreenStoryboard: 0

[Editor]
Bookmarks: 21459,94661,157406,241066,282896
DistanceSpacing: 1
BeatDivisor: 2
GridSize: 4
TimelineZoom: 1

[Metadata]
Title:Family Portrait
TitleUnicode:
Artist:P!nk
ArtistUnicode:
Creator:Ylinestra44
Version:Normal
Source:
Tags:Missundaztood Pink
BeatmapID:157573
BeatmapSetID:51386

[Difficulty]
HPDrainRate:4
CircleSize:4
OverallDifficulty:4
ApproachRate:4
SliderMultiplier:1.3
SliderTickRate:2

[Events]
//Background and Video events
0,0,"wpapers_ru_P.nk.jpg",0,0
//Break Periods
2,84403,93341
2,147148,156086
2,230809,239746
//Storyboard Layer 0 (Background)
//Storyboard Layer 1 (Fail)
//Storyboard Layer 2 (Pass)
//Storyboard Layer 3 (Foreground)
//Storyboard Sound Samples
//Background Colour Transformations
3,100,163,162,255

[TimingPoints]
544,653.59477124183,4,2,1,50,1,0
17864,-100,4,2,1,30,0,0
21459,-100,4,2,1,50,0,0
58713,-100,4,2,1,30,0,0
63289,-100,4,2,1,60,0,1
63615,-100,4,2,1,80,0,1
65903,-100,4,2,1,60,0,1
66230,-100,4,2,1,80,0,1
73746,-100,4,2,1,60,0,1
74073,-100,4,2,1,80,0,1
76360,-100,4,2,1,60,0,1
76687,-100,4,2,1,80,0,1
84204,-100,4,2,1,30,0,0
95315,-100,4,2,1,50,0,0
105119,-100,4,2,1,30,0,0
105772,-100,4,2,1,50,0,0
115576,-100,4,2,1,30,0,0
115903,-100,4,2,1,50,0,0
121459,-100,4,2,1,30,0,0
126034,-100,4,2,1,60,0,1
126360,-100,4,2,1,80,0,1
128648,-100,4,2,1,60,0,1
128975,-100,4,2,1,80,0,1
136491,-100,4,2,1,60,0,1
136818,-100,4,2,1,80,0,1
139106,-100,4,2,1,60,0,1
139432,-100,4,2,1,80,0,1
146949,-100,4,2,1,50,0,0
188779,-100,4,2,1,60,0,1
189106,-100,4,2,1,80,0,1
209694,-100,4,2,1,60,0,1
210021,-100,4,2,1,80,0,1
212308,-100,4,2,1,60,0,1
212635,-100,4,2,1,80,0,1
220151,-100,4,2,1,60,0,1
220478,-100,4,2,1,80,0,1
222766,-100,4,2,1,60,0,1
223419,-100,4,2,1,80,0,1
230609,-100,4,2,1,50,0,0
241066,-100,4,2,1,45,0,0
251524,-100,4,2,1,40,0,0
261981,-100,4,2,1,35,0,0
272439,-100,4,2,1,25,0,0
282896,-100,4,2,1,15,0,0

[Colours]
Combo1 : 58,58,58
Combo2 : 255,136,196

[HitObjects]
72,312,544,6,0,B|144:296|160:228,1,130,0|2,0:0|0:0,0:0:0:0:
76,128,1851,1,0,0:0:0:0:
128,88,2177,1,0,0:0:0:0:
192,72,2504,1,2,0:0:0:0:
320,72,3158,1,0,0:0:0:0:
384,88,3485,1,0,0:0:0:0:
436,128,3811,1,2,0:0:0:0:
351,227,4465,2,0,B|368:296|440:312,1,130,0|2,0:0|0:0,0:0:0:0:
316,356,5772,5,0,0:0:0:0:
260,320,6099,1,0,0:0:0:0:
196,308,6426,1,2,0:0:0:0:
68,308,7079,1,0,0:0:0:0:
88,244,7406,1,0,0:0:0:0:
128,192,7733,1,2,0:0:0:0:
256,192,8386,5,0,0:0:0:0:
320,192,8713,1,0,0:0:0:0:
384,192,9040,1,2,0:0:0:0:
444,76,9694,1,0,0:0:0:0:
380,76,10021,1,0,0:0:0:0:
316,76,10347,1,2,0:0:0:0:
196,28,11001,6,0,B|128:48|116:120,1,130,0|2,0:0|0:0,0:0:0:0:
24,212,12308,2,0,B|44:280|116:292,1,130,0|2,0:0|0:0,0:0:0:0:
248,296,13615,6,0,B|160:252|160:132|248:88,1,260
312,84,15249,2,0,P|299:174|380:217,1,195,2|0,0:0|0:0,0:0:0:0:
444,224,16557,2,0,P|401:305|312:288,1,195,2|0,0:0|0:0,0:0:0:0:
256,192,17864,12,0,20151,0:0:0:0:
168,192,21459,6,0,B|184:256,1,65,4|0,0:0|0:0,0:0:0:0:
140,304,22112,2,0,B|192:344,1,65,2|0,0:0|0:0,0:0:0:0:
256,352,22766,2,0,B|328:360|364:296,1,130,0|2,0:0|0:0,0:0:0:0:
416,176,24073,6,0,B|396:116,1,65
356,60,24727,1,2,0:0:0:0:
292,44,25053,1,0,0:0:0:0:
228,44,25380,2,0,B|156:60|140:128,1,130,0|2,0:0|0:0,0:0:0:0:
76,244,26687,5,0,0:0:0:0:
112,300,27014,2,0,B|60:336,2,65,0|2|0,0:0|0:0|0:0,0:0:0:0:
172,324,27994,2,0,B|232:344,1,65
300,340,28648,1,2,0:0:0:0:
364,324,28975,1,0,0:0:0:0:
408,276,29302,6,0,B|468:308,2,65,0|0|2,0:0|0:0|0:0,0:0:0:0:
408,212,30282,2,0,B|372:173|311:170|260:212|260:264,1,195,0|2,0:0|0:0,0:0:0:0:
136,228,31916,6,0,B|91:180,1,65
112,120,32570,2,0,B|175:105,1,65,2|0,0:0|0:0,0:0:0:0:
220,152,33223,2,0,B|200:214,2,65,0|0|2,0:0|0:0|0:0,0:0:0:0:
300,64,34530,6,0,B|376:60|408:120,1,130,0|2,0:0|0:0,0:0:0:0:
428,184,35511,1,0,0:0:0:0:
428,248,35838,1,0,0:0:0:0:
316,312,36491,1,2,0:0:0:0:
188,340,37145,6,0,B|128:316,1,65
88,264,37798,2,0,B|140:224,1,65,2|0,0:0|0:0,0:0:0:0:
140,160,38452,2,0,B|88:120,1,65
128,68,39106,2,0,B|188:44,1,65,2|0,0:0|0:0,0:0:0:0:
252,56,39759,5,0,0:0:0:0:
300,100,40086,1,0,0:0:0:0:
336,156,40413,2,0,B|400:140,2,65,2|0|0,0:0|0:0|0:0,0:0:0:0:
256,260,41720,1,2,0:0:0:0:
128,227,42374,6,0,B|100:296|156:344,1,130,0|2,0:0|0:0,0:0:0:0:
216,316,43354,1,0,0:0:0:0:
276,344,43681,2,0,B|332:295|304:227,1,130,0|2,0:0|0:0,0:0:0:0:
428,192,44988,5,0,0:0:0:0:
400,132,45315,1,0,0:0:0:0:
348,92,45642,2,0,B|288:68,1,65,2|0,0:0|0:0,0:0:0:0:
256,124,46295,2,0,B|288:180,2,65,0|0|2,0:0|0:0|0:0,0:0:0:0:
128,96,47602,5,0,0:0:0:0:
64,212,48256,2,0,B|80:276,1,65,2|0,0:0|0:0,0:0:0:0:
136,312,48910,2,0,B|200:320,1,65
264,320,49563,1,2,0:0:0:0:
380,260,50217,5,0,0:0:0:0:
432,140,50870,1,2,0:0:0:0:
380,100,51197,1,0,0:0:0:0:
316,84,51524,2,0,B|336:24,2,65,0|0|2,0:0|0:0|0:0,0:0:0:0:
192,128,52831,5,0,0:0:0:0:
92,208,53485,2,0,B|28:220,2,65,2|0|0,0:0|0:0|0:0,0:0:0:0:
132,260,54465,1,0,0:0:0:0:
192,284,54792,2,0,B|172:344,2,65,2|0|0,0:0|0:0|0:0,0:0:0:0:
320,284,56099,5,2,0:0:0:0:
412,192,56753,2,0,B|476:192,2,65,0|0|2,0:0|0:0|0:0,0:0:0:0:
348,192,57733,1,0,0:0:0:0:
284,192,58060,1,0,0:0:0:0:
256,192,58713,12,0,61981,0:0:0:0:
372,192,62635,5,2,0:0:0:0:
312,216,62962,1,0,0:0:0:0:
252,240,63289,2,0,B|192:264,1,65,4|0,0:0|0:0,0:0:0:0:
128,284,63942,2,0,B|56:260|48:192,1,130,8|0,0:0|0:0,0:0:0:0:
60,128,64923,1,0,0:0:0:0:
100,80,65249,2,0,B|160:56,1,65,8|0,0:0|0:0,0:0:0:0:
224,56,65903,6,0,B|284:80,1,65,4|0,0:0|0:0,0:0:0:0:
348,60,66557,2,0,B|372:92|332:156|288:148,1,130,8|0,0:0|0:0,0:0:0:0:
160,192,67864,1,8,0:0:0:0:
80,296,68517,6,0,B|20:316,2,65,0|0|8,0:0|0:0|0:0,0:0:0:0:
132,260,69498,1,0,0:0:0:0:
196,240,69825,2,0,B|256:196|316:240,1,130,0|8,0:0|0:0,0:0:0:0:
380,260,70805,1,0,0:0:0:0:
432,296,71133,6,0,B|493:316,2,65,0|0|8,0:0|0:0|0:0,0:0:0:0:
412,168,72439,2,0,B|392:100|320:88,1,130,0|8,0:0|0:0,0:0:0:0:
256,88,73419,1,0,0:0:0:0:
192,100,73746,6,0,B|140:140,1,65,4|0,0:0|0:0,0:0:0:0:
76,132,74400,2,0,B|44:192|76:256,1,130,8|0,0:0|0:0,0:0:0:0:
140,244,75380,1,0,0:0:0:0:
168,304,75707,2,0,B|224:336,1,65,8|0,0:0|0:0,0:0:0:0:
288,336,76360,6,0,B|344:304,1,65,4|0,0:0|0:0,0:0:0:0:
408,312,77014,2,0,B|452:252|408:192,1,130,8|0,0:0|0:0,0:0:0:0:
324,92,78321,2,0,B|260:92,1,65,8|0,0:0|0:0,0:0:0:0:
196,108,78975,6,0,B|144:64,1,65
84,56,79628,2,0,B|36:104|36:172,1,130,8|0,0:0|0:0,0:0:0:0:
88,292,80936,2,0,B|144:260,1,65,8|0,0:0|0:0,0:0:0:0:
172,200,81589,6,0,B|232:224,1,65
256,284,82243,2,0,B|324:284|368:228,1,130,8|0,0:0|0:0,0:0:0:0:
392,168,83223,1,0,0:0:0:0:
376,104,83550,2,0,B|320:72,2,65,8|0|4,0:0|0:0|0:0,0:0:0:0:
432,312,94661,5,4,0:0:0:0:
308,272,95315,2,0,B|280:340|212:348,2,130,2|0|2,0:0|0:0|0:0,0:0:0:0:
428,224,97276,5,0,0:0:0:0:
416,160,97602,1,0,0:0:0:0:
372,112,97929,2,0,B|320:76,1,65,2|0,0:0|0:0,0:0:0:0:
256,64,98583,2,0,B|180:72|168:144,1,130,0|2,0:0|0:0,0:0:0:0:
144,204,99563,1,0,0:0:0:0:
84,232,99890,5,0,0:0:0:0:
184,320,100544,2,0,B|136:372|64:360,2,130,2|0|2,0:0|0:0|0:0,0:0:0:0:
228,272,102177,1,0,0:0:0:0:
260,216,102504,6,0,B|300:164,1,65
360,136,103158,1,2,0:0:0:0:
424,140,103485,1,0,0:0:0:0:
480,168,103811,2,0,B|452:228,1,65
416,280,104465,1,2,0:0:0:0:
292,232,105119,5,4,0:0:0:0:
244,112,105772,1,2,0:0:0:0:
200,64,106099,1,0,0:0:0:0:
136,44,106426,2,0,B|68:64|64:140,1,130,0|2,0:0|0:0,0:0:0:0:
60,204,107406,2,0,B|28:260,1,65
12,324,108060,6,0,B|72:348,1,65,0|2,0:0|0:0,0:0:0:0:
136,344,108713,1,0,0:0:0:0:
196,316,109040,2,0,B|240:268,2,65,0|0|2,0:0|0:0|0:0,0:0:0:0:
324,296,110347,5,0,0:0:0:0:
444,340,111001,2,0,B|488:280|440:220,1,130,2|0,0:0|0:0,0:0:0:0:
384,192,111981,2,0,B|332:232,2,65,0|2|0,0:0|0:0|0:0,0:0:0:0:
436,152,112962,5,0,0:0:0:0:
424,88,113289,1,0,0:0:0:0:
360,72,113615,2,0,B|300:96,1,65,2|0,0:0|0:0,0:0:0:0:
236,96,114269,2,0,B|184:60,2,65,0|0|2,0:0|0:0|0:0,0:0:0:0:
148,192,115576,5,4,0:0:0:0:
168,256,115903,1,0,0:0:0:0:
224,288,116230,2,0,B|288:288,1,65,2|0,0:0|0:0,0:0:0:0:
344,252,116883,2,0,B|368:192,1,65
316,152,117537,6,0,B|292:92,2,65,2|0|0,0:0|0:0|0:0,0:0:0:0:
256,180,118517,2,0,B|256:244,2,65,0|2|0,0:0|0:0|0:0,0:0:0:0:
196,152,119498,2,0,B|220:92,2,65,0|0|2,0:0|0:0|0:0,0:0:0:0:
188,216,120478,1,0,0:0:0:0:
224,272,120805,1,2,0:0:0:0:
256,192,121459,12,0,124727,0:0:0:0:
188,192,125380,5,2,0:0:0:0:
248,212,125707,1,0,0:0:0:0:
312,232,126034,2,0,B|372:252,1,65,4|0,0:0|0:0,0:0:0:0:
440,252,126687,2,0,B|484:192|440:132,1,130,8|0,0:0|0:0,0:0:0:0:
388,92,127668,1,0,0:0:0:0:
328,68,127994,2,0,B|264:60,1,65,8|0,0:0|0:0,0:0:0:0:
200,72,128648,6,0,B|160:124,1,65,4|0,0:0|0:0,0:0:0:0:
96,112,129302,2,0,B|52:160|60:232,1,130,8|0,0:0|0:0,0:0:0:0:
148,328,130609,1,8,0:0:0:0:
276,316,131262,6,0,B|336:292,1,65
396,316,131916,2,0,B|464:296|476:224,1,130,8|0,0:0|0:0,0:0:0:0:
476,160,132896,1,0,0:0:0:0:
444,104,133223,2,0,B|384:76,1,65,8|0,0:0|0:0,0:0:0:0:
320,64,133877,5,0,0:0:0:0:
260,40,134204,2,0,B|216:100|260:160,1,130,2|0,0:0|0:0,0:0:0:0:
252,224,135184,2,0,B|296:284|252:344,1,130,0|8,0:0|0:0,0:0:0:0:
192,368,136164,1,0,0:0:0:0:
136,336,136491,6,0,B|72:320,1,65,4|0,0:0|0:0,0:0:0:0:
28,272,137145,2,0,B|60:208|132:208,1,130,8|0,0:0|0:0,0:0:0:0:
196,216,138125,1,0,0:0:0:0:
172,276,138452,2,0,B|224:316,1,65,8|0,0:0|0:0,0:0:0:0:
288,316,139106,6,0,B|340:276,1,65,4|0,0:0|0:0,0:0:0:0:
400,296,139759,2,0,B|464:260|464:188,1,130,8|0,0:0|0:0,0:0:0:0:
364,104,141066,1,8,0:0:0:0:
256,176,141720,6,0,B|212:128,1,65
160,88,142374,2,0,B|84:92|60:160,1,130,8|0,0:0|0:0,0:0:0:0:
60,224,143354,1,0,0:0:0:0:
84,284,143681,2,0,B|132:328,1,65,8|0,0:0|0:0,0:0:0:0:
196,340,144334,6,0,B|256:316,1,65
316,340,144988,2,0,B|388:336|428:284,1,130,8|0,0:0|0:0,0:0:0:0:
448,220,145968,1,0,0:0:0:0:
440,156,146295,2,0,B|380:128,2,65,8|0|4,0:0|0:0|0:0,0:0:0:0:
40,40,157406,6,0,B|100:60,1,65
156,100,158060,2,0,B|180:160,1,65,2|0,0:0|0:0,0:0:0:0:
148,216,158713,2,0,B|188:276|256:276,1,130,0|2,0:0|0:0,0:0:0:0:
320,260,159694,1,0,0:0:0:0:
364,212,160021,6,0,B|408:164,1,65
368,112,160674,2,0,B|308:68|248:112,1,130
208,164,161655,1,2,0:0:0:0:
156,128,161981,2,0,B|102:164,1,65,2|0,0:0|0:0,0:0:0:0:
80,228,162635,5,0,0:0:0:0:
148,340,163289,1,2,0:0:0:0:
196,296,163615,1,0,0:0:0:0:
256,276,163942,2,0,B|328:288|364:340,1,130,0|2,0:0|0:0,0:0:0:0:
420,308,164923,1,0,0:0:0:0:
432,244,165249,6,0,B|392:188|328:172,1,130,0|2,0:0|0:0,0:0:0:0:
288,224,166230,1,0,0:0:0:0:
224,224,166557,1,0,0:0:0:0:
184,171,166883,2,0,B|120:188|80:244,1,130,0|2,0:0|0:0,0:0:0:0:
28,204,167864,5,4,0:0:0:0:
80,84,168517,1,2,0:0:0:0:
212,84,169171,2,0,B|256:132,1,65
276,196,169825,2,0,B|340:216,1,65,2|0,0:0|0:0,0:0:0:0:
404,216,170478,5,4,0:0:0:0:
348,332,171132,1,2,0:0:0:0:
220,328,171785,1,0,0:0:0:0:
168,288,172112,1,0,0:0:0:0:
136,232,172439,2,0,B|72:220,1,65,2|0,0:0|0:0,0:0:0:0:
8,204,173093,5,4,0:0:0:0:
32,332,173746,1,2,0:0:0:0:
160,348,174400,2,0,B|224:336,1,65
288,320,175053,1,2,0:0:0:0:
412,288,175707,6,0,B|444:232,1,65,2|0,0:0|0:0,0:0:0:0:
496,192,176360,1,2,0:0:0:0:
444,152,176687,2,0,B|412:96,1,65,0|2,0:0|0:0,0:0:0:0:
288,140,177668,1,2,0:0:0:0:
224,140,177994,1,0,0:0:0:0:
176,184,178321,6,0,B|104:172|84:104,2,130,4|2|0,0:0|0:0|0:0,0:0:0:0:
192,248,179955,1,0,0:0:0:0:
200,312,180282,2,0,B|136:324,1,65,2|0,0:0|0:0,0:0:0:0:
108,264,180936,6,0,B|36:284|24:356,2,130,4|2|0,0:0|0:0|0:0,0:0:0:0:
72,208,182570,1,0,0:0:0:0:
116,160,182896,2,0,B|176:136,1,65,2|0,0:0|0:0,0:0:0:0:
240,116,183550,5,4,0:0:0:0:
360,68,184204,1,2,0:0:0:0:
352,196,184857,2,0,B|308:256|396:256|353:313,1,130,0|2,0:0|0:0,0:0:0:0:
296,344,185838,1,0,0:0:0:0:
232,352,186164,6,0,B|168:352,1,65
104,332,186818,2,0,B|44:292|56:220,1,130,2|0,0:0|0:0,0:0:0:0:
116,104,188125,1,2,0:0:0:0:
172,72,188452,1,0,0:0:0:0:
236,80,188779,6,0,B|248:148|320:168,1,130,4|8,0:0|0:0,0:0:0:0:
360,44,190086,2,0,B|416:80,1,65
452,132,190740,2,0,B|476:192,1,65,8|0,0:0|0:0,0:0:0:0:
452,252,191393,5,0,0:0:0:0:
348,328,192047,1,8,0:0:0:0:
288,212,192700,1,0,0:0:0:0:
224,212,193027,1,0,0:0:0:0:
192,268,193354,2,0,B|132:296,1,65,8|0,0:0|0:0,0:0:0:0:
84,252,194008,6,0,B|40:192|84:132,1,130,0|8,0:0|0:0,0:0:0:0:
200,72,195315,2,0,B|256:104,1,65
312,72,195968,1,8,0:0:0:0:
428,132,196622,6,0,B|400:192,1,65
340,212,197276,1,8,0:0:0:0:
280,232,197602,2,0,B|252:292,1,65
192,312,198256,1,0,0:0:0:0:
128,308,198583,2,0,B|64:300,1,65,8|0,0:0|0:0,0:0:0:0:
20,252,199236,5,0,0:0:0:0:
136,192,199890,1,8,0:0:0:0:
20,132,200544,1,0,0:0:0:0:
64,84,200870,1,0,0:0:0:0:
128,64,201197,2,0,B|192:60,1,65,8|0,0:0|0:0,0:0:0:0:
252,88,201851,6,0,B|268:160|208:200,2,130,0|8|0,0:0|0:0|0:0,0:0:0:0:
312,60,203485,1,0,0:0:0:0:
376,52,203811,1,8,0:0:0:0:
476,136,204465,6,0,B|464:208|400:232,1,130,0|8,0:0|0:0,0:0:0:0:
344,268,205445,1,0,0:0:0:0:
300,316,205772,2,0,B|232:344|184:288,1,130,0|8,0:0|0:0,0:0:0:0:
148,232,206753,1,0,0:0:0:0:
96,192,207079,6,0,B|40:224,2,65,0|0|8,0:0|0:0|0:0,0:0:0:0:
124,132,208060,1,0,0:0:0:0:
176,96,208387,2,0,B|140:40,2,65,0|0|8,0:0|0:0|0:0,0:0:0:0:
240,92,209367,1,0,0:0:0:0:
304,112,209694,6,0,B|341:55|416:65,1,130,4|8,0:0|0:0,0:0:0:0:
416,196,211001,2,0,B|396:256,1,65
376,320,211655,2,0,B|316:340,1,65,8|0,0:0|0:0,0:0:0:0:
252,356,212308,6,0,B|188:356|136:304,1,130,4|8,0:0|0:0,0:0:0:0:
84,184,213615,2,0,B|104:124,1,65
164,96,214269,2,0,B|224:72,1,65,8|0,0:0|0:0,0:0:0:0:
272,116,214923,6,0,B|272:188|320:232,2,130,0|8|0,0:0|0:0|0:0,0:0:0:0:
332,96,216557,1,0,0:0:0:0:
396,116,216883,1,8,0:0:0:0:
448,236,217537,6,0,B|504:204,2,65,0|0|8,0:0|0:0|0:0,0:0:0:0:
408,288,218517,2,0,B|324:352|224:312,1,195,0|8,0:0|0:0,0:0:0:0:
164,284,219825,1,0,0:0:0:0:
120,240,220151,6,0,B|52:264|44:336,2,130,4|8|0,0:0|0:0|0:0,0:0:0:0:
164,192,221785,1,0,0:0:0:0:
224,164,222112,2,0,B|288:176,1,65,8|0,0:0|0:0,0:0:0:0:
344,208,222766,5,4,0:0:0:0:
460,152,223419,1,8,0:0:0:0:
352,80,224073,1,0,0:0:0:0:
288,96,224400,1,0,0:0:0:0:
224,96,224727,2,0,B|160:80,1,65,8|0,0:0|0:0,0:0:0:0:
100,104,225380,6,0,B|56:164|100:224,1,130,0|8,0:0|0:0,0:0:0:0:
200,308,226687,2,0,B|256:340,1,65
320,344,227341,2,0,B|384:336,1,65,8|0,0:0|0:0,0:0:0:0:
432,292,227994,6,0,B|464:236,1,65
476,172,228648,1,8,0:0:0:0:
460,44,229302,2,0,B|384:44|355:106,1,130,0|8,0:0|0:0,0:0:0:0:
256,192,230609,5,4,0:0:0:0:
232,136,241066,6,0,B|208:196,2,65,0|0|2,0:0|0:0|0:0,0:0:0:0:
360,104,242374,1,0,0:0:0:0:
424,112,242700,1,0,0:0:0:0:
468,160,243027,2,0,B|468:224,1,65,2|0,0:0|0:0,0:0:0:0:
448,288,243681,6,0,B|396:328,1,65
332,340,244334,1,2,0:0:0:0:
268,340,244661,2,0,B|168:332|100:252,1,195,0|2,0:0|0:0,0:0:0:0:
44,136,246295,5,0,0:0:0:0:
72,76,246622,2,0,B|136:76|204:116|220:180,1,195,2|0,0:0|0:0,0:0:0:0:
216,244,247929,2,0,B|184:288|256:372|328:288|296:244,1,195,2|0,0:0|0:0,0:0:0:0:
291,180,249236,2,0,B|308:116|376:76|440:75,1,195,2|0,0:0|0:0,0:0:0:0:
420,204,250870,2,0,B|388:260,1,65,2|0,0:0|0:0,0:0:0:0:
344,308,251524,5,0,0:0:0:0:
284,332,251851,2,0,B|216:332|168:252|220:192,1,195
92,180,253485,2,0,B|124:124,1,65,2|0,0:0|0:0,0:0:0:0:
168,76,254139,1,0,0:0:0:0:
228,52,254466,2,0,B|296:52|344:132|292:192,1,195
160,192,256099,2,0,B|96:192,1,65,2|0,0:0|0:0,0:0:0:0:
76,256,256753,5,0,0:0:0:0:
120,304,257079,2,0,B|84:360|12:368,2,130
176,268,258713,2,0,B|240:256,1,65,2|0,0:0|0:0,0:0:0:0:
304,236,259367,2,0,B|372:216|384:143,1,130,0|2,0:0|0:0,0:0:0:0:
256,112,260674,1,0,0:0:0:0:
140,52,261328,2,0,B|80:80,1,65,2|0,0:0|0:0,0:0:0:0:
40,132,261981,5,0,0:0:0:0:
16,192,262308,1,0,0:0:0:0:
40,252,262635,2,0,B|68:312|136:332,1,130,2|0,0:0|0:0,0:0:0:0:
160,204,263942,2,0,B|140:144,2,65,2|0|0,0:0|0:0|0:0,0:0:0:0:
200,256,264923,2,0,B|256:288,1,65
320,304,265576,2,0,B|388:296|448:256|464:192,1,195,0|2,0:0|0:0,0:0:0:0:
372,100,267210,6,0,B|420:56,2,65,0|0|2,0:0|0:0|0:0,0:0:0:0:
312,128,268191,1,0,0:0:0:0:
248,136,268517,2,0,B|256:204|320:236,2,130,0|2|0,0:0|0:0|0:0,0:0:0:0:
204,88,270151,1,0,0:0:0:0:
144,60,270478,2,0,B|80:64,1,65,2|0,0:0|0:0,0:0:0:0:
20,88,271132,2,0,B|-24:156|20:208,1,130,0|2,0:0|0:0,0:0:0:0:
72,248,272112,1,0,0:0:0:0:
124,284,272439,6,0,B|96:344,2,65,0|0|2,0:0|0:0|0:0,0:0:0:0:
188,300,273419,2,0,B|256:300|316:260|332:192,1,195,0|2,0:0|0:0,0:0:0:0:
340,128,274727,1,0,0:0:0:0:
320,68,275053,1,0,0:0:0:0:
192,68,275707,2,0,B|172:128,1,65,2|0,0:0|0:0,0:0:0:0:
179,191,276360,2,0,B|196:260|256:300|324:300,1,195,0|0,0:0|0:0,0:0:0:0:
388,296,277668,5,0,0:0:0:0:
464,192,278321,2,0,B|528:192,2,65,2|0|0,0:0|0:0|0:0,0:0:0:0:
400,80,279628,2,0,B|340:56,1,65,2|0,0:0|0:0,0:0:0:0:
288,96,280282,1,0,0:0:0:0:
224,96,280609,1,0,0:0:0:0:
172,56,280936,2,0,B|112:80,2,65,2|0|0,0:0|0:0|0:0,0:0:0:0:
148,184,282243,5,2,0:0:0:0:
200,224,282570,1,0,0:0:0:0:
256,192,282896,1,4,0:0:0:0:
