osu file format v13

[General]
AudioFilename: Family Portrait.mp3
AudioLeadIn: 1500
PreviewTime: 62635
Countdown: 0
SampleSet: Normal
StackLeniency: 0.7
Mode: 0
LetterboxInBreaks: 0
WidescreenStoryboard: 0

[Editor]
Bookmarks: 21459,94661,157406,241066,282896
DistanceSpacing: 1
BeatDivisor: 4
GridSize: 4
TimelineZoom: 0.9

[Metadata]
Title:Family Portrait
TitleUnicode:Family Portrait
Artist:P!nk
ArtistUnicode:P!nk
Creator:Ylinestra44
Version:Hard
Source:
Tags:Missundaztood Pink
BeatmapID:157734
BeatmapSetID:51386

[Difficulty]
HPDrainRate:6
CircleSize:4.5
OverallDifficulty:6
ApproachRate:7
SliderMultiplier:1.6
SliderTickRate:2

[Events]
//Background and Video events
0,0,"wpapers_ru_P.nk.jpg",0,0
//Break Periods
2,84404,93761
2,147149,156506
2,230809,240166
//Storyboard Layer 0 (Background)
//Storyboard Layer 1 (Fail)
//Storyboard Layer 2 (Pass)
//Storyboard Layer 3 (Foreground)
//Storyboard Sound Samples
//Background Colour Transformations
3,100,163,162,255

[TimingPoints]
544,653.59477124183,4,1,1,33,1,0
870,-100,4,2,1,50,0,0
1851,-100,4,1,1,33,0,0
2177,-100,4,2,1,50,0,0
2831,-100,4,2,1,30,0,0
3158,-100,4,1,1,33,0,0
3485,-100,4,2,1,50,0,0
4465,-100,4,1,1,33,0,0
4792,-100,4,2,1,50,0,0
5445,-100,4,2,1,30,0,0
5772,-100,4,1,1,33,0,0
6099,-100,4,2,1,50,0,0
7079,-100,4,1,1,33,0,0
7406,-100,4,2,1,50,0,0
8060,-100,4,2,1,30,0,0
8387,-100,4,1,1,33,0,0
8713,-100,4,2,1,50,0,0
11001,-100,4,2,1,30,0,0
11655,-100,4,2,1,50,0,0
12308,-100,4,1,1,33,0,0
12635,-100,4,2,1,50,0,0
13289,-100,4,2,1,30,0,0
13615,-100,4,1,1,33,0,0
13942,-100,4,2,1,50,0,0
14923,-100,4,1,1,33,0,0
15249,-100,4,2,1,50,0,0
16230,-100,4,1,1,33,0,0
16557,-100,4,2,1,50,0,0
17537,-100,4,1,1,33,0,0
17864,-100,4,2,1,30,0,0
18191,-100,4,2,1,50,0,0
18844,-100,4,1,1,33,0,0
19171,-100,4,2,1,50,0,0
19825,-100,4,2,1,30,0,0
20151,-100,4,1,1,33,0,0
20315,-100,4,2,1,50,0,0
21459,-100,4,2,1,30,0,0
21785,-100,4,2,1,50,0,0
24073,-100,4,1,1,33,0,0
24400,-100,4,2,1,50,0,0
26687,-100,4,1,1,33,0,0
27014,-100,4,2,1,50,0,0
29302,-100,4,1,1,33,0,0
29955,-100,4,2,1,50,0,0
31916,-100,4,1,1,33,0,0
32243,-100,4,2,1,50,0,0
34530,-100,4,1,1,33,0,0
34857,-100,4,2,1,50,0,0
37145,-100,4,1,1,33,0,0
37472,-100,4,2,1,50,0,0
39759,-100,4,1,1,33,0,0
40086,-100,4,2,1,50,0,0
42374,-100,4,2,1,30,0,0
42700,-100,4,2,1,50,0,0
44988,-100,4,1,1,33,0,0
45315,-100,4,2,1,50,0,0
47602,-100,4,1,1,33,0,0
47929,-100,4,2,1,50,0,0
50217,-100,4,1,1,33,0,0
50544,-100,4,2,1,50,0,0
52831,-100,4,1,1,33,0,0
53158,-100,4,2,1,50,0,0
54792,-100,4,2,1,40,0,0
55772,-100,4,2,1,50,0,0
56753,-100,4,2,1,40,0,0
57733,-100,4,2,1,50,0,0
58060,-100,4,1,1,33,0,0
58387,-100,4,2,1,30,0,0
58713,-100,4,2,1,30,0,0
62635,-100,4,2,1,50,0,0
63289,-80,4,2,1,60,0,1
63615,-80,4,2,1,80,0,1
64596,-80,4,1,1,37,0,1
65249,-80,4,2,1,80,0,1
65903,-80,4,2,1,60,0,1
66230,-80,4,2,1,80,0,1
67210,-80,4,1,1,37,0,1
67864,-80,4,2,1,80,0,1
68517,-80,4,1,1,37,0,1
68844,-80,4,2,1,80,0,1
69825,-80,4,1,1,37,0,1
70478,-80,4,2,1,80,0,1
71132,-80,4,1,1,37,0,1
71785,-80,4,2,1,80,0,1
72439,-80,4,1,1,37,0,1
73093,-80,4,2,1,60,0,1
73746,-80,4,2,1,60,0,1
74073,-80,4,2,1,80,0,1
75053,-80,4,1,1,37,0,1
75707,-80,4,2,1,80,0,1
76360,-80,4,2,1,60,0,1
76687,-80,4,2,1,80,0,1
77668,-80,4,1,1,37,0,1
78321,-80,4,2,1,80,0,1
78975,-80,4,1,1,37,0,1
79302,-80,4,2,1,80,0,1
80282,-80,4,1,1,37,0,1
80936,-80,4,2,1,80,0,1
81589,-80,4,1,1,37,0,1
82243,-80,4,2,1,80,0,1
82896,-80,4,1,1,37,0,1
83550,-80,4,2,1,80,0,1
83877,-80,4,1,1,37,0,1
84204,-100,4,2,1,30,0,0
94988,-100,4,2,1,50,0,0
97276,-100,4,1,1,33,0,0
97602,-100,4,2,1,50,0,0
102504,-100,4,1,1,33,0,0
102668,-100,4,2,1,50,0,0
103158,-100,4,2,1,30,0,0
104465,-100,4,2,1,50,0,0
105119,-100,4,1,1,30,0,0
105772,-100,4,2,1,50,0,0
107733,-100,4,1,1,33,0,0
108060,-100,4,2,1,50,0,0
108877,-100,4,2,1,5,0,0
109040,-100,4,2,1,50,0,0
110347,-100,4,1,1,33,0,0
111001,-100,4,2,1,50,0,0
112962,-100,4,2,1,37,0,0
113779,-100,4,2,1,50,0,0
114269,-100,4,2,1,37,0,0
114923,-100,4,2,1,50,0,0
115576,-100,4,2,1,30,0,0
115903,-100,4,2,1,50,0,0
117537,-100,4,2,1,40,0,0
118517,-100,4,2,1,50,0,0
119498,-100,4,2,1,40,0,0
120315,-100,4,2,1,50,0,0
120805,-100,4,1,1,33,0,0
121132,-100,4,2,1,30,0,0
121459,-100,4,2,1,30,0,0
125380,-100,4,2,1,50,0,0
126034,-80,4,2,1,60,0,1
126360,-80,4,2,1,80,0,1
127341,-80,4,1,1,37,0,1
127994,-80,4,2,1,80,0,1
128648,-80,4,2,1,60,0,1
128975,-80,4,2,1,80,0,1
129955,-80,4,1,1,37,0,1
130609,-80,4,2,1,80,0,1
131262,-80,4,1,1,37,0,1
131589,-80,4,2,1,80,0,1
132570,-80,4,1,1,37,0,1
133223,-80,4,2,1,80,0,1
133877,-80,4,1,1,37,0,1
134530,-80,4,2,1,80,0,1
135184,-80,4,1,1,37,0,1
135838,-80,4,2,1,80,0,1
136491,-80,4,2,1,60,0,1
136818,-80,4,2,1,80,0,1
137798,-80,4,1,1,37,0,1
138452,-80,4,2,1,80,0,1
139106,-80,4,2,1,60,0,1
139432,-80,4,2,1,80,0,1
140413,-80,4,1,1,37,0,1
141066,-80,4,2,1,80,0,1
141720,-80,4,1,1,37,0,1
142047,-80,4,2,1,80,0,1
143027,-80,4,1,1,37,0,1
143681,-80,4,2,1,80,0,1
144334,-80,4,1,1,37,0,1
144988,-80,4,2,1,80,0,1
145642,-80,4,1,1,37,0,1
146295,-80,4,2,1,80,0,1
146622,-80,4,1,1,37,0,1
146949,-100,4,2,1,50,0,0
159204,-100,4,2,1,5,0,0
159367,-100,4,2,1,50,0,0
160021,-100,4,1,1,37,0,0
160347,-100,4,2,1,50,0,0
161164,-100,4,2,1,5,0,0
161328,-100,4,2,1,50,0,0
162635,-100,4,1,1,37,0,0
162962,-100,4,2,1,50,0,0
164106,-100,4,2,1,5,0,0
164269,-100,4,2,1,50,0,0
177014,-100,4,1,1,33,0,0
177668,-100,4,2,1,50,0,0
186164,-100,4,1,1,37,0,0
186491,-100,4,2,1,50,0,0
187472,-100,4,1,1,37,0,0
188125,-100,4,2,1,50,0,0
188779,-80,4,2,1,60,0,1
189106,-80,4,2,1,80,0,1
190086,-80,4,1,1,37,0,1
190740,-80,4,2,1,80,0,1
191393,-80,4,2,1,60,0,1
191720,-80,4,2,1,80,0,1
192700,-80,4,1,1,37,0,1
193354,-80,4,2,1,80,0,1
194008,-80,4,2,1,60,0,1
194334,-80,4,2,1,80,0,1
195315,-80,4,1,1,37,0,1
195968,-80,4,2,1,80,0,1
196622,-80,4,1,1,37,0,1
196949,-80,4,2,1,80,0,1
197929,-80,4,1,1,37,0,1
198583,-80,4,2,1,80,0,1
199236,-80,4,2,1,60,0,1
199563,-80,4,2,1,80,0,1
200544,-80,4,1,1,37,0,1
201197,-80,4,2,1,80,0,1
201851,-80,4,2,1,60,0,1
202177,-80,4,2,1,80,0,1
203158,-80,4,1,1,37,0,1
203811,-80,4,2,1,80,0,1
204465,-80,4,2,1,60,0,1
205119,-80,4,2,1,80,0,1
207079,-80,4,1,1,37,0,1
207406,-80,4,2,1,80,0,1
208387,-80,4,1,1,37,0,1
208713,-80,4,2,1,80,0,1
209530,-80,4,2,1,80,0,0
209694,-80,4,2,1,60,0,1
210021,-80,4,2,1,80,0,1
212308,-80,4,2,1,60,0,1
212635,-80,4,2,1,80,0,1
213615,-80,4,1,1,37,0,1
214106,-80,4,2,1,80,0,1
214923,-80,4,2,1,60,0,1
215249,-80,4,2,1,80,0,1
216230,-80,4,1,1,37,0,1
216883,-80,4,2,1,80,0,1
217537,-80,4,1,1,37,0,1
217864,-80,4,2,1,80,0,1
218844,-80,4,1,1,37,0,1
219498,-80,4,2,1,80,0,1
220151,-80,4,2,1,60,0,1
220478,-80,4,2,1,80,0,1
221459,-80,4,1,1,37,0,1
222112,-80,4,2,1,80,0,1
222766,-80,4,2,1,60,0,1
223093,-80,4,2,1,80,0,1
224073,-80,4,1,1,37,0,1
224727,-80,4,2,1,80,0,1
225380,-80,4,2,1,40,0,1
225707,-80,4,2,1,80,0,1
226687,-80,4,1,1,37,0,1
227341,-80,4,2,1,80,0,1
227994,-80,4,1,1,37,0,1
228321,-80,4,2,1,70,0,1
229302,-80,4,1,1,37,0,1
229955,-80,4,2,1,70,0,1
230282,-80,4,1,1,33,0,1
230609,-100,4,2,1,30,0,0
241066,-100,4,1,1,33,0,0
241720,-100,4,2,1,45,0,0
242374,-100,4,1,1,33,0,0
243027,-100,4,2,1,45,0,0
243681,-100,4,1,1,33,0,0
244008,-100,4,2,1,45,0,0
244988,-100,4,1,1,33,0,0
245315,-100,4,2,1,45,0,0
250217,-100,4,1,1,33,0,0
250870,-100,4,2,1,45,0,0
251524,-100,4,1,1,25,0,0
251851,-100,4,2,1,40,0,0
254138,-100,4,1,1,25,0,0
254465,-100,4,2,1,40,0,0
256753,-100,4,1,1,25,0,0
257079,-100,4,2,1,40,0,0
259367,-100,4,1,1,25,0,0
259694,-100,4,2,1,40,0,0
261981,-100,4,1,1,25,0,0
262308,-100,4,2,1,35,0,0
263289,-100,4,1,1,25,0,0
263942,-100,4,2,1,35,0,0
264596,-100,4,1,1,25,0,0
264759,-100,4,2,1,35,0,0
265903,-100,4,1,1,25,0,0
266557,-100,4,2,1,35,0,0
267210,-100,4,1,1,25,0,0
267864,-100,4,2,1,35,0,0
268517,-100,4,1,1,25,0,0
269171,-100,4,2,1,35,0,0
269825,-100,4,1,1,25,0,0
270151,-100,4,2,1,35,0,0
271132,-100,4,1,1,25,0,0
271785,-100,4,2,1,35,0,0
272439,-100,4,1,1,15,0,0
272766,-100,4,2,1,25,0,0
275053,-100,4,1,1,15,0,0
275380,-100,4,2,1,25,0,0
277668,-100,4,1,1,15,0,0
277994,-100,4,2,1,25,0,0
282896,-100,4,2,1,15,0,0

[Colours]
Combo1 : 58,58,58
Combo2 : 255,136,196

[HitObjects]
52,232,544,6,0,B|84:312|176:316,1,160,0|2,0:0|0:0,0:0:0:0:
336,316,1851,2,0,B|428:311|460:231,1,160,0|2,0:0|0:0,0:0:0:0:
460,152,2831,1,2,0:0:0:0:
440,116,2994,1,0,0:0:0:0:
404,96,3158,2,0,B|320:72|256:132,1,160,0|2,0:0|0:0,0:0:0:0:
108,96,4465,2,0,B|192:72|256:132,1,160,0|2,0:0|0:0,0:0:0:0:
300,200,5445,1,2,0:0:0:0:
308,240,5609,1,0,0:0:0:0:
300,280,5772,6,0,B|256:348|168:360,1,160,0|2,0:0|0:0,0:0:0:0:
20,296,7079,1,0,0:0:0:0:
64,228,7406,1,0,0:0:0:0:
140,196,7733,1,2,0:0:0:0:
220,192,8060,1,2,0:0:0:0:
260,188,8223,1,0,0:0:0:0:
300,176,8387,2,0,B|388:152|404:68,2,160,0|2|0,0:0|0:0|0:0,0:0:0:0:
256,192,10021,12,4,11001,0:0:0:0:
256,192,11655,5,2,0:0:0:0:
176,56,12308,1,0,0:0:0:0:
100,36,12635,1,0,0:0:0:0:
120,112,12962,1,2,0:0:0:0:
176,172,13289,5,0,0:0:0:0:
212,192,13452,1,2,0:0:0:0:
251,199,13615,2,0,B|336:208|376:288,1,160,0|2,0:0|0:0,0:0:0:0:
232,356,14923,1,0,0:0:0:0:
216,276,15249,6,0,B|184:248|208:192|256:192|256:192|304:192|328:136|296:108,1,240,2|0,0:0|0:0,0:0:0:0:
216,108,16557,2,0,B|184:136|208:192|256:192|256:192|304:192|328:248|296:276,1,240,2|0,0:0|0:0,0:0:0:0:
236,328,17864,5,0,0:0:0:0:
156,320,18191,1,2,0:0:0:0:
88,280,18517,1,0,0:0:0:0:
56,208,18844,1,0,0:0:0:0:
64,128,19171,1,0,0:0:0:0:
128,80,19498,2,0,B|160:56|204:52,1,80,2|0,0:0|0:0,0:0:0:0:
276,88,20151,5,0,0:0:0:0:
312,108,20315,1,0,0:0:0:0:
320,148,20478,1,2,0:0:0:0:
296,180,20642,1,0,0:0:0:0:
256,192,20805,1,2,0:0:0:0:
216,204,20969,1,2,0:0:0:0:
192,236,21132,1,2,0:0:0:0:
200,276,21296,1,2,0:0:0:0:
236,296,21459,6,0,B|280:304|304:336,1,80,4|0,0:0|0:0,0:0:0:0:
372,296,22112,2,0,B|412:284|428:244,1,80,2|0,0:0|0:0,0:0:0:0:
512,104,22766,2,0,B|472:116|456:156,1,80,2|0,0:0|0:0,0:0:0:0:
380,176,23419,1,2,0:0:0:0:
264,64,24073,6,0,B|220:64|192:36,1,80
112,52,24727,2,0,P|76:76|60:108,1,80,2|0,0:0|0:0,0:0:0:0:
16,284,25380,2,0,P|125:266|124:156,1,240,2|0,0:0|0:0,0:0:0:0:
188,108,26687,1,0,0:0:0:0:
288,232,27014,5,0,0:0:0:0:
348,288,27341,2,0,B|379:314|421:303,1,80,2|0,0:0|0:0,0:0:0:0:
484,252,27994,2,0,B|491:211|460:180,1,80,2|0,0:0|0:0,0:0:0:0:
384,152,28648,2,0,B|344:141|322:104,1,80,2|0,0:0|0:0,0:0:0:0:
296,72,29138,1,0,0:0:0:0:
260,52,29302,2,0,B|225:36|181:42,2,80,0|0|2,0:0|0:0|0:0,0:0:0:0:
332,200,30282,2,0,P|291:295|167:321,1,240,0|2,0:0|0:0,0:0:0:0:
24,244,31916,5,0,0:0:0:0:
60,172,32243,1,0,0:0:0:0:
124,124,32570,2,0,P|160:112|204:108,1,80,2|0,0:0|0:0,0:0:0:0:
256,260,33223,2,0,P|295:256|333:243,1,80,2|0,0:0|0:0,0:0:0:0:
408,208,33877,1,2,0:0:0:0:
332,68,34530,6,0,P|296:52|256:56,1,80
208,120,35184,2,0,P|244:136|283:132,1,80,2|0,0:0|0:0,0:0:0:0:
132,80,35838,2,0,P|61:150|79:164,1,160,2|2,0:0|0:0,0:0:0:0:
128,312,37145,6,0,P|164:328|204:328,1,80
308,328,37798,2,0,P|344:311|384:312,1,80,2|0,0:0|0:0,0:0:0:0:
460,208,38452,2,0,P|472:168|464:132,1,80,2|0,0:0|0:0,0:0:0:0:
344,84,39106,2,0,P|320:120|320:156,1,80,2|0,0:0|0:0,0:0:0:0:
172,120,39759,2,0,P|136:104|96:104,1,80
84,256,40413,2,0,P|68:292|68:332,1,80,2|0,0:0|0:0,0:0:0:0:
264,296,41066,2,0,P|328:289|408:336,1,160,2|2,0:0|0:0,0:0:0:0:
480,192,42374,5,4,0:0:0:0:
416,144,42700,1,0,0:0:0:0:
380,128,42864,1,0,0:0:0:0:
340,132,43027,2,0,P|296:132|260:120,2,80,2|0|2,0:0|0:0|0:0,0:0:0:0:
208,36,44008,1,0,0:0:0:0:
180,64,44172,1,0,0:0:0:0:
164,100,44334,2,0,P|168:156|180:180,1,80,2|0,0:0|0:0,0:0:0:0:
228,240,44988,1,0,0:0:0:0:
200,316,45315,5,0,0:0:0:0:
164,328,45478,2,0,L|144:364,2,40,0|2|0,0:0|0:0|0:0,0:0:0:0:
112,308,45968,2,0,L|76:324,2,40,0|0|2,0:0|0:0|0:0,0:0:0:0:
76,264,46459,2,0,L|16:252,2,60,0|0|2,0:0|0:0|0:0,0:0:0:0:
192,156,47602,1,0,0:0:0:0:
260,116,47929,1,0,0:0:0:0:
380,128,48256,6,0,P|368:172|348:200,1,80,2|0,0:0|0:0,0:0:0:0:
269,208,48910,2,0,P|287:244|316:272,1,80,2|0,0:0|0:0,0:0:0:0:
304,132,49563,2,0,P|232:140|168:200,1,160,2|0,0:0|0:0,0:0:0:0:
140,276,50544,1,0,0:0:0:0:
360,288,50870,6,0,P|398:310|435:317,1,80,2|0,0:0|0:0,0:0:0:0:
268,287,51524,2,0,P|234:306|206:335,1,80,2|0,0:0|0:0,0:0:0:0:
315,208,52177,2,0,P|315:169|304:131,1,80,2|0,0:0|0:0,0:0:0:0:
248,76,52831,1,0,0:0:0:0:
92,40,53158,5,0,0:0:0:0:
68,72,53321,1,0,0:0:0:0:
52,108,53485,2,0,P|48:148|56:188,1,80,2|0,0:0|0:0,0:0:0:0:
28,260,54138,1,2,0:0:0:0:
66,267,54301,1,0,0:0:0:0:
95,294,54464,1,0,0:0:0:0:
120,324,54628,1,0,0:0:0:0:
156,340,54792,1,4,0:0:0:0:
256,216,55119,1,4,0:0:0:0:
356,340,55445,1,4,0:0:0:0:
500,268,55772,5,0,0:0:0:0:
480,232,55935,1,0,0:0:0:0:
452,204,56098,1,2,0:0:0:0:
416,184,56262,1,0,0:0:0:0:
376,176,56425,1,0,0:0:0:0:
216,192,56753,2,0,P|176:204|148:228,1,80,4|4,0:0|0:0,0:0:0:0:
276,157,57406,2,0,P|285:116|278:80,1,80,4|0,0:0|0:0,0:0:0:0:
276,226,58060,2,0,P|306:255|341:267,1,80
256,192,58713,12,2,61981,0:0:0:0:
256,192,62635,5,2,0:0:0:0:
256,192,62798,1,0,0:0:0:0:
256,192,62962,1,2,0:0:0:0:
128,272,63289,6,0,P|159:309|208:312,1,100,4|0,0:0|0:0,0:0:0:0:
256,300,63779,1,0,0:0:0:0:
304,312,63942,2,0,P|352:309|383:272,1,100,8|0,0:0|0:0,0:0:0:0:
308,208,64596,1,0,0:0:0:0:
204,208,64923,1,0,0:0:0:0:
108,184,65249,5,8,0:0:0:0:
80,140,65413,1,0,0:0:0:0:
88,92,65576,1,2,0:0:0:0:
128,60,65740,1,0,0:0:0:0:
171,79,65903,2,0,P|220:77|260:47,1,100,4|0,0:0|0:0,0:0:0:0:
312,132,66557,2,0,P|351:102|400:99,1,100,8|0,0:0|0:0,0:0:0:0:
480,164,67210,1,0,0:0:0:0:
432,252,67537,1,0,0:0:0:0:
260,300,67864,6,0,P|204:296|164:316,1,100,8|0,0:0|0:0,0:0:0:0:
120,336,68354,1,0,0:0:0:0:
104,288,68517,2,0,P|98:238|69:198,1,100,0|2,0:0|0:0,0:0:0:0:
184,66,69171,2,0,P|154:164|69:198,1,200,8|0,0:0|0:0,0:0:0:0:
88,100,70151,1,0,0:0:0:0:
284,76,70478,6,0,P|332:88|372:120,1,100,8|0,0:0|0:0,0:0:0:0:
400,160,70968,1,0,0:0:0:0:
420,204,71132,2,0,P|444:248|488:272,1,100
328,320,71785,2,0,P|280:316|236:344,1,100,8|0,0:0|0:0,0:0:0:0:
136,340,72439,1,0,0:0:0:0:
52,288,72766,1,0,0:0:0:0:
120,100,73093,5,2,0:0:0:0:
120,100,73256,1,0,0:0:0:0:
120,100,73419,1,2,0:0:0:0:
156,192,73746,6,0,P|200:164|216:116,1,100,4|0,0:0|0:0,0:0:0:0:
256,88,74236,1,0,0:0:0:0:
296,120,74400,2,0,P|314:166|356:192,1,100,8|0,0:0|0:0,0:0:0:0:
392,100,75053,1,0,0:0:0:0:
456,176,75380,1,0,0:0:0:0:
416,268,75707,5,8,0:0:0:0:
376,296,75870,1,0,0:0:0:0:
328,304,76034,1,2,0:0:0:0:
280,288,76197,1,0,0:0:0:0:
252,244,76360,2,0,P|200:244|164:272,1,100,4|0,0:0|0:0,0:0:0:0:
0,212,77014,2,0,P|52:212|88:184,1,100,8|0,0:0|0:0,0:0:0:0:
152,108,77668,1,0,0:0:0:0:
244,72,77994,1,0,0:0:0:0:
448,120,78321,6,0,P|411:153|363:159,1,100,8|0,0:0|0:0,0:0:0:0:
316,180,78811,1,0,0:0:0:0:
292,224,78975,2,0,P|244:252|200:248,1,100,0|2,0:0|0:0,0:0:0:0:
48,176,79628,2,0,P|146:172|200:248,1,200,8|0,0:0|0:0,0:0:0:0:
100,260,80609,1,0,0:0:0:0:
220,108,80936,6,0,P|268:80|312:76,1,100,8|0,0:0|0:0,0:0:0:0:
512,100,81589,2,0,P|469:126|420:132,1,100,0|0,0:0|0:0,0:0:0:0:
220,108,82243,2,0,P|166:114|128:140,1,100,8|0,0:0|0:0,0:0:0:0:
88,232,82896,1,0,0:0:0:0:
164,296,83223,1,0,0:0:0:0:
424,232,83550,1,8,0:0:0:0:
348,296,83877,1,0,0:0:0:0:
256,192,84204,5,4,0:0:0:0:
112,160,94661,5,4,0:0:0:0:
184,124,94988,1,0,0:0:0:0:
216,100,95151,1,0,0:0:0:0:
244,72,95315,2,0,P|288:76|320:92,1,80,2|0,0:0|0:0,0:0:0:0:
348,120,95805,1,0,0:0:0:0:
344,160,95968,2,0,P|375:183|414:192,1,80,2|0,0:0|0:0,0:0:0:0:
496,192,96622,1,2,0:0:0:0:
388,312,97276,1,0,0:0:0:0:
252,288,97602,5,0,0:0:0:0:
124,236,97929,2,0,L|88:220,1,40,2|0,0:0|0:0,0:0:0:0:
188,192,98256,2,0,L|224:172,1,40,0|0,0:0|0:0,0:0:0:0:
124,148,98583,2,0,P|52:144|4:216,1,160,2|2,0:0|0:0,0:0:0:0:
124,147,99563,2,0,P|191:113|260:156,1,160
304,220,100544,6,0,P|336:248|372:260,1,80,2|0,0:0|0:0,0:0:0:0:
412,264,101034,1,0,0:0:0:0:
452,256,101197,1,2,0:0:0:0:
380,132,101524,1,0,0:0:0:0:
240,104,101851,2,0,P|196:96|164:80,1,80,2|0,0:0|0:0,0:0:0:0:
128,68,102341,1,0,0:0:0:0:
92,80,102504,2,0,L|52:96,2,40,0|0|0,0:0|0:0|0:0,0:0:0:0:
116,156,103158,5,4,0:0:0:0:
276,276,103485,1,4,0:0:0:0:
116,156,103811,1,4,0:0:0:0:
348,96,104138,1,4,0:0:0:0:
508,216,104465,1,2,0:0:0:0:
312,186,105119,1,0,0:0:0:0:
196,296,105772,6,0,P|156:280|132:252,1,80,2|0,0:0|0:0,0:0:0:0:
116,216,106262,1,0,0:0:0:0:
102,174,106426,2,0,P|88:136|56:112,1,80,2|0,0:0|0:0,0:0:0:0:
24,188,107079,1,2,0:0:0:0:
200,120,107406,2,0,P|240:112|280:116,1,80
356,132,108060,6,0,L|392:116,2,40,0|0|2,0:0|0:0|0:0,0:0:0:0:
244,188,108550,2,0,P|279:235|334:255,1,120,0|2,0:0|0:0,0:0:0:0:
244,188,109204,2,0,P|204:176|161:186,1,80
41,232,109694,2,0,P|117:242|166:184,1,160,2|0,0:0|0:0,0:0:0:0:
304,100,111001,6,0,P|392:105|395:162,1,160,2|2,0:0|0:0,0:0:0:0:
384,196,111818,1,0,0:0:0:0:
367,232,111981,2,0,P|356:270|359:309,1,80,0|2,0:0|0:0,0:0:0:0:
380,344,112472,1,0,0:0:0:0:
492,276,112798,5,0,0:0:0:0:
492,276,112962,1,4,0:0:0:0:
360,116,113289,1,4,0:0:0:0:
192,40,113615,1,4,0:0:0:0:
192,40,113779,1,0,0:0:0:0:
192,40,113942,1,2,0:0:0:0:
60,352,114269,1,4,0:0:0:0:
228,276,114596,1,4,0:0:0:0:
360,116,114923,1,2,0:0:0:0:
480,288,115576,6,0,P|448:317|413:328,1,80,4|0,0:0|0:0,0:0:0:0:
376,332,116066,1,0,0:0:0:0:
336,336,116230,2,0,P|298:348|270:376,1,80,2|0,0:0|0:0,0:0:0:0:
208,324,116883,1,2,0:0:0:0:
172,308,117047,1,0,0:0:0:0:
132,300,117210,1,0,0:0:0:0:
92,300,117374,1,0,0:0:0:0:
52,312,117537,1,4,0:0:0:0:
184,192,117864,1,4,0:0:0:0:
52,72,118191,1,4,0:0:0:0:
208,32,118517,5,0,0:0:0:0:
224,68,118681,1,0,0:0:0:0:
256,92,118844,1,2,0:0:0:0:
288,68,119008,1,0,0:0:0:0:
304,32,119171,1,0,0:0:0:0:
460,72,119498,1,4,0:0:0:0:
328,192,119825,1,4,0:0:0:0:
460,312,120151,1,4,0:0:0:0:
460,312,120315,1,0,0:0:0:0:
460,312,120478,1,0,0:0:0:0:
408,192,120805,2,0,L|328:192,1,80
256,192,121459,12,0,124727,0:0:0:0:
256,192,125380,5,2,0:0:0:0:
256,192,125544,1,0,0:0:0:0:
256,192,125707,1,2,0:0:0:0:
112,108,126034,6,0,P|156:88|208:88,1,100,4|0,0:0|0:0,0:0:0:0:
256,100,126524,1,0,0:0:0:0:
304,112,126687,2,0,P|353:112|398:91,1,100,8|0,0:0|0:0,0:0:0:0:
472,160,127341,1,0,0:0:0:0:
424,248,127668,1,0,0:0:0:0:
336,292,127994,5,8,0:0:0:0:
284,296,128158,1,0,0:0:0:0:
236,300,128321,2,0,P|208:304|188:316,1,50,2|0,0:0|0:0,0:0:0:0:
147,344,128648,2,0,P|102:363|53:356,1,100,4|0,0:0|0:0,0:0:0:0:
88,264,129302,2,0,P|71:213|40:179,1,100,8|0,0:0|0:0,0:0:0:0:
92,92,129955,1,0,0:0:0:0:
188,60,130282,1,0,0:0:0:0:
388,64,130609,6,0,P|400:116|388:160,1,100,8|0,0:0|0:0,0:0:0:0:
364,204,131099,1,0,0:0:0:0:
396,240,131262,2,0,P|396:291|412:336,1,100,0|2,0:0|0:0,0:0:0:0:
228,332,131916,2,0,P|319:367|412:336,1,200,8|0,0:0|0:0,0:0:0:0:
488,272,132896,1,0,0:0:0:0:
360,120,133223,6,0,P|316:96|264:92,1,100,8|0,0:0|0:0,0:0:0:0:
220,104,133713,1,0,0:0:0:0:
172,115,133877,2,0,P|122:111|78:87,1,100,0|0,0:0|0:0,0:0:0:0:
212,172,134530,2,0,P|232:217|233:266,1,100,8|0,0:0|0:0,0:0:0:0:
160,332,135184,1,0,0:0:0:0:
136,236,135511,1,0,0:0:0:0:
376,164,135838,5,2,0:0:0:0:
376,164,136001,1,0,0:0:0:0:
376,164,136164,1,2,0:0:0:0:
340,284,136491,6,0,P|292:308|244:312,1,100,4|0,0:0|0:0,0:0:0:0:
196,300,136981,1,0,0:0:0:0:
164,260,137145,2,0,P|150:212|119:172,1,100,8|0,0:0|0:0,0:0:0:0:
64,256,137798,1,0,0:0:0:0:
20,164,138125,1,0,0:0:0:0:
76,80,138452,6,0,L|124:64,1,50,8|0,0:0|0:0,0:0:0:0:
172,56,138779,1,2,0:0:0:0:
220,64,138942,1,0,0:0:0:0:
268,84,139106,2,0,P|316:104|364:100,1,100,4|0,0:0|0:0,0:0:0:0:
464,108,139759,2,0,P|472:160|456:204,1,100,8|0,0:0|0:0,0:0:0:0:
384,276,140413,1,0,0:0:0:0:
288,296,140740,1,0,0:0:0:0:
64,248,141066,6,0,P|88:204|128:176,1,100,8|0,0:0|0:0,0:0:0:0:
176,164,141557,1,0,0:0:0:0:
224,152,141720,2,0,P|280:136|316:112,1,100,0|2,0:0|0:0,0:0:0:0:
451,91,142374,2,0,P|373:43|313:113,1,200,8|0,0:0|0:0,0:0:0:0:
396,172,143354,1,0,0:0:0:0:
224,68,143681,6,0,P|177:55|127:63,1,100,8|0,0:0|0:0,0:0:0:0:
24,232,144334,2,0,P|36:278|68:318,1,100,0|0,0:0|0:0,3:0:0:0:
267,323,144988,2,0,P|300:288|319:241,1,100,8|0,0:0|0:0,0:0:0:0:
352,148,145642,1,0,0:0:0:0:
420,76,145968,1,0,0:0:0:0:
160,148,146295,1,8,0:0:0:0:
92,76,146621,1,0,0:0:0:0:
256,192,146949,5,4,0:0:0:0:
32,112,157406,6,0,P|44:148|76:180,1,80,4|0,0:0|0:0,0:0:0:0:
184,232,158060,2,0,L|224:244,1,40,2|0,0:0|0:0,0:0:0:0:
124,272,158387,2,0,L|88:292,2,40,0|0|2,0:0|0:0|0:0,0:0:0:0:
260,184,158877,2,0,P|336:156|376:160,1,120,0|2,0:0|0:0,0:0:0:0:
412,168,159531,5,0,0:0:0:0:
451,171,159694,1,0,0:0:0:0:
490,162,159857,1,0,0:0:0:0:
512,128,160021,2,0,P|496:92|468:64,1,80,0|0,0:0|0:0,0:0:0:0:
352,72,160511,2,0,L|392:76,1,40,0|2,0:0|0:0,0:0:0:0:
280,32,160838,2,0,P|208:44|172:76,1,120,0|2,0:0|0:0,0:0:0:0:
128,140,161655,1,0,0:0:0:0:
56,176,161981,5,2,0:0:0:0:
68,216,162145,1,0,0:0:0:0:
96,244,162308,1,0,0:0:0:0:
136,256,162472,1,0,0:0:0:0:
176,251,162635,2,0,P|215:255|253:269,1,80,0|0,0:0|0:0,0:0:0:0:
352,316,163125,2,0,L|316:300,1,40,0|2,0:0|0:0,0:0:0:0:
424,320,163452,2,0,L|464:316,1,40
315,299,163779,2,0,P|260:340|212:328,1,120
213,329,164432,1,0,0:0:0:0:
256,192,164596,12,2,167210,0:0:0:0:
104,116,167864,5,4,0:0:0:0:
120,120,168517,1,2,0:0:0:0:
184,268,169171,2,0,P|164:308|168:344,1,80,2|0,0:0|0:0,0:0:0:0:
344,342,169825,2,0,P|347:302|328:268,1,80,2|0,0:0|0:0,0:0:0:0:
408,116,170478,5,4,0:0:0:0:
392,120,171132,1,2,0:0:0:0:
236,144,171785,2,0,P|196:144|160:128,1,80,2|0,0:0|0:0,0:0:0:0:
276,240,172439,2,0,P|316:240|352:256,1,80,2|0,0:0|0:0,0:0:0:0:
200,308,173093,5,4,0:0:0:0:
184,304,173746,1,2,0:0:0:0:
52,216,174400,2,0,P|32:176|32:140,2,80,2|0|2,0:0|0:0|0:0,0:0:0:0:
196,144,175707,2,0,P|236:132|276:144,1,80,2|2,0:0|0:0,0:0:0:0:
197,280,176197,2,0,P|167:253|156:215,1,80,2|2,0:0|0:0,0:0:0:0:
314,211,176687,2,0,P|305:249|278:278,1,80,2|0,0:0|0:0,0:0:0:0:
236,212,177341,1,0,0:0:0:0:
96,136,177668,6,0,L|56:116,2,40,2|0|2,0:0|0:0|0:0,0:0:0:0:
164,92,178321,5,4,0:0:0:0:
180,88,178975,1,2,0:0:0:0:
340,68,179628,2,0,P|379:62|414:44,1,80,2|0,0:0|0:0,0:0:0:0:
264,128,180282,2,0,P|248:164|246:204,1,80,2|0,0:0|0:0,0:0:0:0:
348,344,180936,5,4,0:0:0:0:
332,340,181589,1,2,0:0:0:0:
176,304,182243,2,0,P|136:296|96:300,1,80,2|0,0:0|0:0,0:0:0:0:
256,224,182896,2,0,P|295:220|334:228,1,80,2|0,0:0|0:0,0:0:0:0:
500,292,183550,5,4,0:0:0:0:
496,276,184204,1,2,0:0:0:0:
492,260,184857,2,0,P|472:220|444:200,1,80,2|0,0:0|0:0,0:0:0:0:
368,176,185511,2,0,L|328:164,1,40,2|0,0:0|0:0,0:0:0:0:
288,160,185838,2,0,L|248:160,1,40,2|0,0:0|0:0,0:0:0:0:
208,164,186164,2,0,P|168:180|140:204,1,80,0|2,0:0|0:0,0:0:0:0:
56,304,186655,2,0,P|62:261|55:225,1,80,2|2,0:0|0:0,0:0:0:0:
8,104,187145,2,0,P|41:130|76:142,1,80,2|0,0:0|0:0,0:0:0:0:
156,148,187798,1,0,0:0:0:0:
256,124,188125,5,2,0:0:0:0:
256,124,188289,1,0,0:0:0:0:
256,124,188452,1,2,0:0:0:0:
348,84,188779,6,0,P|396:68|444:68,1,100,4|0,0:0|0:0,0:0:0:0:
484,100,189269,1,0,0:0:0:0:
504,148,189432,2,0,P|488:200|456:232,1,100,8|0,0:0|0:0,0:0:0:0:
321,363,190086,2,0,P|334:316|368:280,1,100,0|0,0:0|0:0,0:0:0:0:
372,180,190740,1,8,0:0:0:0:
336,144,190903,1,0,0:0:0:0:
288,128,191066,1,2,0:0:0:0:
236,124,191230,1,0,0:0:0:0:
104,136,191393,6,0,P|138:171|185:187,1,100,4|0,0:0|0:0,0:0:0:0:
236,196,191883,1,0,0:0:0:0:
284,204,192047,2,0,P|320:236|332:284,1,100,8|0,0:0|0:0,0:0:0:0:
384,91,192700,2,0,P|395:139|431:172,1,100,0|0,0:0|0:0,0:0:0:0:
484,88,193354,2,0,L|528:64,2,50,8|0|0,0:0|0:0|0:0,0:0:0:0:
304,188,194008,6,0,P|258:204|206:195,1,100,4|0,0:0|0:0,0:0:0:0:
160,176,194498,1,0,0:0:0:0:
120,148,194661,2,0,P|76:124|24:120,1,100,8|0,0:0|0:0,0:0:0:0:
212,92,195315,2,0,P|254:65|284:22,1,100,0|0,0:0|0:0,0:0:0:0:
336,112,195968,1,8,0:0:0:0:
428,148,196295,1,0,0:0:0:0:
468,240,196622,6,0,P|448:288|412:320,1,100,0|2,0:0|0:0,0:0:0:0:
312,200,197112,2,0,P|343:241|353:288,1,100,2|2,0:0|0:0,0:0:0:0:
200,320,197602,2,0,P|251:313|297:328,2,100,2|0|0,0:0|0:0|0:0,0:0:0:0:
104,348,198583,5,2,0:0:0:0:
104,348,198746,1,0,0:0:0:0:
104,348,198910,1,2,0:0:0:0:
52,264,199236,6,0,P|52:212|76:172,1,100,4|0,0:0|0:0,0:0:0:0:
120,148,199727,1,0,0:0:0:0:
168,136,199890,2,0,P|268:124|352:72,1,200,8|0,0:0|0:0,0:0:0:0:
452,72,200870,1,0,0:0:0:0:
456,172,201197,1,8,0:0:0:0:
444,220,201360,1,0,0:0:0:0:
412,260,201524,1,2,0:0:0:0:
364,276,201687,1,0,0:0:0:0:
216,256,201851,6,0,P|248:218|294:202,1,100,4|0,0:0|0:0,0:0:0:0:
344,196,202341,1,0,0:0:0:0:
368,152,202504,2,0,P|368:108|336:64,1,100,8|0,0:0|0:0,0:0:0:0:
216,256,203158,2,0,P|216:300|248:344,1,100,0|0,0:0|0:0,0:0:0:0:
312,268,203811,2,0,L|356:244,2,50,8|0|0,0:0|0:0|0:0,0:0:0:0:
132,340,204465,6,0,P|60:336|56:228,1,200,4|8,0:0|0:0,0:0:0:0:
256,192,205445,1,0,0:0:0:0:
456,155,205772,2,0,P|468:65|380:43,1,200,4|8,0:0|0:0,0:0:0:0:
284,76,206753,1,0,0:0:0:0:
200,132,207079,6,0,P|156:160|104:160,1,100,0|0,0:0|0:0,0:0:0:0:
72,128,207570,1,0,0:0:0:0:
59,176,207733,2,0,P|53:224|79:266,1,100,8|0,0:0|0:0,0:0:0:0:
176,296,208387,2,0,P|228:308|268:332,1,100,0|0,0:0|0:0,0:0:0:0:
304,368,208877,1,0,0:0:0:0:
352,364,209040,1,2,0:0:0:0:
392,336,209204,1,0,0:0:0:0:
404,288,209367,1,2,0:0:0:0:
380,244,209530,1,0,0:0:0:0:
256,192,209694,6,0,P|204:192|160:212,1,100,4|0,0:0|0:0,0:0:0:0:
124,244,210184,1,0,0:0:0:0:
80,224,210347,2,0,P|48:184|48:136,1,100,8|0,0:0|0:0,0:0:0:0:
76,96,210838,1,0,0:0:0:0:
116,68,211001,2,0,L|164:48,3,50,2|0|0|0,0:0|0:0|0:0|0:0,0:0:0:0:
212,40,211655,1,8,0:0:0:0:
260,40,211818,1,0,0:0:0:0:
308,56,211981,1,2,0:0:0:0:
348,88,212145,1,0,0:0:0:0:
384,232,212308,6,0,P|380:280|348:320,1,100,4|0,0:0|0:0,0:0:0:0:
300,332,212798,1,0,0:0:0:0:
252,316,212962,2,0,P|200:312|156:332,1,100,8|0,0:0|0:0,0:0:0:0:
108,332,213452,1,0,0:0:0:0:
60,320,213615,2,0,P|36:276|36:228,1,100
64,184,214106,1,0,0:0:0:0:
104,156,214269,2,0,L|152:136,3,50,8|0|2|0,0:0|0:0|0:0|0:0,0:0:0:0:
292,88,214923,6,0,P|344:84|392:104,1,100,4|0,0:0|0:0,0:0:0:0:
150,136,215576,2,0,P|121:96|116:47,1,100,8|0,0:0|0:0,0:0:0:0:
264,235,216230,2,0,P|243:280|204:312,2,100,0|0|8,0:0|0:0|0:0,0:0:0:0:
240,156,217210,1,0,0:0:0:0:
320,176,217537,6,0,P|368:192|416:188,1,100,0|2,0:0|0:0,0:0:0:0:
464,168,218027,1,0,0:0:0:0:
488,212,218191,2,0,P|480:276|460:304,1,100,2|2,0:0|0:0,0:0:0:0:
412,320,218681,1,2,0:0:0:0:
368,300,218844,2,0,P|324:284|272:288,1,100,0|0,0:0|0:0,0:0:0:0:
184,340,219498,5,2,0:0:0:0:
184,340,219661,1,0,0:0:0:0:
184,340,219825,1,2,0:0:0:0:
100,288,220151,6,0,P|72:244|72:196,1,100,4|0,0:0|0:0,0:0:0:0:
96,156,220642,1,0,0:0:0:0:
128,116,220805,2,0,P|126:66|99:25,1,100,8|0,0:0|0:0,0:0:0:0:
268,136,221459,2,0,P|312:160|364:168,1,100
512,16,222112,1,8,0:0:0:0:
472,44,222276,1,0,0:0:0:0:
440,84,222439,1,2,0:0:0:0:
432,132,222602,1,0,0:0:0:0:
488,272,222766,6,0,P|448:244|396:240,1,100,4|0,0:0|0:0,0:0:0:0:
348,248,223256,1,0,0:0:0:0:
308,276,223419,2,0,P|228:310|118:291,1,200,8|0,0:0|0:0,0:0:0:0:
44,228,224400,1,0,0:0:0:0:
28,328,224727,2,0,L|-20:348,2,50,8|0|0,0:0|0:0|0:0,0:0:0:0:
216,256,225380,6,0,P|260:232|288:192,1,100,4|0,0:0|0:0,0:0:0:0:
312,148,225870,1,0,0:0:0:0:
348,116,226034,2,0,P|392:95|442:96,1,100,8|0,0:0|0:0,0:0:0:0:
244,104,226687,2,0,P|199:124|149:123,1,100,0|0,0:0|0:0,0:0:0:0:
64,72,227341,1,8,0:0:0:0:
60,172,227668,1,0,0:0:0:0:
104,260,227994,6,0,P|144:296|196:304,1,100,0|0,0:0|0:0,0:0:0:0:
240,300,228485,1,0,0:0:0:0:
276,268,228648,2,0,P|320:236|364:232,1,100,8|0,0:0|0:0,0:0:0:0:
412,244,229138,1,0,0:0:0:0:
463,247,229302,2,0,P|511:236|539:195,1,100
436,128,229955,1,8,0:0:0:0:
320,84,230282,1,0,0:0:0:0:
256,192,230609,5,4,0:0:0:0:
312,156,241066,6,0,P|345:131|382:126,1,80
453,159,241720,2,0,P|477:192|482:229,1,80,2|0,0:0|0:0,0:0:0:0:
449,301,242374,2,0,P|415:325|378:330,1,80
231,270,243027,6,0,P|193:264|155:279,1,80,2|0,0:0|0:0,0:0:0:0:
124,304,243517,1,0,0:0:0:0:
92,328,243681,2,0,P|55:342|15:337,1,80,0|0,0:0|0:0,0:0:0:0:
76,188,244334,2,0,P|100:156|136:140,1,80,2|0,0:0|0:0,0:0:0:0:
296,156,244988,2,0,P|378:160|447:126,1,160,0|2,0:0|0:0,0:0:0:0:
388,276,246295,5,2,0:0:0:0:
396,196,246622,2,0,P|294:154|328:50,1,240,2|2,0:0|0:0,0:0:0:0:
368,120,247929,2,0,B|256:196|144:120,1,240,2|2,0:0|0:0,0:0:0:0:
183,50,249236,2,0,P|217:154|115:196,1,240,2|0,0:0|0:0,0:0:0:0:
124,276,250543,1,0,0:0:0:0:
52,244,250870,2,0,L|12:224,2,40,2|0|0,0:0|0:0|0:0,0:0:0:0:
196,308,251524,5,0,0:0:0:0:
276,320,251851,1,0,0:0:0:0:
356,304,252177,1,2,0:0:0:0:
420,256,252504,1,0,0:0:0:0:
448,180,252831,1,2,0:0:0:0:
452,100,253158,2,0,L|452:68,3,26.6666666666667,0|2|0|2,0:0|0:0|0:0|0:0,0:0:0:0:
396,16,253811,1,0,0:0:0:0:
236,28,254138,5,0,0:0:0:0:
152,56,254465,1,0,0:0:0:0:
96,124,254792,1,2,0:0:0:0:
84,212,255119,1,0,0:0:0:0:
116,296,255445,1,2,0:0:0:0:
192,340,255772,2,0,L|216:352,3,26.6666666666667,0|2|0|2,0:0|0:0|0:0|0:0,0:0:0:0:
304,336,256426,1,0,0:0:0:0:
444,192,256753,5,0,0:0:0:0:
380,120,257079,1,0,0:0:0:0:
288,100,257406,1,2,0:0:0:0:
192,104,257733,1,0,0:0:0:0:
112,156,258060,1,2,0:0:0:0:
68,240,258387,2,0,L|56:264,3,26.6666666666667,0|2|0|2,0:0|0:0|0:0|0:0,0:0:0:0:
92,352,259040,1,0,0:0:0:0:
308,248,259367,5,0,0:0:0:0:
340,149,259694,1,0,0:0:0:0:
256,87,260021,1,2,0:0:0:0:
171,149,260347,1,0,0:0:0:0:
204,248,260674,1,2,0:0:0:0:
256,340,261001,2,0,L|256:312,3,26.6666666666667,0|2|0|2,0:0|0:0|0:0|0:0,0:0:0:0:
256,208,261655,1,0,0:0:0:0:
408,160,261981,5,0,0:0:0:0:
356,96,262308,1,0,0:0:0:0:
288,56,262635,2,0,P|244:44|140:80,1,160,2|0,0:0|0:0,0:0:0:0:
88,140,263615,1,0,0:0:0:0:
80,300,263942,6,0,P|150:342|188:341,1,120
223,332,264596,1,0,0:0:0:0:
260,315,264759,2,0,P|296:297|336:291,1,80
375,294,265249,1,2,0:0:0:0:
416,288,265413,2,0,P|455:269|480:243,1,80
497,207,265903,1,0,0:0:0:0:
494,127,266230,1,0,0:0:0:0:
356,48,266557,6,0,P|320:68|300:104,1,80
288,140,267047,1,0,0:0:0:0:
268,176,267210,2,0,P|236:200|192:208,1,80
132,160,267864,2,0,P|163:136|202:127,1,80,2|0,0:0|0:0,0:0:0:0:
198,208,268517,2,0,P|166:232|122:240,2,80,0|0|2,0:0|0:0|0:0,0:0:0:0:
232,184,269334,5,0,0:0:0:0:
272,176,269498,1,0,0:0:0:0:
432,192,269825,2,0,P|412:224|376:248,1,80
340,260,270315,1,0,0:0:0:0:
300,260,270478,2,0,P|260:264|224:284,1,80,2|0,0:0|0:0,0:0:0:0:
196,308,270968,1,0,0:0:0:0:
168,336,271132,2,0,P|104:336|116:260,1,160,0|2,0:0|0:0,0:0:0:0:
416,152,272439,5,0,0:0:0:0:
352,104,272766,1,0,0:0:0:0:
272,92,273093,2,0,P|228:92|192:108,1,80,2|0,0:0|0:0,0:0:0:0:
128,148,273746,1,2,0:0:0:0:
72,204,274073,2,0,L|52:224,3,26.6666666666667,0|2|0|2,0:0|0:0|0:0|0:0,0:0:0:0:
56,304,274727,1,0,0:0:0:0:
256,320,275053,6,0,P|296:316|336:304,1,80
400,260,275707,1,2,0:0:0:0:
436,180,276034,1,0,0:0:0:0:
436,100,276360,1,2,0:0:0:0:
396,32,276687,2,0,L|384:8,3,26.6666666666667,0|2|0|2,0:0|0:0|0:0|0:0,0:0:0:0:
304,8,277341,1,0,0:0:0:0:
148,44,277668,6,0,P|112:60|87:94,1,80
64,168,278321,2,0,P|63:208|77:246,1,80,2|0,0:0|0:0,0:0:0:0:
136,296,278975,1,2,0:0:0:0:
208,332,279302,2,0,L|236:340,3,26.6666666666667,0|2|0|2,0:0|0:0|0:0|0:0,0:0:0:0:
312,336,279955,1,0,0:0:0:0:
408,264,280282,5,0,0:0:0:0:
392,184,280609,1,0,0:0:0:0:
336,124,280936,1,2,0:0:0:0:
260,100,281262,1,0,0:0:0:0:
180,116,281589,1,2,0:0:0:0:
156,192,281916,2,0,L|156:220,3,26.6666666666667,0|2|0|2,0:0|0:0|0:0|0:0,0:0:0:0:
224,264,282570,1,0,0:0:0:0:
256,192,282896,5,4,0:0:0:0:
